  0
SECTION
  2
HEADER
  9
$ACADVER
  1
AC1015
  9
$ACADMAINTVER
 70
    20
  9
$DWGCODEPAGE
  3
ANSI_932
  9
$INSBASE
 10
0.0
 20
0.0
 30
0.0
  9
$EXTMIN
 10
3.191529301916716
 20
2.71005318489631
 30
-0.0000005028847927
  9
$EXTMAX
 10
402.7734384578343
 20
294.199310990981
 30
0.0000000209681696
  9
$LIMMIN
 10
0.0
 20
0.0
  9
$LIMMAX
 10
420.0
 20
297.0
  9
$ORTHOMODE
 70
     0
  9
$REGENMODE
 70
     1
  9
$FILLMODE
 70
     1
  9
$QTEXTMODE
 70
     0
  9
$MIRRTEXT
 70
     1
  9
$LTSCALE
 40
12.0
  9
$ATTMODE
 70
     1
  9
$TEXTSIZE
 40
10.0
  9
$TRACEWID
 40
0.3
  9
$TEXTSTYLE
  7
0
  9
$CLAYER
  8
SA
  9
$CELTYPE
  6
ByLayer
  9
$CECOLOR
 62
   256
  9
$CELTSCALE
 40
1.0
  9
$DISPSILH
 70
     0
  9
$DIMSCALE
 40
1.0
  9
$DIMASZ
 40
2.5
  9
$DIMEXO
 40
0.0625
  9
$DIMDLI
 40
8.0
  9
$DIMRND
 40
0.0
  9
$DIMDLE
 40
0.0
  9
$DIMEXE
 40
1.25
  9
$DIMTP
 40
0.0
  9
$DIMTM
 40
0.0
  9
$DIMTXT
 40
2.5
  9
$DIMCEN
 40
2.5
  9
$DIMTSZ
 40
0.0
  9
$DIMTOL
 70
     0
  9
$DIMLIM
 70
     0
  9
$DIMTIH
 70
     0
  9
$DIMTOH
 70
     0
  9
$DIMSE1
 70
     0
  9
$DIMSE2
 70
     0
  9
$DIMTAD
 70
     1
  9
$DIMZIN
 70
     8
  9
$DIMBLK
  1

  9
$DIMASO
 70
     1
  9
$DIMSHO
 70
     0
  9
$DIMPOST
  1

  9
$DIMAPOST
  1

  9
$DIMALT
 70
     0
  9
$DIMALTD
 70
     2
  9
$DIMALTF
 40
25.4
  9
$DIMLFAC
 40
1.0
  9
$DIMTOFL
 70
     1
  9
$DIMTVP
 40
0.0
  9
$DIMTIX
 70
     0
  9
$DIMSOXD
 70
     0
  9
$DIMSAH
 70
     0
  9
$DIMBLK1
  1

  9
$DIMBLK2
  1

  9
$DIMSTYLE
  2
nisimura
  9
$DIMCLRD
 70
     0
  9
$DIMCLRE
 70
     0
  9
$DIMCLRT
 70
     0
  9
$DIMTFAC
 40
1.0
  9
$DIMGAP
 40
0.625
  9
$DIMJUST
 70
     0
  9
$DIMSD1
 70
     0
  9
$DIMSD2
 70
     0
  9
$DIMTOLJ
 70
     1
  9
$DIMTZIN
 70
     0
  9
$DIMALTZ
 70
     0
  9
$DIMALTTZ
 70
     0
  9
$DIMUPT
 70
     0
  9
$DIMDEC
 70
     2
  9
$DIMTDEC
 70
     2
  9
$DIMALTU
 70
     2
  9
$DIMALTTD
 70
     2
  9
$DIMTXSTY
  7
0
  9
$DIMAUNIT
 70
     0
  9
$DIMADEC
 70
     2
  9
$DIMALTRND
 40
0.0
  9
$DIMAZIN
 70
     2
  9
$DIMDSEP
 70
    46
  9
$DIMATFIT
 70
     3
  9
$DIMFRAC
 70
     0
  9
$DIMLDRBLK
  1

  9
$DIMLUNIT
 70
     2
  9
$DIMLWD
 70
    -2
  9
$DIMLWE
 70
    -2
  9
$DIMTMOVE
 70
     0
  9
$LUNITS
 70
     2
  9
$LUPREC
 70
     4
  9
$SKETCHINC
 40
0.1
  9
$FILLETRAD
 40
0.4
  9
$AUNITS
 70
     0
  9
$AUPREC
 70
     1
  9
$MENU
  1
ACAD
  9
$ELEVATION
 40
0.0
  9
$PELEVATION
 40
0.0
  9
$THICKNESS
 40
0.0
  9
$LIMCHECK
 70
     0
  9
$CHAMFERA
 40
0.0
  9
$CHAMFERB
 40
0.0
  9
$CHAMFERC
 40
0.0
  9
$CHAMFERD
 40
0.0
  9
$SKPOLY
 70
     0
  9
$TDCREATE
 40
2450808.702418171
  9
$TDUCREATE
 40
2450808.327418172
  9
$TDUPDATE
 40
2458726.645794444
  9
$TDUUPDATE
 40
2458726.270794445
  9
$TDINDWG
 40
2.0073096181
  9
$TDUSRTIMER
 40
2.0073095486
  9
$USRTIMER
 70
     1
  9
$ANGBASE
 50
0.0
  9
$ANGDIR
 70
     0
  9
$PDMODE
 70
     0
  9
$PDSIZE
 40
0.0
  9
$PLINEWID
 40
1.0
  9
$SPLFRAME
 70
     0
  9
$SPLINETYPE
 70
     6
  9
$SPLINESEGS
 70
     8
  9
$HANDSEED
  5
332F
  9
$SURFTAB1
 70
     6
  9
$SURFTAB2
 70
     6
  9
$SURFTYPE
 70
     6
  9
$SURFU
 70
     6
  9
$SURFV
 70
     6
  9
$UCSBASE
  2

  9
$UCSNAME
  2

  9
$UCSORG
 10
0.0
 20
0.0
 30
0.0
  9
$UCSXDIR
 10
1.0
 20
0.0
 30
0.0
  9
$UCSYDIR
 10
0.0
 20
1.0
 30
0.0
  9
$UCSORTHOREF
  2

  9
$UCSORTHOVIEW
 70
     0
  9
$UCSORGTOP
 10
0.0
 20
0.0
 30
0.0
  9
$UCSORGBOTTOM
 10
0.0
 20
0.0
 30
0.0
  9
$UCSORGLEFT
 10
0.0
 20
0.0
 30
0.0
  9
$UCSORGRIGHT
 10
0.0
 20
0.0
 30
0.0
  9
$UCSORGFRONT
 10
0.0
 20
0.0
 30
0.0
  9
$UCSORGBACK
 10
0.0
 20
0.0
 30
0.0
  9
$PUCSBASE
  2

  9
$PUCSNAME
  2

  9
$PUCSORG
 10
0.0
 20
0.0
 30
0.0
  9
$PUCSXDIR
 10
1.0
 20
0.0
 30
0.0
  9
$PUCSYDIR
 10
0.0
 20
1.0
 30
0.0
  9
$PUCSORTHOREF
  2

  9
$PUCSORTHOVIEW
 70
     0
  9
$PUCSORGTOP
 10
0.0
 20
0.0
 30
0.0
  9
$PUCSORGBOTTOM
 10
0.0
 20
0.0
 30
0.0
  9
$PUCSORGLEFT
 10
0.0
 20
0.0
 30
0.0
  9
$PUCSORGRIGHT
 10
0.0
 20
0.0
 30
0.0
  9
$PUCSORGFRONT
 10
0.0
 20
0.0
 30
0.0
  9
$PUCSORGBACK
 10
0.0
 20
0.0
 30
0.0
  9
$USERI1
 70
     0
  9
$USERI2
 70
     0
  9
$USERI3
 70
     0
  9
$USERI4
 70
     0
  9
$USERI5
 70
     0
  9
$USERR1
 40
0.0
  9
$USERR2
 40
0.0
  9
$USERR3
 40
0.0
  9
$USERR4
 40
0.0
  9
$USERR5
 40
0.0
  9
$WORLDVIEW
 70
     1
  9
$SHADEDGE
 70
     3
  9
$SHADEDIF
 70
    70
  9
$TILEMODE
 70
     1
  9
$MAXACTVP
 70
    16
  9
$PINSBASE
 10
0.0
 20
0.0
 30
0.0
  9
$PLIMCHECK
 70
     0
  9
$PEXTMIN
 10
1.000000000000000E+20
 20
1.000000000000000E+20
 30
1.000000000000000E+20
  9
$PEXTMAX
 10
-1.000000000000000E+20
 20
-1.000000000000000E+20
 30
-1.000000000000000E+20
  9
$PLIMMIN
 10
0.0
 20
0.0
  9
$PLIMMAX
 10
12.0
 20
9.0
  9
$UNITMODE
 70
     0
  9
$VISRETAIN
 70
     0
  9
$PLINEGEN
 70
     0
  9
$PSLTSCALE
 70
     0
  9
$TREEDEPTH
 70
  3020
  9
$CMLSTYLE
  2
Standard
  9
$CMLJUST
 70
     0
  9
$CMLSCALE
 40
1.0
  9
$PROXYGRAPHICS
 70
     1
  9
$MEASUREMENT
 70
     0
  9
$CELWEIGHT
370
    -1
  9
$ENDCAPS
280
     0
  9
$JOINSTYLE
280
     0
  9
$LWDISPLAY
290
     0
  9
$INSUNITS
 70
     0
  9
$HYPERLINKBASE
  1

  9
$STYLESHEET
  1
monochrome.ctb
  9
$XEDIT
290
     1
  9
$CEPSNTYPE
380
     0
  9
$PSTYLEMODE
290
     1
  9
$FINGERPRINTGUID
  2
{51BC8342-4694-11D4-A1F9-0060672295C7}
  9
$VERSIONGUID
  2
{C193AA00-AEF7-40DC-BFA3-C74026306CA9}
  9
$EXTNAMES
290
     1
  9
$PSVPSCALE
 40
0.0
  9
$OLESTARTUP
290
     0
  0
ENDSEC
  0
SECTION
  2
CLASSES
  0
CLASS
  1
ACDBDICTIONARYWDFLT
  2
AcDbDictionaryWithDefault
  3
ObjectDBX Classes
 90
        0
280
     0
281
     0
  0
CLASS
  1
ACDBPLACEHOLDER
  2
AcDbPlaceHolder
  3
ObjectDBX Classes
 90
        0
280
     0
281
     0
  0
CLASS
  1
LAYOUT
  2
AcDbLayout
  3
ObjectDBX Classes
 90
        0
280
     0
281
     0
  0
CLASS
  1
TABLESTYLE
  2
AcDbTableStyle
  3
ObjectDBX Classes
 90
     4095
280
     0
281
     0
  0
CLASS
  1
DICTIONARYVAR
  2
AcDbDictionaryVar
  3
ObjectDBX Classes
 90
        0
280
     0
281
     0
  0
CLASS
  1
MATERIAL
  2
AcDbMaterial
  3
ObjectDBX Classes
 90
     1153
280
     0
281
     0
  0
CLASS
  1
VISUALSTYLE
  2
AcDbVisualStyle
  3
ObjectDBX Classes
 90
     4095
280
     0
281
     0
  0
CLASS
  1
SCALE
  2
AcDbScale
  3
ObjectDBX Classes
 90
     1153
280
     0
281
     0
  0
CLASS
  1
MLEADERSTYLE
  2
AcDbMLeaderStyle
  3
ACDB_MLEADERSTYLE_CLASS
 90
     4095
280
     0
281
     0
  0
CLASS
  1
ACDBSECTIONVIEWSTYLE
  2
AcDbSectionViewStyle
  3
ObjectDBX Classes
 90
     1025
280
     0
281
     0
  0
CLASS
  1
ACDBDETAILVIEWSTYLE
  2
AcDbDetailViewStyle
  3
ObjectDBX Classes
 90
     1025
280
     0
281
     0
  0
CLASS
  1
SORTENTSTABLE
  2
AcDbSortentsTable
  3
ObjectDBX Classes
 90
        0
280
     0
281
     0
  0
CLASS
  1
ACDBASSOCACTION
  2
AcDbAssocAction
  3
ObjectDBX Classes
 90
    33793
280
     0
281
     0
  0
CLASS
  1
ACDBASSOCARRAYACTIONBODY
  2
AcDbAssocArrayActionBody
  3
ObjectDBX Classes
 90
    33793
280
     0
281
     0
  0
CLASS
  1
ACDBASSOCDEPENDENCY
  2
AcDbAssocDependency
  3
ObjectDBX Classes
 90
    33793
280
     0
281
     0
  0
CLASS
  1
ACDBASSOCVERTEXACTIONPARAM
  2
AcDbAssocVertexActionParam
  3
ObjectDBX Classes
 90
    33793
280
     0
281
     0
  0
CLASS
  1
ACDBASSOCARRAYPOLARPARAMETERS
  2
AcDbAssocArrayPolarParameters
  3
ObjectDBX Classes
 90
    33793
280
     0
281
     0
  0
CLASS
  1
ACDBASSOCNETWORK
  2
AcDbAssocNetwork
  3
ObjectDBX Classes
 90
    33793
280
     0
281
     0
  0
CLASS
  1
CELLSTYLEMAP
  2
AcDbCellStyleMap
  3
ObjectDBX Classes
 90
     1152
280
     0
281
     0
  0
ENDSEC
  0
SECTION
  2
TABLES
  0
TABLE
  2
VPORT
  5
8
330
0
100
AcDbSymbolTable
 70
     1
  0
VPORT
  5
1FCB
330
8
100
AcDbSymbolTableRecord
100
AcDbViewportTableRecord
  2
*Active
 70
     0
 10
0.0
 20
0.0
 11
1.0
 21
1.0
 12
202.9824838798755
 22
148.4546820879386
 13
0.0
 23
0.0
 14
0.001
 24
0.001
 15
10.0
 25
10.0
 16
0.0
 26
0.0
 36
1.0
 17
0.0
 27
0.0
 37
0.0
 40
293.6919474116722
 41
2.090794451450189
 42
50.0
 43
0.0
 44
0.0
 50
0.0
 51
0.0
 71
     0
 72
  2000
 73
     1
 74
     0
 75
     1
 76
     1
 77
     0
 78
     2
281
     0
 65
     1
110
0.0
120
0.0
130
0.0
111
1.0
121
0.0
131
0.0
112
0.0
122
1.0
132
0.0
 79
     0
146
0.0
1001
ACAD_NAV_VCDISPLAY
1070
     3
  0
ENDTAB
  0
TABLE
  2
LTYPE
  5
5
330
0
100
AcDbSymbolTable
 70
     6
  0
LTYPE
  5
13
330
5
100
AcDbSymbolTableRecord
100
AcDbLinetypeTableRecord
  2
ByBlock
 70
     0
  3

 72
    65
 73
     0
 40
0.0
  0
LTYPE
  5
14
330
5
100
AcDbSymbolTableRecord
100
AcDbLinetypeTableRecord
  2
ByLayer
 70
     0
  3

 72
    65
 73
     0
 40
0.0
  0
LTYPE
  5
15
330
5
100
AcDbSymbolTableRecord
100
AcDbLinetypeTableRecord
  2
CONTINUOUS
 70
     0
  3
実線
 72
    65
 73
     0
 40
0.0
  0
LTYPE
  5
23
330
5
100
AcDbSymbolTableRecord
100
AcDbLinetypeTableRecord
  2
CENTER
 70
     0
  3
____ _ ____ _ ____ _ ____ _ ____ _ ____ _ ____
 72
    65
 73
     4
 40
2.0
 49
1.25
 74
     0
 49
-0.25
 74
     0
 49
0.25
 74
     0
 49
-0.25
 74
     0
  0
LTYPE
  5
24
330
5
100
AcDbSymbolTableRecord
100
AcDbLinetypeTableRecord
  2
HIDDEN
 70
     0
  3
_ _ _ _ _ _ _ _ _ _ _ _ _ _ _ _ _ _ _ _ _ _ _
 72
    65
 73
     2
 40
0.375
 49
0.25
 74
     0
 49
-0.125
 74
     0
  0
LTYPE
  5
1C0C
330
5
100
AcDbSymbolTableRecord
100
AcDbLinetypeTableRecord
  2
PHANTOM2
 70
     0
  3
Phantom (.5x) ___ _ _ ___ _ _ ___ _ _ ___ _ _
 72
    65
 73
     6
 40
1.25
 49
0.625
 74
     0
 49
-0.125
 74
     0
 49
0.125
 74
     0
 49
-0.125
 74
     0
 49
0.125
 74
     0
 49
-0.125
 74
     0
  0
ENDTAB
  0
TABLE
  2
LAYER
  5
2
102
{ACAD_XDICTIONARY
360
2081
102
}
330
0
100
AcDbSymbolTable
 70
    13
  0
LAYER
  5
10
102
{ACAD_XDICTIONARY
360
2058
102
}
330
2
100
AcDbSymbolTableRecord
100
AcDbLayerTableRecord
  2
0
 70
     0
 62
     7
  6
CONTINUOUS
370
    -3
390
F
  0
LAYER
  5
28
102
{ACAD_XDICTIONARY
360
205A
102
}
330
2
100
AcDbSymbolTableRecord
100
AcDbLayerTableRecord
  2
HO
 70
     0
 62
     2
  6
CENTER
370
    13
390
F
  0
LAYER
  5
29
102
{ACAD_XDICTIONARY
360
205C
102
}
330
2
100
AcDbSymbolTableRecord
100
AcDbLayerTableRecord
  2
HA
 70
     0
 62
     4
  6
HIDDEN
370
    13
390
F
  0
LAYER
  5
2A
102
{ACAD_XDICTIONARY
360
205E
102
}
330
2
100
AcDbSymbolTableRecord
100
AcDbLayerTableRecord
  2
SB
 70
     0
 62
     1
  6
CONTINUOUS
370
    20
390
F
  0
LAYER
  5
2B
102
{ACAD_XDICTIONARY
360
2060
102
}
330
2
100
AcDbSymbolTableRecord
100
AcDbLayerTableRecord
  2
SA
 70
     0
 62
     7
  6
CONTINUOUS
370
    30
390
F
  0
LAYER
  5
2C
102
{ACAD_XDICTIONARY
360
2062
102
}
330
2
100
AcDbSymbolTableRecord
100
AcDbLayerTableRecord
  2
MO
 70
     0
 62
     3
  6
CONTINUOUS
370
    20
390
F
  0
LAYER
  5
2D
102
{ACAD_XDICTIONARY
360
2064
102
}
330
2
100
AcDbSymbolTableRecord
100
AcDbLayerTableRecord
  2
SC
 70
     0
 62
     6
  6
CONTINUOUS
370
    13
390
F
  0
LAYER
  5
2E
330
2
100
AcDbSymbolTableRecord
100
AcDbLayerTableRecord
  2
DEFPOINTS
 70
     0
 62
     7
  6
CONTINUOUS
290
     0
370
    -3
390
F
  0
LAYER
  5
1397
102
{ACAD_XDICTIONARY
360
2066
102
}
330
2
100
AcDbSymbolTableRecord
100
AcDbLayerTableRecord
  2
sd
 70
     0
 62
     1
  6
CONTINUOUS
370
    20
390
F
  0
LAYER
  5
2C42
330
2
100
AcDbSymbolTableRecord
100
AcDbLayerTableRecord
  2
NN
 70
     0
 62
     3
  6
CONTINUOUS
370
    20
390
F
  0
LAYER
  5
2E09
330
2
100
AcDbSymbolTableRecord
100
AcDbLayerTableRecord
  2
文字
 70
     0
 62
     3
  6
CONTINUOUS
370
    20
390
F
  0
ENDTAB
  0
TABLE
  2
STYLE
  5
3
330
0
100
AcDbSymbolTable
 70
     5
  0
STYLE
  5
11
330
3
100
AcDbSymbolTableRecord
100
AcDbTextStyleTableRecord
  2
STANDARD
 70
     0
 40
0.0
 41
1.0
 50
0.0
 71
     0
 42
0.2
  3
TXT
  4

  0
STYLE
  5
22
330
3
100
AcDbSymbolTableRecord
100
AcDbTextStyleTableRecord
  2
0
 70
     0
 40
0.0
 41
1.0
 50
0.0
 71
     0
 42
10.0
  3
SIMPLEX
  4
BIGFONT
  0
STYLE
  5
1C0B
330
3
100
AcDbSymbolTableRecord
100
AcDbTextStyleTableRecord
  2

 70
     1
 40
0.0
 41
1.0
 50
0.0
 71
     0
 42
10.0
  3
ltypeshp.shx
  4

  0
ENDTAB
  0
TABLE
  2
VIEW
  5
6
330
0
100
AcDbSymbolTable
 70
     1
  0
VIEW
  5
25
330
6
100
AcDbSymbolTableRecord
100
AcDbViewTableRecord
  2
HYOU
 70
     0
 40
162.519
 10
329.94
 20
84.5855
 41
158.206
 11
0.0
 21
0.0
 31
1.0
 12
0.0
 22
0.0
 32
0.0
 42
50.0
 43
0.0
 44
0.0
 50
0.0
 71
     0
281
     0
 72
     0
  0
ENDTAB
  0
TABLE
  2
UCS
  5
7
330
0
100
AcDbSymbolTable
 70
     0
  0
ENDTAB
  0
TABLE
  2
APPID
  5
9
330
0
100
AcDbSymbolTable
 70
     8
  0
APPID
  5
12
330
9
100
AcDbSymbolTableRecord
100
AcDbRegAppTableRecord
  2
ACAD
 70
     0
  0
APPID
  5
17B3
330
9
100
AcDbSymbolTableRecord
100
AcDbRegAppTableRecord
  2
ACAD_PSEXT
 70
     0
  0
APPID
  5
2023
330
9
100
AcDbSymbolTableRecord
100
AcDbRegAppTableRecord
  2
ACAD_EXEMPT_FROM_CAD_STANDARDS
 70
     0
  0
APPID
  5
2068
330
9
100
AcDbSymbolTableRecord
100
AcDbRegAppTableRecord
  2
ACAD_NAV_VCDISPLAY
 70
     0
  0
APPID
  5
24A4
330
9
100
AcDbSymbolTableRecord
100
AcDbRegAppTableRecord
  2
AcadAnnoMonitorAlertIconDisabled
 70
     0
  0
APPID
  5
26FA
330
9
100
AcDbSymbolTableRecord
100
AcDbRegAppTableRecord
  2
ACAD_DSTYLE_DIMJAG
 70
     0
  0
APPID
  5
26FB
330
9
100
AcDbSymbolTableRecord
100
AcDbRegAppTableRecord
  2
ACAD_DSTYLE_DIMTALN
 70
     0
  0
APPID
  5
332A
330
9
100
AcDbSymbolTableRecord
100
AcDbRegAppTableRecord
  2
ACAD_MLEADERVER
 70
     0
  0
ENDTAB
  0
TABLE
  2
DIMSTYLE
  5
A
330
0
100
AcDbSymbolTable
 70
     5
100
AcDbDimStyleTable
 71
     2
340
2C44
340
3C3
  0
DIMSTYLE
105
3C3
330
A
100
AcDbSymbolTableRecord
100
AcDbDimStyleTableRecord
  2
Standard
 70
     0
 41
2.0
140
2.0
340
11
1001
ACAD_DSTYLE_DIMJAG
1070
   388
1040
1.5
1001
ACAD_DSTYLE_DIMTALN
1070
   392
1070
     0
  0
DIMSTYLE
105
2C44
102
{ACAD_REACTORS
330
2EBF
330
30B4
330
30E9
330
313F
330
316E
102
}
330
A
100
AcDbSymbolTableRecord
100
AcDbDimStyleTableRecord
  2
nisimura
 70
     0
 41
2.5
 43
8.0
 44
1.25
 73
     0
 74
     0
 77
     1
 78
     8
 79
     2
140
2.5
141
2.5
147
0.625
172
     1
179
     2
271
     2
272
     2
340
22
  0
ENDTAB
  0
TABLE
  2
BLOCK_RECORD
  5
1
330
0
100
AcDbSymbolTable
 70
    38
  0
BLOCK_RECORD
  5
1E
102
{ACAD_XDICTIONARY
360
2BBB
102
}
330
1
100
AcDbSymbolTableRecord
100
AcDbBlockTableRecord
  2
*Model_Space
340
21
  0
BLOCK_RECORD
  5
1A
330
1
100
AcDbSymbolTableRecord
100
AcDbBlockTableRecord
  2
*Paper_Space
340
1D
  0
BLOCK_RECORD
  5
1BF1
330
1
100
AcDbSymbolTableRecord
100
AcDbBlockTableRecord
  2
A$C168224A4
340
0
  0
BLOCK_RECORD
  5
2514
330
1
100
AcDbSymbolTableRecord
100
AcDbBlockTableRecord
  2
_ClosedBlank
340
0
  0
BLOCK_RECORD
  5
2525
330
1
100
AcDbSymbolTableRecord
100
AcDbBlockTableRecord
  2
_Closed
340
0
  0
BLOCK_RECORD
  5
2537
330
1
100
AcDbSymbolTableRecord
100
AcDbBlockTableRecord
  2
_Dot
340
0
  0
BLOCK_RECORD
  5
2547
330
1
100
AcDbSymbolTableRecord
100
AcDbBlockTableRecord
  2
_ArchTick
340
0
  0
BLOCK_RECORD
  5
2556
330
1
100
AcDbSymbolTableRecord
100
AcDbBlockTableRecord
  2
_Oblique
340
0
  0
BLOCK_RECORD
  5
2565
330
1
100
AcDbSymbolTableRecord
100
AcDbBlockTableRecord
  2
_Open
340
0
  0
BLOCK_RECORD
  5
2576
330
1
100
AcDbSymbolTableRecord
100
AcDbBlockTableRecord
  2
_Origin
340
0
  0
BLOCK_RECORD
  5
2586
330
1
100
AcDbSymbolTableRecord
100
AcDbBlockTableRecord
  2
_Origin2
340
0
  0
BLOCK_RECORD
  5
2597
330
1
100
AcDbSymbolTableRecord
100
AcDbBlockTableRecord
  2
_Open90
340
0
  0
BLOCK_RECORD
  5
25A8
330
1
100
AcDbSymbolTableRecord
100
AcDbBlockTableRecord
  2
_Open30
340
0
  0
BLOCK_RECORD
  5
25B9
330
1
100
AcDbSymbolTableRecord
100
AcDbBlockTableRecord
  2
_DotSmall
340
0
  0
BLOCK_RECORD
  5
25C8
330
1
100
AcDbSymbolTableRecord
100
AcDbBlockTableRecord
  2
_DotBlank
340
0
  0
BLOCK_RECORD
  5
25D8
330
1
100
AcDbSymbolTableRecord
100
AcDbBlockTableRecord
  2
_Small
340
0
  0
BLOCK_RECORD
  5
25E7
330
1
100
AcDbSymbolTableRecord
100
AcDbBlockTableRecord
  2
_BoxBlank
340
0
  0
BLOCK_RECORD
  5
25FA
330
1
100
AcDbSymbolTableRecord
100
AcDbBlockTableRecord
  2
_BoxFilled
340
0
  0
BLOCK_RECORD
  5
260A
330
1
100
AcDbSymbolTableRecord
100
AcDbBlockTableRecord
  2
_DatumBlank
340
0
  0
BLOCK_RECORD
  5
261B
330
1
100
AcDbSymbolTableRecord
100
AcDbBlockTableRecord
  2
_DatumFilled
340
0
  0
BLOCK_RECORD
  5
262A
330
1
100
AcDbSymbolTableRecord
100
AcDbBlockTableRecord
  2
_Integral
340
0
  0
BLOCK_RECORD
  5
263A
330
1
100
AcDbSymbolTableRecord
100
AcDbBlockTableRecord
  2
_None
340
0
  0
BLOCK_RECORD
  5
2DF0
330
1
100
AcDbSymbolTableRecord
100
AcDbBlockTableRecord
  2
*D25
340
0
  0
BLOCK_RECORD
  5
2DFC
330
1
100
AcDbSymbolTableRecord
100
AcDbBlockTableRecord
  2
*D26
340
0
  0
BLOCK_RECORD
  5
2EC7
330
1
100
AcDbSymbolTableRecord
100
AcDbBlockTableRecord
  2
*D28
340
0
  0
BLOCK_RECORD
  5
2ED3
330
1
100
AcDbSymbolTableRecord
100
AcDbBlockTableRecord
  2
*D29
340
0
  0
BLOCK_RECORD
  5
30B5
330
1
100
AcDbSymbolTableRecord
100
AcDbBlockTableRecord
  2
*D32
340
0
  0
BLOCK_RECORD
  5
30EA
330
1
100
AcDbSymbolTableRecord
100
AcDbBlockTableRecord
  2
*D33
340
0
  0
BLOCK_RECORD
  5
3140
330
1
100
AcDbSymbolTableRecord
100
AcDbBlockTableRecord
  2
*D35
340
0
  0
BLOCK_RECORD
  5
316F
330
1
100
AcDbSymbolTableRecord
100
AcDbBlockTableRecord
  2
*D36
340
0
  0
ENDTAB
  0
ENDSEC
  0
SECTION
  2
BLOCKS
  0
BLOCK
  5
31
330
1E
100
AcDbEntity
  8
0
100
AcDbBlockBegin
  2
*Model_Space
 70
     0
 10
0.0
 20
0.0
 30
0.0
  3
*Model_Space
  1

  0
ENDBLK
  5
32
330
1E
100
AcDbEntity
  8
0
100
AcDbBlockEnd
  0
BLOCK
  5
2F
330
1A
100
AcDbEntity
 67
     1
  8
0
100
AcDbBlockBegin
  2
*Paper_Space
 70
     0
 10
0.0
 20
0.0
 30
0.0
  3
*Paper_Space
  1

  0
ENDBLK
  5
30
330
1A
100
AcDbEntity
 67
     1
  8
0
100
AcDbBlockEnd
  0
BLOCK
  5
1BF7
330
1BF1
100
AcDbEntity
  8
0
100
AcDbBlockBegin
  2
A$C168224A4
 70
     0
 10
0.0
 20
0.0
 30
0.0
  3
A$C168224A4
  1

  0
TEXT
  5
1BF2
330
1BF1
100
AcDbEntity
  8
MO
100
AcDbText
 10
29.06392589340328
 20
15.78399955256054
 30
0.0
 40
3.599999999999998
  1
ヒーターバンド
  7
0
100
AcDbText
  0
TEXT
  5
1BF3
330
1BF1
100
AcDbEntity
  8
MO
100
AcDbText
 10
16.98844636234099
 20
21.7352072125702
 30
0.0
 40
3.599999999999998
  1
ヒーター（C）
  7
0
100
AcDbText
  0
LINE
  5
1BF4
330
1BF1
100
AcDbEntity
  8
SC
100
AcDbLine
 10
14.63431328166325
 20
20.85448773706838
 30
0.0
 11
59.28792531728698
 21
20.85448773706838
 31
0.0
  0
LINE
  5
1BF5
330
1BF1
100
AcDbEntity
  8
SC
100
AcDbLine
 10
0.3999994263709823
 20
0.3999998947063545
 30
0.0
 11
14.63431328166325
 21
20.85448773706838
 31
0.0
  0
CIRCLE
  5
1BF6
330
1BF1
100
AcDbEntity
  8
SC
100
AcDbCircle
 10
0.3999994263709823
 20
0.3999998947063545
 30
0.0
 40
0.4
  0
ENDBLK
  5
1BF8
330
1BF1
100
AcDbEntity
  8
0
100
AcDbBlockEnd
  0
BLOCK
  5
2518
330
2514
100
AcDbEntity
  8
0
100
AcDbBlockBegin
  2
_ClosedBlank
 70
     0
 10
0.0
 20
0.0
 30
0.0
  3
_ClosedBlank
  1

  0
LINE
  5
2515
330
2514
100
AcDbEntity
  8
0
  6
ByBlock
 62
     0
370
    -2
100
AcDbLine
 10
-1.0
 20
0.1666666666666666
 30
0.0
 11
0.0
 21
0.0
 31
0.0
  0
LINE
  5
2516
330
2514
100
AcDbEntity
  8
0
  6
ByBlock
 62
     0
370
    -2
100
AcDbLine
 10
0.0
 20
0.0
 30
0.0
 11
-1.0
 21
-0.1666666666666666
 31
0.0
  0
LINE
  5
2517
330
2514
100
AcDbEntity
  8
0
  6
ByBlock
 62
     0
370
    -2
100
AcDbLine
 10
-1.0
 20
0.1666666666666666
 30
0.0
 11
-1.0
 21
-0.1666666666666666
 31
0.0
  0
ENDBLK
  5
2519
330
2514
100
AcDbEntity
  8
0
100
AcDbBlockEnd
  0
BLOCK
  5
252A
330
2525
100
AcDbEntity
  8
0
100
AcDbBlockBegin
  2
_Closed
 70
     0
 10
0.0
 20
0.0
 30
0.0
  3
_Closed
  1

  0
LINE
  5
2526
330
2525
100
AcDbEntity
  8
0
  6
ByBlock
 62
     0
370
    -2
100
AcDbLine
 10
-1.0
 20
0.1666666666666666
 30
0.0
 11
0.0
 21
0.0
 31
0.0
  0
LINE
  5
2527
330
2525
100
AcDbEntity
  8
0
  6
ByBlock
 62
     0
370
    -2
100
AcDbLine
 10
0.0
 20
0.0
 30
0.0
 11
-1.0
 21
-0.1666666666666666
 31
0.0
  0
LINE
  5
2528
330
2525
100
AcDbEntity
  8
0
  6
ByBlock
 62
     0
370
    -2
100
AcDbLine
 10
-1.0
 20
0.1666666666666666
 30
0.0
 11
-1.0
 21
-0.1666666666666666
 31
0.0
  0
LINE
  5
2529
330
2525
100
AcDbEntity
  8
0
  6
ByBlock
 62
     0
370
    -2
100
AcDbLine
 10
0.0
 20
0.0
 30
0.0
 11
-1.0
 21
0.0
 31
0.0
  0
ENDBLK
  5
252B
330
2525
100
AcDbEntity
  8
0
100
AcDbBlockEnd
  0
BLOCK
  5
253A
330
2537
100
AcDbEntity
  8
0
100
AcDbBlockBegin
  2
_Dot
 70
     0
 10
0.0
 20
0.0
 30
0.0
  3
_Dot
  1

  0
LWPOLYLINE
  5
2538
330
2537
100
AcDbEntity
  8
0
  6
ByBlock
 62
     0
100
AcDbPolyline
 90
        2
 70
     1
 43
0.5
 10
-0.25
 20
0.0
 42
1.0
 10
0.25
 20
0.0
 42
1.0
  0
LINE
  5
2539
330
2537
100
AcDbEntity
  8
0
  6
ByBlock
 62
     0
370
    -2
100
AcDbLine
 10
-0.5
 20
0.0
 30
0.0
 11
-1.0
 21
0.0
 31
0.0
  0
ENDBLK
  5
253B
330
2537
100
AcDbEntity
  8
0
100
AcDbBlockEnd
  0
BLOCK
  5
2549
330
2547
100
AcDbEntity
  8
0
100
AcDbBlockBegin
  2
_ArchTick
 70
     0
 10
0.0
 20
0.0
 30
0.0
  3
_ArchTick
  1

  0
LWPOLYLINE
  5
2548
330
2547
100
AcDbEntity
  8
0
  6
ByBlock
 62
     0
100
AcDbPolyline
 90
        2
 70
     0
 43
0.15
 10
-0.5
 20
-0.5
 10
0.5
 20
0.5
  0
ENDBLK
  5
254A
330
2547
100
AcDbEntity
  8
0
100
AcDbBlockEnd
  0
BLOCK
  5
2558
330
2556
100
AcDbEntity
  8
0
100
AcDbBlockBegin
  2
_Oblique
 70
     0
 10
0.0
 20
0.0
 30
0.0
  3
_Oblique
  1

  0
LINE
  5
2557
330
2556
100
AcDbEntity
  8
0
  6
ByBlock
 62
     0
370
    -2
100
AcDbLine
 10
-0.5
 20
-0.5
 30
0.0
 11
0.5
 21
0.5
 31
0.0
  0
ENDBLK
  5
2559
330
2556
100
AcDbEntity
  8
0
100
AcDbBlockEnd
  0
BLOCK
  5
2569
330
2565
100
AcDbEntity
  8
0
100
AcDbBlockBegin
  2
_Open
 70
     0
 10
0.0
 20
0.0
 30
0.0
  3
_Open
  1

  0
LINE
  5
2566
330
2565
100
AcDbEntity
  8
0
  6
ByBlock
 62
     0
370
    -2
100
AcDbLine
 10
-1.0
 20
0.1666666666666666
 30
0.0
 11
0.0
 21
0.0
 31
0.0
  0
LINE
  5
2567
330
2565
100
AcDbEntity
  8
0
  6
ByBlock
 62
     0
370
    -2
100
AcDbLine
 10
-1.0
 20
-0.1666666666666666
 30
0.0
 11
0.0
 21
0.0
 31
0.0
  0
LINE
  5
2568
330
2565
100
AcDbEntity
  8
0
  6
ByBlock
 62
     0
370
    -2
100
AcDbLine
 10
0.0
 20
0.0
 30
0.0
 11
-1.0
 21
0.0
 31
0.0
  0
ENDBLK
  5
256A
330
2565
100
AcDbEntity
  8
0
100
AcDbBlockEnd
  0
BLOCK
  5
2579
330
2576
100
AcDbEntity
  8
0
100
AcDbBlockBegin
  2
_Origin
 70
     0
 10
0.0
 20
0.0
 30
0.0
  3
_Origin
  1

  0
CIRCLE
  5
2577
330
2576
100
AcDbEntity
  8
0
  6
ByBlock
 62
     0
370
    -2
100
AcDbCircle
 10
0.0
 20
0.0
 30
0.0
 40
0.5
  0
LINE
  5
2578
330
2576
100
AcDbEntity
  8
0
  6
ByBlock
 62
     0
370
    -2
100
AcDbLine
 10
0.0
 20
0.0
 30
0.0
 11
-1.0
 21
0.0
 31
0.0
  0
ENDBLK
  5
257A
330
2576
100
AcDbEntity
  8
0
100
AcDbBlockEnd
  0
BLOCK
  5
258A
330
2586
100
AcDbEntity
  8
0
100
AcDbBlockBegin
  2
_Origin2
 70
     0
 10
0.0
 20
0.0
 30
0.0
  3
_Origin2
  1

  0
CIRCLE
  5
2587
330
2586
100
AcDbEntity
  8
0
  6
ByBlock
 62
     0
370
    -2
100
AcDbCircle
 10
0.0
 20
0.0
 30
0.0
 40
0.5
  0
CIRCLE
  5
2588
330
2586
100
AcDbEntity
  8
0
  6
ByBlock
 62
     0
370
    -2
100
AcDbCircle
 10
0.0
 20
0.0
 30
0.0
 40
0.25
  0
LINE
  5
2589
330
2586
100
AcDbEntity
  8
0
  6
ByBlock
 62
     0
370
    -2
100
AcDbLine
 10
-0.5
 20
0.0
 30
0.0
 11
-1.0
 21
0.0
 31
0.0
  0
ENDBLK
  5
258B
330
2586
100
AcDbEntity
  8
0
100
AcDbBlockEnd
  0
BLOCK
  5
259B
330
2597
100
AcDbEntity
  8
0
100
AcDbBlockBegin
  2
_Open90
 70
     0
 10
0.0
 20
0.0
 30
0.0
  3
_Open90
  1

  0
LINE
  5
2598
330
2597
100
AcDbEntity
  8
0
  6
ByBlock
 62
     0
370
    -2
100
AcDbLine
 10
-0.5
 20
0.5
 30
0.0
 11
0.0
 21
0.0
 31
0.0
  0
LINE
  5
2599
330
2597
100
AcDbEntity
  8
0
  6
ByBlock
 62
     0
370
    -2
100
AcDbLine
 10
0.0
 20
0.0
 30
0.0
 11
-0.5
 21
-0.5
 31
0.0
  0
LINE
  5
259A
330
2597
100
AcDbEntity
  8
0
  6
ByBlock
 62
     0
370
    -2
100
AcDbLine
 10
0.0
 20
0.0
 30
0.0
 11
-1.0
 21
0.0
 31
0.0
  0
ENDBLK
  5
259C
330
2597
100
AcDbEntity
  8
0
100
AcDbBlockEnd
  0
BLOCK
  5
25AC
330
25A8
100
AcDbEntity
  8
0
100
AcDbBlockBegin
  2
_Open30
 70
     0
 10
0.0
 20
0.0
 30
0.0
  3
_Open30
  1

  0
LINE
  5
25A9
330
25A8
100
AcDbEntity
  8
0
  6
ByBlock
 62
     0
370
    -2
100
AcDbLine
 10
-1.0
 20
0.26794919
 30
0.0
 11
0.0
 21
0.0
 31
0.0
  0
LINE
  5
25AA
330
25A8
100
AcDbEntity
  8
0
  6
ByBlock
 62
     0
370
    -2
100
AcDbLine
 10
0.0
 20
0.0
 30
0.0
 11
-1.0
 21
-0.26794919
 31
0.0
  0
LINE
  5
25AB
330
25A8
100
AcDbEntity
  8
0
  6
ByBlock
 62
     0
370
    -2
100
AcDbLine
 10
0.0
 20
0.0
 30
0.0
 11
-1.0
 21
0.0
 31
0.0
  0
ENDBLK
  5
25AD
330
25A8
100
AcDbEntity
  8
0
100
AcDbBlockEnd
  0
BLOCK
  5
25BB
330
25B9
100
AcDbEntity
  8
0
100
AcDbBlockBegin
  2
_DotSmall
 70
     0
 10
0.0
 20
0.0
 30
0.0
  3
_DotSmall
  1

  0
LWPOLYLINE
  5
25BA
330
25B9
100
AcDbEntity
  8
0
  6
ByBlock
 62
     0
100
AcDbPolyline
 90
        2
 70
     1
 43
0.5
 10
-0.0625
 20
0.0
 42
1.0
 10
0.0625
 20
0.0
 42
1.0
  0
ENDBLK
  5
25BC
330
25B9
100
AcDbEntity
  8
0
100
AcDbBlockEnd
  0
BLOCK
  5
25CB
330
25C8
100
AcDbEntity
  8
0
100
AcDbBlockBegin
  2
_DotBlank
 70
     0
 10
0.0
 20
0.0
 30
0.0
  3
_DotBlank
  1

  0
CIRCLE
  5
25C9
330
25C8
100
AcDbEntity
  8
0
  6
ByBlock
 62
     0
370
    -2
100
AcDbCircle
 10
0.0
 20
0.0
 30
0.0
 40
0.5
  0
LINE
  5
25CA
330
25C8
100
AcDbEntity
  8
0
  6
ByBlock
 62
     0
370
    -2
100
AcDbLine
 10
-0.5
 20
0.0
 30
0.0
 11
-1.0
 21
0.0
 31
0.0
  0
ENDBLK
  5
25CC
330
25C8
100
AcDbEntity
  8
0
100
AcDbBlockEnd
  0
BLOCK
  5
25DA
330
25D8
100
AcDbEntity
  8
0
100
AcDbBlockBegin
  2
_Small
 70
     0
 10
0.0
 20
0.0
 30
0.0
  3
_Small
  1

  0
CIRCLE
  5
25D9
330
25D8
100
AcDbEntity
  8
0
  6
ByBlock
 62
     0
370
    -2
100
AcDbCircle
 10
0.0
 20
0.0
 30
0.0
 40
0.25
  0
ENDBLK
  5
25DB
330
25D8
100
AcDbEntity
  8
0
100
AcDbBlockEnd
  0
BLOCK
  5
25ED
330
25E7
100
AcDbEntity
  8
0
100
AcDbBlockBegin
  2
_BoxBlank
 70
     0
 10
0.0
 20
0.0
 30
0.0
  3
_BoxBlank
  1

  0
LINE
  5
25E8
330
25E7
100
AcDbEntity
  8
0
  6
ByBlock
 62
     0
370
    -2
100
AcDbLine
 10
-0.5
 20
-0.5
 30
0.0
 11
0.5
 21
-0.5
 31
0.0
  0
LINE
  5
25E9
330
25E7
100
AcDbEntity
  8
0
  6
ByBlock
 62
     0
370
    -2
100
AcDbLine
 10
0.5
 20
-0.5
 30
0.0
 11
0.5
 21
0.5
 31
0.0
  0
LINE
  5
25EA
330
25E7
100
AcDbEntity
  8
0
  6
ByBlock
 62
     0
370
    -2
100
AcDbLine
 10
0.5
 20
0.5
 30
0.0
 11
-0.5
 21
0.5
 31
0.0
  0
LINE
  5
25EB
330
25E7
100
AcDbEntity
  8
0
  6
ByBlock
 62
     0
370
    -2
100
AcDbLine
 10
-0.5
 20
0.5
 30
0.0
 11
-0.5
 21
-0.5
 31
0.0
  0
LINE
  5
25EC
330
25E7
100
AcDbEntity
  8
0
  6
ByBlock
 62
     0
370
    -2
100
AcDbLine
 10
-0.5
 20
0.0
 30
0.0
 11
-1.0
 21
0.0
 31
0.0
  0
ENDBLK
  5
25EE
330
25E7
100
AcDbEntity
  8
0
100
AcDbBlockEnd
  0
BLOCK
  5
25FD
330
25FA
100
AcDbEntity
  8
0
100
AcDbBlockBegin
  2
_BoxFilled
 70
     0
 10
0.0
 20
0.0
 30
0.0
  3
_BoxFilled
  1

  0
SOLID
  5
25FB
330
25FA
100
AcDbEntity
  8
0
  6
ByBlock
 62
     0
100
AcDbTrace
 10
-0.5
 20
0.5
 30
0.0
 11
0.5
 21
0.5
 31
0.0
 12
-0.5
 22
-0.5
 32
0.0
 13
0.5
 23
-0.5
 33
0.0
  0
LINE
  5
25FC
330
25FA
100
AcDbEntity
  8
0
  6
ByBlock
 62
     0
370
    -2
100
AcDbLine
 10
-0.5
 20
0.0
 30
0.0
 11
-1.0
 21
0.0
 31
0.0
  0
ENDBLK
  5
25FE
330
25FA
100
AcDbEntity
  8
0
100
AcDbBlockEnd
  0
BLOCK
  5
260E
330
260A
100
AcDbEntity
  8
0
100
AcDbBlockBegin
  2
_DatumBlank
 70
     0
 10
0.0
 20
0.0
 30
0.0
  3
_DatumBlank
  1

  0
LINE
  5
260B
330
260A
100
AcDbEntity
  8
0
  6
ByBlock
 62
     0
370
    -2
100
AcDbLine
 10
0.0
 20
0.5773502700000001
 30
0.0
 11
-1.0
 21
0.0
 31
0.0
  0
LINE
  5
260C
330
260A
100
AcDbEntity
  8
0
  6
ByBlock
 62
     0
370
    -2
100
AcDbLine
 10
-1.0
 20
0.0
 30
0.0
 11
0.0
 21
-0.5773502700000001
 31
0.0
  0
LINE
  5
260D
330
260A
100
AcDbEntity
  8
0
  6
ByBlock
 62
     0
370
    -2
100
AcDbLine
 10
0.0
 20
-0.5773502700000001
 30
0.0
 11
0.0
 21
0.5773502700000001
 31
0.0
  0
ENDBLK
  5
260F
330
260A
100
AcDbEntity
  8
0
100
AcDbBlockEnd
  0
BLOCK
  5
261D
330
261B
100
AcDbEntity
  8
0
100
AcDbBlockBegin
  2
_DatumFilled
 70
     0
 10
0.0
 20
0.0
 30
0.0
  3
_DatumFilled
  1

  0
SOLID
  5
261C
330
261B
100
AcDbEntity
  8
0
  6
ByBlock
 62
     0
100
AcDbTrace
 10
0.0
 20
0.5773502700000001
 30
0.0
 11
-1.0
 21
0.0
 31
0.0
 12
0.0
 22
-0.5773502700000001
 32
0.0
 13
0.0
 23
-0.5773502700000001
 33
0.0
  0
ENDBLK
  5
261E
330
261B
100
AcDbEntity
  8
0
100
AcDbBlockEnd
  0
BLOCK
  5
262D
330
262A
100
AcDbEntity
  8
0
100
AcDbBlockBegin
  2
_Integral
 70
     0
 10
0.0
 20
0.0
 30
0.0
  3
_Integral
  1

  0
ARC
  5
262B
330
262A
100
AcDbEntity
  8
0
  6
ByBlock
 62
     0
370
    -2
100
AcDbCircle
 10
0.44488802
 20
-0.09133463
 30
0.0
 40
0.4541666700000001
100
AcDbArc
 50
101.9999999980395
 51
167.9999999799193
  0
ARC
  5
262C
330
262A
100
AcDbEntity
  8
0
  6
ByBlock
 62
     0
370
    -2
100
AcDbCircle
 10
-0.44488802
 20
0.09133463
 30
0.0
 40
0.4541666700000001
100
AcDbArc
 50
282.0000000215427
 51
348.0000000034225
  0
ENDBLK
  5
262E
330
262A
100
AcDbEntity
  8
0
100
AcDbBlockEnd
  0
BLOCK
  5
263B
330
263A
100
AcDbEntity
  8
0
100
AcDbBlockBegin
  2
_None
 70
     0
 10
0.0
 20
0.0
 30
0.0
  3
_None
  1

  0
ENDBLK
  5
263C
330
263A
100
AcDbEntity
  8
0
100
AcDbBlockEnd
  0
BLOCK
  5
2DF1
330
2DF0
100
AcDbEntity
  8
0
100
AcDbBlockBegin
  2
*D25
 70
     1
 10
0.0
 20
0.0
 30
0.0
  3
*D25
  1

  0
LINE
  5
2DF2
330
2DF0
100
AcDbEntity
  8
文字
 62
     0
370
    -2
100
AcDbLine
 10
39.28200000000004
 20
127.1085
 30
0.0
 11
39.28200000000004
 21
111.99
 31
0.0
  0
LINE
  5
2DF3
330
2DF0
100
AcDbEntity
  8
文字
 62
     0
370
    -2
100
AcDbLine
 10
54.28200000000003
 20
124.1085
 30
0.0
 11
54.28200000000003
 21
111.99
 31
0.0
  0
LINE
  5
2DF4
330
2DF0
100
AcDbEntity
  8
文字
 62
     0
370
    -2
100
AcDbLine
 10
41.78200000000003
 20
113.24
 30
0.0
 11
51.78200000000003
 21
113.24
 31
0.0
  0
SOLID
  5
2DF5
330
2DF0
100
AcDbEntity
  8
文字
 62
     0
100
AcDbTrace
 10
41.78200000000003
 20
113.6566666666666
 30
0.0
 11
41.78200000000003
 21
112.8233333333333
 31
0.0
 12
39.28200000000004
 22
113.24
 32
0.0
 13
39.28200000000004
 23
113.24
 33
0.0
  0
SOLID
  5
2DF6
330
2DF0
100
AcDbEntity
  8
文字
 62
     0
100
AcDbTrace
 10
51.78200000000003
 20
113.6566666666666
 30
0.0
 11
51.78200000000003
 21
112.8233333333333
 31
0.0
 12
54.28200000000003
 22
113.24
 32
0.0
 13
54.28200000000003
 23
113.24
 33
0.0
  0
MTEXT
  5
2DF7
330
2DF0
100
AcDbEntity
  8
文字
 62
     0
100
AcDbMText
 10
46.78200000000003
 20
115.115
 30
0.0
 40
2.5
 41
0.0
 71
     5
 72
     1
  1
\A1;15
  7
0
 73
     1
 44
1.0
1001
ACAD
1000
MTEXTBEGIN
1070
    73
1070
     1
1070
    44
1040
1.0
1070
    74
1070
     0
1000
MTEXTEND
  0
POINT
  5
2DF8
330
2DF0
100
AcDbEntity
  8
DEFPOINTS
 62
     0
100
AcDbPoint
 10
39.28200000000004
 20
127.171
 30
0.0
  0
POINT
  5
2DF9
330
2DF0
100
AcDbEntity
  8
DEFPOINTS
 62
     0
100
AcDbPoint
 10
54.28200000000003
 20
124.171
 30
0.0
  0
POINT
  5
2DFA
330
2DF0
100
AcDbEntity
  8
DEFPOINTS
 62
     0
100
AcDbPoint
 10
54.28200000000003
 20
113.24
 30
0.0
  0
ENDBLK
  5
2DFB
330
2DF0
100
AcDbEntity
  8
0
100
AcDbBlockEnd
  0
BLOCK
  5
2DFD
330
2DFC
100
AcDbEntity
  8
0
100
AcDbBlockBegin
  2
*D26
 70
     1
 10
0.0
 20
0.0
 30
0.0
  3
*D26
  1

  0
LINE
  5
2DFE
330
2DFC
100
AcDbEntity
  8
文字
 62
     0
370
    -2
100
AcDbLine
 10
39.28200000000004
 20
111.9275
 30
0.0
 11
39.28200000000004
 21
103.113
 31
0.0
  0
LINE
  5
2DFF
330
2DFC
100
AcDbEntity
  8
文字
 62
     0
370
    -2
100
AcDbLine
 10
58.28200000000002
 20
121.6085
 30
0.0
 11
58.28200000000002
 21
103.113
 31
0.0
  0
LINE
  5
2E00
330
2DFC
100
AcDbEntity
  8
文字
 62
     0
370
    -2
100
AcDbLine
 10
41.78200000000003
 20
104.363
 30
0.0
 11
55.78200000000002
 21
104.363
 31
0.0
  0
SOLID
  5
2E01
330
2DFC
100
AcDbEntity
  8
文字
 62
     0
100
AcDbTrace
 10
41.78200000000003
 20
104.7796666666666
 30
0.0
 11
41.78200000000003
 21
103.9463333333333
 31
0.0
 12
39.28200000000004
 22
104.363
 32
0.0
 13
39.28200000000004
 23
104.363
 33
0.0
  0
SOLID
  5
2E02
330
2DFC
100
AcDbEntity
  8
文字
 62
     0
100
AcDbTrace
 10
55.78200000000002
 20
104.7796666666666
 30
0.0
 11
55.78200000000002
 21
103.9463333333333
 31
0.0
 12
58.28200000000002
 22
104.363
 32
0.0
 13
58.28200000000002
 23
104.363
 33
0.0
  0
MTEXT
  5
2E03
330
2DFC
100
AcDbEntity
  8
文字
 62
     0
100
AcDbMText
 10
48.78200000000003
 20
106.238
 30
0.0
 40
2.5
 41
0.0
 71
     5
 72
     1
  1
\A1;19
  7
0
 73
     1
 44
1.0
1001
ACAD
1000
MTEXTBEGIN
1070
    73
1070
     1
1070
    44
1040
1.0
1070
    74
1070
     0
1000
MTEXTEND
  0
POINT
  5
2E04
330
2DFC
100
AcDbEntity
  8
DEFPOINTS
 62
     0
100
AcDbPoint
 10
39.28200000000004
 20
111.99
 30
0.0
  0
POINT
  5
2E05
330
2DFC
100
AcDbEntity
  8
DEFPOINTS
 62
     0
100
AcDbPoint
 10
58.28200000000002
 20
121.671
 30
0.0
  0
POINT
  5
2E06
330
2DFC
100
AcDbEntity
  8
DEFPOINTS
 62
     0
100
AcDbPoint
 10
58.28200000000002
 20
104.363
 30
0.0
  0
ENDBLK
  5
2E07
330
2DFC
100
AcDbEntity
  8
0
100
AcDbBlockEnd
  0
BLOCK
  5
2EC8
330
2EC7
100
AcDbEntity
  8
0
100
AcDbBlockBegin
  2
*D28
 70
     1
 10
0.0
 20
0.0
 30
0.0
  3
*D28
  1

  0
LINE
  5
3123
330
2EC7
100
AcDbEntity
  8
SC
 62
     0
370
    -2
100
AcDbLine
 10
20.69100000000002
 20
180.9793125421274
 30
0.0
 11
20.69100000000002
 21
161.2217895421274
 31
0.0
  0
LINE
  5
3124
330
2EC7
100
AcDbEntity
  8
SC
 62
     0
370
    -2
100
AcDbLine
 10
40.68599999999999
 20
176.9803125421274
 30
0.0
 11
40.68599999999999
 21
161.2217895421274
 31
0.0
  0
LINE
  5
3125
330
2EC7
100
AcDbEntity
  8
SC
 62
     0
370
    -2
100
AcDbLine
 10
23.19100000000002
 20
162.4717895421274
 30
0.0
 11
38.186
 21
162.4717895421274
 31
0.0
  0
SOLID
  5
3126
330
2EC7
100
AcDbEntity
  8
SC
 62
     0
100
AcDbTrace
 10
23.19100000000002
 20
162.8884562087941
 30
0.0
 11
23.19100000000002
 21
162.0551228754607
 31
0.0
 12
20.69100000000002
 22
162.4717895421274
 32
0.0
 13
20.69100000000002
 23
162.4717895421274
 33
0.0
  0
SOLID
  5
3127
330
2EC7
100
AcDbEntity
  8
SC
 62
     0
100
AcDbTrace
 10
38.186
 20
162.8884562087941
 30
0.0
 11
38.186
 21
162.0551228754607
 31
0.0
 12
40.68599999999999
 22
162.4717895421274
 32
0.0
 13
40.68599999999999
 23
162.4717895421274
 33
0.0
  0
MTEXT
  5
3128
330
2EC7
100
AcDbEntity
  8
SC
 62
     0
100
AcDbMText
 10
30.68850000000001
 20
165.0967895421274
 30
0.0
 40
4.0
 41
0.0
 71
     5
 72
     1
  1
\A1;13
  7
0
 73
     1
 44
1.0
1001
ACAD
1000
MTEXTBEGIN
1070
    73
1070
     1
1070
    44
1040
1.0
1070
    74
1070
     0
1000
MTEXTEND
  0
POINT
  5
3129
330
2EC7
100
AcDbEntity
  8
DEFPOINTS
 62
     0
100
AcDbPoint
 10
20.69100000000002
 20
181.0418125421274
 30
0.0
  0
POINT
  5
312A
330
2EC7
100
AcDbEntity
  8
DEFPOINTS
 62
     0
100
AcDbPoint
 10
40.68599999999999
 20
177.0428125421274
 30
0.0
  0
POINT
  5
312B
330
2EC7
100
AcDbEntity
  8
DEFPOINTS
 62
     0
100
AcDbPoint
 10
40.68599999999999
 20
162.4717895421274
 30
0.0
  0
ENDBLK
  5
2EC9
330
2EC7
100
AcDbEntity
  8
0
100
AcDbBlockEnd
  0
BLOCK
  5
2ED4
330
2ED3
100
AcDbEntity
  8
0
100
AcDbBlockBegin
  2
*D29
 70
     1
 10
0.0
 20
0.0
 30
0.0
  3
*D29
  1

  0
LINE
  5
2EE8
330
2ED3
100
AcDbEntity
  8
文字
 62
     0
370
    -2
100
AcDbLine
 10
45.62600042925807
 20
167.8355000421274
 30
0.0
 11
45.62600042925807
 21
159.0210000421274
 31
0.0
  0
LINE
  5
2EE9
330
2ED3
100
AcDbEntity
  8
文字
 62
     0
370
    -2
100
AcDbLine
 10
64.62600042925806
 20
177.5165000421274
 30
0.0
 11
64.62600042925806
 21
159.0210000421274
 31
0.0
  0
LINE
  5
2EEA
330
2ED3
100
AcDbEntity
  8
文字
 62
     0
370
    -2
100
AcDbLine
 10
48.12600042925808
 20
160.2710000421274
 30
0.0
 11
62.12600042925806
 21
160.2710000421274
 31
0.0
  0
SOLID
  5
2EEB
330
2ED3
100
AcDbEntity
  8
文字
 62
     0
100
AcDbTrace
 10
48.12600042925808
 20
160.687666708794
 30
0.0
 11
48.12600042925808
 21
159.8543333754607
 31
0.0
 12
45.62600042925807
 22
160.2710000421274
 32
0.0
 13
45.62600042925807
 23
160.2710000421274
 33
0.0
  0
SOLID
  5
2EEC
330
2ED3
100
AcDbEntity
  8
文字
 62
     0
100
AcDbTrace
 10
62.12600042925806
 20
160.687666708794
 30
0.0
 11
62.12600042925806
 21
159.8543333754607
 31
0.0
 12
64.62600042925806
 22
160.2710000421274
 32
0.0
 13
64.62600042925806
 23
160.2710000421274
 33
0.0
  0
MTEXT
  5
2EED
330
2ED3
100
AcDbEntity
  8
文字
 62
     0
100
AcDbMText
 10
55.12600042925807
 20
162.1460000421274
 30
0.0
 40
2.5
 41
0.0
 71
     5
 72
     1
  1
\A1;19
  7
0
 73
     1
 44
1.0
1001
ACAD
1000
MTEXTBEGIN
1070
    73
1070
     1
1070
    44
1040
1.0
1070
    74
1070
     0
1000
MTEXTEND
  0
POINT
  5
2EEE
330
2ED3
100
AcDbEntity
  8
DEFPOINTS
 62
     0
100
AcDbPoint
 10
45.62600042925807
 20
167.8980000421274
 30
0.0
  0
POINT
  5
2EEF
330
2ED3
100
AcDbEntity
  8
DEFPOINTS
 62
     0
100
AcDbPoint
 10
64.62600042925806
 20
177.5790000421274
 30
0.0
  0
POINT
  5
2EF0
330
2ED3
100
AcDbEntity
  8
DEFPOINTS
 62
     0
100
AcDbPoint
 10
64.62600042925806
 20
160.2710000421274
 30
0.0
  0
ENDBLK
  5
2ED5
330
2ED3
100
AcDbEntity
  8
0
100
AcDbBlockEnd
  0
BLOCK
  5
30B6
330
30B5
100
AcDbEntity
  8
0
100
AcDbBlockBegin
  2
*D32
 70
     1
 10
0.0
 20
0.0
 30
0.0
  3
*D32
  1

  0
LINE
  5
32CF
330
30B5
100
AcDbEntity
  8
SC
 62
     0
370
    -2
100
AcDbLine
 10
34.625
 20
177.0428125421274
 30
0.0
 11
32.75800000000002
 21
177.0428125421274
 31
0.0
  0
LINE
  5
32D0
330
30B5
100
AcDbEntity
  8
SC
 62
     0
370
    -2
100
AcDbLine
 10
34.625
 20
185.0408125421274
 30
0.0
 11
32.75800000000002
 21
185.0408125421274
 31
0.0
  0
LINE
  5
32D1
330
30B5
100
AcDbEntity
  8
SC
 62
     0
370
    -2
100
AcDbLine
 10
34.00800000000002
 20
179.5428125421274
 30
0.0
 11
34.00800000000002
 21
182.5408125421274
 31
0.0
  0
LINE
  5
32D2
330
30B5
100
AcDbEntity
  8
SC
 62
     0
370
    -2
100
AcDbLine
 10
34.00800000000002
 20
185.0408125421274
 30
0.0
 11
34.00800000000003
 21
211.2808824615399
 31
0.0
  0
SOLID
  5
32D3
330
30B5
100
AcDbEntity
  8
SC
 62
     0
100
AcDbTrace
 10
33.59133333333336
 20
179.5428125421274
 30
0.0
 11
34.42466666666669
 21
179.5428125421274
 31
0.0
 12
34.00800000000002
 22
177.0428125421274
 32
0.0
 13
34.00800000000002
 23
177.0428125421274
 33
0.0
  0
SOLID
  5
32D4
330
30B5
100
AcDbEntity
  8
SC
 62
     0
100
AcDbTrace
 10
33.59133333333336
 20
182.5408125421274
 30
0.0
 11
34.42466666666669
 21
182.5408125421274
 31
0.0
 12
34.00800000000002
 22
185.0408125421274
 32
0.0
 13
34.00800000000002
 23
185.0408125421274
 33
0.0
  0
MTEXT
  5
32D5
330
30B5
100
AcDbEntity
  8
SC
 62
     0
100
AcDbMText
 10
31.38299999999999
 20
199.4939776996351
 30
0.0
 40
4.0
 41
0.0
 71
     5
 72
     1
  1
\A1;A　ネジ径
  7
0
 11
0.0000000000000001
 21
1.0
 31
0.0
 73
     1
 44
1.0
1001
ACAD
1000
MTEXTBEGIN
1070
    73
1070
     1
1070
    44
1040
1.0
1070
    74
1070
     0
1000
MTEXTEND
  0
POINT
  5
32D6
330
30B5
100
AcDbEntity
  8
DEFPOINTS
 62
     0
100
AcDbPoint
 10
34.6875
 20
177.0428125421274
 30
0.0
  0
POINT
  5
32D7
330
30B5
100
AcDbEntity
  8
DEFPOINTS
 62
     0
100
AcDbPoint
 10
34.6875
 20
185.0408125421274
 30
0.0
  0
POINT
  5
32D8
330
30B5
100
AcDbEntity
  8
DEFPOINTS
 62
     0
100
AcDbPoint
 10
34.00800000000002
 20
185.0408125421274
 30
0.0
  0
ENDBLK
  5
30B7
330
30B5
100
AcDbEntity
  8
0
100
AcDbBlockEnd
  0
BLOCK
  5
30EB
330
30EA
100
AcDbEntity
  8
0
100
AcDbBlockBegin
  2
*D33
 70
     1
 10
0.0
 20
0.0
 30
0.0
  3
*D33
  1

  0
LINE
  5
32AD
330
30EA
100
AcDbEntity
  8
SC
 62
     0
370
    -2
100
AcDbLine
 10
46.01799999999999
 20
188.4358125421274
 30
0.0
 11
46.01799999999999
 21
209.559
 31
0.0
  0
LINE
  5
32AE
330
30EA
100
AcDbEntity
  8
SC
 62
     0
370
    -2
100
AcDbLine
 10
295.6290050000001
 20
183.5037125421275
 30
0.0
 11
295.6290050000001
 21
209.559
 31
0.0
  0
LINE
  5
32AF
330
30EA
100
AcDbEntity
  8
SC
 62
     0
370
    -2
100
AcDbLine
 10
48.518
 20
208.309
 30
0.0
 11
293.1290050000001
 21
208.309
 31
0.0
  0
SOLID
  5
32B0
330
30EA
100
AcDbEntity
  8
SC
 62
     0
100
AcDbTrace
 10
48.518
 20
208.7256666666667
 30
0.0
 11
48.518
 21
207.8923333333333
 31
0.0
 12
46.01799999999999
 22
208.309
 32
0.0
 13
46.01799999999999
 23
208.309
 33
0.0
  0
SOLID
  5
32B1
330
30EA
100
AcDbEntity
  8
SC
 62
     0
100
AcDbTrace
 10
293.1290050000001
 20
208.7256666666667
 30
0.0
 11
293.1290050000001
 21
207.8923333333333
 31
0.0
 12
295.6290050000001
 22
208.309
 32
0.0
 13
295.6290050000001
 23
208.309
 33
0.0
  0
MTEXT
  5
32B2
330
30EA
100
AcDbEntity
  8
SC
 62
     0
100
AcDbMText
 10
170.8235025
 20
210.934
 30
0.0
 40
4.0
 41
0.0
 71
     5
 72
     1
  1
\A1;C
  7
0
 73
     1
 44
1.0
1001
ACAD
1000
MTEXTBEGIN
1070
    73
1070
     1
1070
    44
1040
1.0
1070
    74
1070
     0
1000
MTEXTEND
  0
POINT
  5
32B3
330
30EA
100
AcDbEntity
  8
DEFPOINTS
 62
     0
100
AcDbPoint
 10
46.01799999999999
 20
188.3733125421274
 30
0.0
  0
POINT
  5
32B4
330
30EA
100
AcDbEntity
  8
DEFPOINTS
 62
     0
100
AcDbPoint
 10
295.6290050000001
 20
183.4412125421275
 30
0.0
  0
POINT
  5
32B5
330
30EA
100
AcDbEntity
  8
DEFPOINTS
 62
     0
100
AcDbPoint
 10
295.6290050000001
 20
208.309
 30
0.0
  0
ENDBLK
  5
30EC
330
30EA
100
AcDbEntity
  8
0
100
AcDbBlockEnd
  0
BLOCK
  5
3141
330
3140
100
AcDbEntity
  8
0
100
AcDbBlockBegin
  2
*D35
 70
     1
 10
0.0
 20
0.0
 30
0.0
  3
*D35
  1

  0
LINE
  5
32B8
330
3140
100
AcDbEntity
  8
SC
 62
     0
370
    -2
100
AcDbLine
 10
79.34986044024589
 20
110.8431650589699
 30
0.0
 11
79.34986044024589
 21
124.394
 31
0.0
  0
LINE
  5
32B9
330
3140
100
AcDbEntity
  8
SC
 62
     0
370
    -2
100
AcDbLine
 10
97.92799999999997
 20
112.8431650589699
 30
0.0
 11
97.92799999999997
 21
124.394
 31
0.0
  0
LINE
  5
32BA
330
3140
100
AcDbEntity
  8
SC
 62
     0
370
    -2
100
AcDbLine
 10
83.34986044024589
 20
123.144
 30
0.0
 11
93.92799999999997
 21
123.144
 31
0.0
  0
SOLID
  5
32BB
330
3140
100
AcDbEntity
  8
SC
 62
     0
100
AcDbTrace
 10
83.34986044024589
 20
123.8106666666666
 30
0.0
 11
83.34986044024589
 21
122.4773333333333
 31
0.0
 12
79.34986044024589
 22
123.144
 32
0.0
 13
79.34986044024589
 23
123.144
 33
0.0
  0
SOLID
  5
32BC
330
3140
100
AcDbEntity
  8
SC
 62
     0
100
AcDbTrace
 10
93.92799999999997
 20
123.8106666666666
 30
0.0
 11
93.92799999999997
 21
122.4773333333333
 31
0.0
 12
97.92799999999997
 22
123.144
 32
0.0
 13
97.92799999999997
 23
123.144
 33
0.0
  0
MTEXT
  5
32BD
330
3140
100
AcDbEntity
  8
SC
 62
     0
100
AcDbMText
 10
88.63893022012293
 20
125.769
 30
0.0
 40
4.0
 41
0.0
 71
     5
 72
     1
  1
\A1;B
  7
0
 73
     1
 44
1.0
1001
ACAD
1000
MTEXTBEGIN
1070
    73
1070
     1
1070
    44
1040
1.0
1070
    74
1070
     0
1000
MTEXTEND
  0
POINT
  5
32BE
330
3140
100
AcDbEntity
  8
DEFPOINTS
 62
     0
100
AcDbPoint
 10
79.34986044024589
 20
110.7806650589699
 30
0.0
  0
POINT
  5
32BF
330
3140
100
AcDbEntity
  8
DEFPOINTS
 62
     0
100
AcDbPoint
 10
97.92799999999997
 20
112.7806650589699
 30
0.0
  0
POINT
  5
32C0
330
3140
100
AcDbEntity
  8
DEFPOINTS
 62
     0
100
AcDbPoint
 10
97.92799999999997
 20
123.144
 30
0.0
  0
ENDBLK
  5
3142
330
3140
100
AcDbEntity
  8
0
100
AcDbBlockEnd
  0
BLOCK
  5
3170
330
316F
100
AcDbEntity
  8
0
100
AcDbBlockBegin
  2
*D36
 70
     1
 10
0.0
 20
0.0
 30
0.0
  3
*D36
  1

  0
LINE
  5
31A0
330
316F
100
AcDbEntity
  8
SC
 62
     0
370
    -2
100
AcDbLine
 10
112.8019999999999
 20
113.5091650589699
 30
0.0
 11
112.8019999999999
 21
127.857
 31
0.0
  0
LINE
  5
31A1
330
316F
100
AcDbEntity
  8
SC
 62
     0
370
    -2
100
AcDbLine
 10
126.1319999999999
 20
114.8421650589699
 30
0.0
 11
126.1319999999999
 21
127.857
 31
0.0
  0
LINE
  5
31A2
330
316F
100
AcDbEntity
  8
SC
 62
     0
370
    -2
100
AcDbLine
 10
115.3019999999999
 20
126.607
 30
0.0
 11
123.632
 21
126.607
 31
0.0
  0
SOLID
  5
31A3
330
316F
100
AcDbEntity
  8
SC
 62
     0
100
AcDbTrace
 10
115.3019999999999
 20
127.0236666666666
 30
0.0
 11
115.3019999999999
 21
126.1903333333333
 31
0.0
 12
112.8019999999999
 22
126.607
 32
0.0
 13
112.8019999999999
 23
126.607
 33
0.0
  0
SOLID
  5
31A4
330
316F
100
AcDbEntity
  8
SC
 62
     0
100
AcDbTrace
 10
123.632
 20
127.0236666666666
 30
0.0
 11
123.632
 21
126.1903333333333
 31
0.0
 12
126.1319999999999
 22
126.607
 32
0.0
 13
126.1319999999999
 23
126.607
 33
0.0
  0
MTEXT
  5
31A5
330
316F
100
AcDbEntity
  8
SC
 62
     0
100
AcDbMText
 10
119.4669999999999
 20
129.232
 30
0.0
 40
4.0
 41
0.0
 71
     5
 72
     1
  1
\A1;10
  7
0
 73
     1
 44
1.0
1001
ACAD
1000
MTEXTBEGIN
1070
    73
1070
     1
1070
    44
1040
1.0
1070
    74
1070
     0
1000
MTEXTEND
  0
POINT
  5
31A6
330
316F
100
AcDbEntity
  8
DEFPOINTS
 62
     0
100
AcDbPoint
 10
112.8019999999999
 20
113.4466650589699
 30
0.0
  0
POINT
  5
31A7
330
316F
100
AcDbEntity
  8
DEFPOINTS
 62
     0
100
AcDbPoint
 10
126.1319999999999
 20
114.7796650589699
 30
0.0
  0
POINT
  5
31A8
330
316F
100
AcDbEntity
  8
DEFPOINTS
 62
     0
100
AcDbPoint
 10
126.1319999999999
 20
126.607
 30
0.0
  0
ENDBLK
  5
3171
330
316F
100
AcDbEntity
  8
0
100
AcDbBlockEnd
  0
ENDSEC
  0
SECTION
  2
ENTITIES
  0
TEXT
  5
61
330
1E
100
AcDbEntity
  8
MO
100
AcDbText
 10
328.5
 20
53.5
 30
0.0
 40
4.0
  1

  7
0
 72
     1
 11
328.5
 21
53.5
 31
0.0
100
AcDbText
  0
TEXT
  5
62
330
1E
100
AcDbEntity
  8
MO
100
AcDbText
 10
328.5
 20
47.0
 30
0.0
 40
4.0
  1

  7
0
 72
     1
 11
328.5
 21
47.0
 31
0.0
100
AcDbText
  0
TEXT
  5
63
330
1E
100
AcDbEntity
  8
MO
100
AcDbText
 10
328.5
 20
34.0
 30
0.0
 40
4.0
  1

  7
0
 72
     1
 11
328.5
 21
34.0
 31
0.0
100
AcDbText
  0
TEXT
  5
6E
330
1E
100
AcDbEntity
  8
MO
100
AcDbText
 10
328.204
 20
39.802
 30
0.0
 40
4.0
  1

  7
0
 72
     1
 11
328.204
 21
39.802
 31
0.0
100
AcDbText
  0
TEXT
  5
89
330
1E
100
AcDbEntity
  8
MO
100
AcDbText
 10
82.2020000000001
 20
51.07199999999998
 30
0.0
 40
3.0
  1

  7
0
100
AcDbText
  0
TEXT
  5
8B
330
1E
100
AcDbEntity
  8
MO
100
AcDbText
 10
110.859
 20
51.07199999999998
 30
0.0
 40
3.0
  1

  7
0
100
AcDbText
  0
TEXT
  5
8D
330
1E
100
AcDbEntity
  8
MO
100
AcDbText
 10
360.261
 20
19.91099999999999
 30
0.0
 40
7.0
  1

  7
0
 72
     4
 11
360.261
 21
19.91099999999999
 31
0.0
100
AcDbText
  0
TEXT
  5
91
330
1E
100
AcDbEntity
  8
MO
370
    40
100
AcDbText
 10
262.0037165355063
 20
240.3444917771351
 30
0.0
 40
10.8
  1
ネジ型センサー
  7
0
100
AcDbText
  0
TEXT
  5
AC
330
1E
100
AcDbEntity
  8
MO
100
AcDbText
 10
103.1910000000001
 20
51.07199999999996
 30
0.0
 40
3.0
  1

  7
0
100
AcDbText
  0
TEXT
  5
1399
330
1E
100
AcDbEntity
  8
MO
100
AcDbText
 10
75.70200000000006
 20
51.07199999999998
 30
0.0
 40
3.0
  1

  7
0
100
AcDbText
  0
TEXT
  5
139C
330
1E
100
AcDbEntity
  8
MO
100
AcDbText
 10
110.859
 20
63.07199999999996
 30
0.0
 40
3.0
  1

  7
0
100
AcDbText
  0
TEXT
  5
139F
330
1E
100
AcDbEntity
  8
SC
100
AcDbText
 10
135.033
 20
64.98099999999995
 30
0.0
 40
2.0
  1

  7
0
100
AcDbText
  0
TEXT
  5
13A0
330
1E
100
AcDbEntity
  8
MO
100
AcDbText
 10
110.859
 20
45.072
 30
0.0
 40
3.0
  1

  7
0
100
AcDbText
  0
TEXT
  5
148E
330
1E
100
AcDbEntity
  8
MO
100
AcDbText
 10
355.9181320877767
 20
10.917
 30
0.0
 40
5.0
  1
株）
  7
0
 72
     1
 11
359.9181320877767
 21
10.917
 31
0.0
100
AcDbText
  0
TEXT
  5
1491
330
1E
100
AcDbEntity
  8
SC
100
AcDbText
 10
103.7564
 20
117.6597333333333
 30
0.0
 40
0.25
  1

100
AcDbText
  0
TEXT
  5
1492
330
1E
100
AcDbEntity
  8
MO
100
AcDbText
 10
367.1910000000001
 20
10.917
 30
0.0
 40
6.0
  1
愛西電熱
  7
0
 72
     1
 11
380.7910000000002
 21
10.917
 31
0.0
100
AcDbText
  0
MTEXT
  5
1758
330
1E
100
AcDbEntity
  8
SC
100
AcDbMText
 10
317.637
 20
21.871
 30
0.0
 40
2.5
 41
0.0
 71
     1
 72
     5
  1

  7
0
 73
     1
 44
1.0
1001
ACAD
1000
MTEXTBEGIN
1070
    73
1070
     1
1070
    44
1040
1.0
1070
    74
1070
     0
1000
MTEXTEND
  0
MTEXT
  5
178F
330
1E
100
AcDbEntity
  8
SC
100
AcDbMText
 10
220.1774508739589
 20
61.30926792682227
 30
0.0
 40
5.0
 41
0.0
 71
     1
 72
     5
  1
加工、その他変更部がありましたら図面に書き込んで御利用下さい
  7
0
 73
     1
 44
1.0
1001
ACAD
1000
MTEXTBEGIN
1070
    73
1070
     1
1070
    44
1040
1.0
1070
    74
1070
     0
1000
MTEXTEND
  0
LINE
  5
17DC
330
1E
100
AcDbEntity
  8
0
100
AcDbLine
 10
21.24000000000004
 20
30.70499999999999
 30
0.0
 11
21.24000000000004
 21
50.70499999999999
 31
0.0
  0
LINE
  5
17DE
330
1E
100
AcDbEntity
  8
0
100
AcDbLine
 10
31.24000000000004
 20
50.70499999999999
 30
0.0
 11
31.24000000000004
 21
30.705
 31
0.0
  0
LINE
  5
1806
330
1E
100
AcDbEntity
  8
0
100
AcDbLine
 10
21.24000000000004
 20
50.70499999999999
 30
0.0
 11
56.24000000000003
 21
50.70499999999999
 31
0.0
  0
LINE
  5
1807
330
1E
100
AcDbEntity
  8
0
100
AcDbLine
 10
21.24000000000004
 20
40.70499999999999
 30
0.0
 11
56.24000000000003
 21
40.70499999999999
 31
0.0
  0
LINE
  5
1808
330
1E
100
AcDbEntity
  8
0
100
AcDbLine
 10
21.24000000000004
 20
30.70499999999999
 30
0.0
 11
56.24000000000003
 21
30.70499999999999
 31
0.0
  0
TEXT
  5
1814
330
1E
100
AcDbEntity
  8
MO
100
AcDbText
 10
25.42000058282754
 20
43.87999982484504
 30
0.0
 40
3.499999999999998
  1
A
  7
0
100
AcDbText
  0
TEXT
  5
181A
330
1E
100
AcDbEntity
  8
MO
100
AcDbText
 10
97.52012879570216
 20
43.7553613470516
 30
0.0
 40
3.499999999999998
  1
B
  7
0
100
AcDbText
  0
TEXT
  5
1822
330
1E
100
AcDbEntity
  8
MO
100
AcDbText
 10
36.05001714976542
 20
43.07893657328403
 30
0.0
 40
4.375
  1
ネジ径
  7
0
 72
     1
 11
43.48751714976542
 21
43.07893657328403
 31
0.0
100
AcDbText
  0
TEXT
  5
1829
330
1E
100
AcDbEntity
  8
MO
100
AcDbText
 10
108.563987908058
 20
43.61824969380625
 30
0.0
 40
4.375
  1
挿入長
  7
0
 72
     1
 11
115.8556545747247
 21
43.61824969380625
 31
0.0
100
AcDbText
  0
TEXT
  5
1844
330
1E
100
AcDbEntity
  8
MO
100
AcDbText
 10
25.09312879570214
 20
33.67336134705161
 30
0.0
 40
3.499999999999998
  1
C
  7
0
100
AcDbText
  0
TEXT
  5
1845
330
1E
100
AcDbEntity
  8
MO
100
AcDbText
 10
32.81016860327977
 20
33.50686474409736
 30
0.0
 40
4.375
  1
リード長
  7
0
 72
     1
 11
43.16433526994643
 21
33.50686474409736
 31
0.0
100
AcDbText
  0
LINE
  5
1847
330
1E
100
AcDbEntity
  8
0
100
AcDbLine
 10
56.24000000000003
 20
50.70499999999999
 30
0.0
 11
56.24000000000003
 21
30.70499999999999
 31
0.0
  0
LINE
  5
1870
330
1E
100
AcDbEntity
  8
0
100
AcDbLine
 10
21.24000000000004
 20
30.705
 30
0.0
 11
166.24
 21
30.70499999999999
 31
0.0
  0
LINE
  5
1871
330
1E
100
AcDbEntity
  8
0
100
AcDbLine
 10
93.74000000000002
 20
50.70499999999999
 30
0.0
 11
93.74000000000002
 21
30.70499999999999
 31
0.0
  0
LINE
  5
1873
330
1E
100
AcDbEntity
  8
0
100
AcDbLine
 10
56.24000000000003
 20
50.70499999999999
 30
0.0
 11
166.24
 21
50.70499999999999
 31
0.0
  0
LINE
  5
1874
330
1E
100
AcDbEntity
  8
0
100
AcDbLine
 10
56.24000000000003
 20
40.70499999999999
 30
0.0
 11
93.74000000000002
 21
40.70499999999999
 31
0.0
  0
LINE
  5
1875
330
1E
100
AcDbEntity
  8
0
100
AcDbLine
 10
56.24000000000003
 20
30.70499999999999
 30
0.0
 11
166.24
 21
30.70499999999999
 31
0.0
  0
LINE
  5
1884
330
1E
100
AcDbEntity
  8
0
100
AcDbLine
 10
128.74
 20
40.705
 30
0.0
 11
166.24
 21
40.705
 31
0.0
  0
LINE
  5
1888
330
1E
100
AcDbEntity
  8
0
100
AcDbLine
 10
21.24000000000004
 20
30.705
 30
0.0
 11
238.74
 21
30.70499999999999
 31
0.0
  0
LINE
  5
1889
330
1E
100
AcDbEntity
  8
0
100
AcDbLine
 10
17.99999999999994
 20
20.705
 30
0.0
 11
283.2259999999999
 21
20.70499999999999
 31
0.0
  0
LINE
  5
188A
330
1E
100
AcDbEntity
  8
0
100
AcDbLine
 10
17.99999999999994
 20
10.705
 30
0.0
 11
283.2259999999999
 21
10.70499999999998
 31
0.0
  0
TEXT
  5
1892
330
1E
100
AcDbEntity
  8
MO
100
AcDbText
 10
18.0825030365616
 20
28.37468907764135
 30
0.0
 40
2.799999999999998
  1

  7
0
100
AcDbText
  0
TEXT
  5
1893
330
1E
100
AcDbEntity
  8
MO
100
AcDbText
 10
18.31122710757998
 20
21.78303665633006
 30
0.0
 40
3.5
  1
その他詳細：
  7
0
 72
     1
 11
29.86122710757998
 21
21.78303665633006
 31
0.0
100
AcDbText
  0
LINE
  5
18A2
330
1E
100
AcDbEntity
  8
0
100
AcDbLine
 10
93.74000000000002
 20
40.70499999999999
 30
0.0
 11
166.24
 21
40.70499999999999
 31
0.0
  0
LINE
  5
18A9
330
1E
100
AcDbEntity
  8
0
100
AcDbLine
 10
166.24
 20
50.70499999999999
 30
0.0
 11
166.24
 21
30.70499999999999
 31
0.0
  0
LINE
  5
18AA
330
1E
100
AcDbEntity
  8
0
100
AcDbLine
 10
103.74
 20
50.70499999999999
 30
0.0
 11
103.74
 21
30.70499999999999
 31
0.0
  0
LINE
  5
18AB
330
1E
100
AcDbEntity
  8
0
100
AcDbLine
 10
128.74
 20
50.70499999999999
 30
0.0
 11
128.74
 21
30.70499999999999
 31
0.0
  0
TEXT
  5
18B4
330
1E
100
AcDbEntity
  8
MO
100
AcDbText
 10
334.7498393399925
 20
3.380574230302642
 30
0.0
 40
3.5
  1
AISEI  DENNETSU CO., LTD
  7
0
100
AcDbText
  0
TEXT
  5
18BD
330
1E
100
AcDbEntity
  8
MO
100
AcDbText
 10
398.0943211714158
 20
11.06163477656134
 30
0.0
 40
5.0
  1
行
  7
0
 72
     1
 11
400.4276545047491
 21
11.06163477656134
 31
0.0
100
AcDbText
  0
TEXT
  5
18CC
330
1E
100
AcDbEntity
  8
MO
100
AcDbText
 10
156.976337509742
 20
42.75375974362895
 30
0.0
 40
3.0625
  1
mm
  7
0
 72
     1
 11
160.7680041764087
 21
42.75375974362895
 31
0.0
100
AcDbText
  0
TEXT
  5
18EB
330
1E
100
AcDbEntity
  8
MO
100
AcDbText
 10
23.86914196000268
 20
55.01909017515878
 30
0.0
 40
4.550000000000001
  1
※　下記空欄に記入・選択し、FAXしてください
  7
0
100
AcDbText
  0
LINE
  5
18ED
330
1E
100
AcDbEntity
  8
0
100
AcDbLine
 10
3.193615971125438
 20
267.713
 30
0.0
 11
128.2526159711254
 21
267.713
 31
0.0
  0
LINE
  5
18EE
330
1E
100
AcDbEntity
  8
0
100
AcDbLine
 10
3.193615971125438
 20
255.713
 30
0.0
 11
128.2526159711254
 21
255.7129999999999
 31
0.0
  0
LINE
  5
18EF
330
1E
100
AcDbEntity
  8
0
100
AcDbLine
 10
3.193615971125423
 20
243.713
 30
0.0
 11
128.2526159711254
 21
243.7129999999999
 31
0.0
  0
LINE
  5
18F0
330
1E
100
AcDbEntity
  8
0
100
AcDbLine
 10
3.193615971125423
 20
231.713
 30
0.0
 11
128.2526159711254
 21
231.7129999999999
 31
0.0
  0
TEXT
  5
18F7
330
1E
100
AcDbEntity
  8
MO
100
AcDbText
 10
5.047000000000004
 20
269.7195108252091
 30
0.0
 40
4.375
  1
貴社名：
  7
0
 72
     1
 11
14.08866666666667
 21
269.7195108252091
 31
0.0
100
AcDbText
  0
TEXT
  5
18FF
330
1E
100
AcDbEntity
  8
MO
100
AcDbText
 10
4.762445293775545
 20
259.6404968976157
 30
0.0
 40
4.375
  1
部署・担当者名：
  7
0
 72
     1
 11
24.30411196044222
 21
259.6404968976157
 31
0.0
100
AcDbText
  0
TEXT
  5
190B
330
1E
100
AcDbEntity
  8
MO
100
AcDbText
 10
4.244409610399639
 20
235.1743512486338
 30
0.0
 40
4.375
  1
御連絡先 FAX：
  7
0
 72
     1
 11
23.4735762770663
 21
235.1743512486338
 31
0.0
100
AcDbText
  0
TEXT
  5
1918
330
1E
100
AcDbEntity
  8
MO
100
AcDbText
 10
4.271947869785467
 20
247.7453335828736
 30
0.0
 40
4.375
  1
御連絡先 TEL：
  7
0
 72
     1
 11
22.87611453645213
 21
247.7453335828736
 31
0.0
100
AcDbText
  0
LINE
  5
1923
330
1E
100
AcDbEntity
  8
0
370
    40
100
AcDbLine
 10
315.0881625155812
 20
37.35735115744029
 30
0.0
 11
393.0881625155811
 21
37.35735115744029
 31
0.0
  0
LINE
  5
1924
330
1E
100
AcDbEntity
  8
0
370
    40
100
AcDbLine
 10
315.0881625155812
 20
34.7573511574403
 30
0.0
 11
399.5881625155811
 21
34.7573511574403
 31
0.0
  0
LINE
  5
1925
330
1E
100
AcDbEntity
  8
0
370
    40
100
AcDbLine
 10
393.0881625155811
 20
37.35735115744029
 30
0.0
 11
393.0881625155811
 21
39.95735115744029
 31
0.0
  0
LINE
  5
1926
330
1E
100
AcDbEntity
  8
0
370
    40
100
AcDbLine
 10
393.0881625155811
 20
39.95735115744029
 30
0.0
 11
399.5881625155811
 21
34.7573511574403
 31
0.0
  0
LINE
  5
1927
330
1E
100
AcDbEntity
  8
0
370
    40
100
AcDbLine
 10
315.0881625155812
 20
37.35735115744029
 30
0.0
 11
315.0881625155812
 21
34.7573511574403
 31
0.0
  0
TEXT
  5
192E
330
1E
100
AcDbEntity
  8
MO
370
    40
100
AcDbText
 10
324.6798300677355
 20
38.84484239326316
 30
0.0
 40
7.800000000000001
  1
FAX送信方向
  7
0
 72
     1
 11
353.2426872105926
 21
38.84484239326316
 31
0.0
100
AcDbText
  0
TEXT
  5
1943
330
1E
100
AcDbEntity
  8
0
370
    53
100
AcDbText
 10
86.07465571428525
 20
284.1842971226886
 30
0.0
 40
10.0
  1
愛西電熱　見積依頼書・注文書　フォーム
  7
0
100
AcDbText
  0
TEXT
  5
195E
330
1E
100
AcDbEntity
  8
MO
370
    40
100
AcDbText
 10
313.1463329590498
 20
24.83965109775832
 30
0.0
 40
7.800000000000001
  1
0568-25-2241
  7
0
 72
     1
 11
357.1606186733355
 21
24.83965109775832
 31
0.0
100
AcDbText
  0
LINE
  5
19C2
330
1E
100
AcDbEntity
  8
SC
370
    40
100
AcDbLine
 10
258.0595
 20
238.396
 30
0.0
 11
352.82
 21
238.396
 31
0.0
  0
TEXT
  5
1D1C
330
1E
100
AcDbEntity
  8
MO
100
AcDbText
 10
63.14038155969487
 20
43.58457454881225
 30
0.0
 40
4.59375
  1
M6・M8　
  7
0
 72
     1
 11
74.86538155969487
 21
43.58457454881225
 31
0.0
100
AcDbText
  0
TEXT
  5
1E9F
330
1E
100
AcDbEntity
  8
MO
100
AcDbText
 10
84.47633750974205
 20
32.75375974362896
 30
0.0
 40
3.0625
  1
mm
  7
0
 72
     1
 11
88.26800417640873
 21
32.75375974362896
 31
0.0
100
AcDbText
  0
TEXT
  5
1EB5
330
1E
100
AcDbEntity
  8
MO
100
AcDbText
 10
97.59312879570211
 20
33.67336134705161
 30
0.0
 40
3.499999999999998
  1
D
  7
0
100
AcDbText
  0
TEXT
  5
1EB6
330
1E
100
AcDbEntity
  8
MO
100
AcDbText
 10
108.081001936613
 20
33.50686474409736
 30
0.0
 40
4.375
  1
タイプ
  7
0
 72
     1
 11
115.6643352699463
 21
33.50686474409736
 31
0.0
100
AcDbText
  0
TEXT
  5
1EB7
330
1E
100
AcDbEntity
  8
MO
100
AcDbText
 10
136.7464662430801
 20
33.91959994624482
 30
0.0
 40
3.5
  1
K　・　　J
  7
0
 72
     1
 11
147.7297995764134
 21
33.91959994624482
 31
0.0
100
AcDbText
  0
TEXT
  5
2DC7
330
1E
100
AcDbEntity
  8
MO
370
    30
100
AcDbText
 10
22.55054245320851
 20
65.03053269246144
 30
0.0
 40
6.240000000000001
  1
タイプ：K（青）or J（黄）
  7
0
 72
     1
 11
69.61797102463707
 21
65.03053269246144
 31
0.0
100
AcDbText
  0
LINE
  5
2DD3
330
1E
100
AcDbEntity
  8
0
100
AcDbLine
 10
166.24
 20
40.705
 30
0.0
 11
238.74
 21
40.705
 31
0.0
  0
LINE
  5
2DD8
330
1E
100
AcDbEntity
  8
0
100
AcDbLine
 10
176.24
 20
40.70499999999999
 30
0.0
 11
176.24
 21
30.705
 31
0.0
  0
LINE
  5
2DD9
330
1E
100
AcDbEntity
  8
0
100
AcDbLine
 10
201.24
 20
40.705
 30
0.0
 11
201.24
 21
30.705
 31
0.0
  0
LINE
  5
2DDA
330
1E
100
AcDbEntity
  8
0
100
AcDbLine
 10
238.74
 20
40.705
 30
0.0
 11
238.74
 21
30.705
 31
0.0
  0
TEXT
  5
2DDB
330
1E
100
AcDbEntity
  8
MO
100
AcDbText
 10
180.8726686032797
 20
33.50686474409736
 30
0.0
 40
4.375
  1
数　量
  7
0
 72
     1
 11
188.1643352699463
 21
33.50686474409736
 31
0.0
100
AcDbText
  0
TEXT
  5
2DDC
330
1E
100
AcDbEntity
  8
MO
100
AcDbText
 10
232.2623901747724
 20
34.21266728504769
 30
0.0
 40
3.5
  1
本
  7
0
 72
     1
 11
233.8957235081057
 21
34.21266728504769
 31
0.0
100
AcDbText
  0
LINE
  5
2E6B
330
1E
100
AcDbEntity
  8
SA
100
AcDbLine
 10
40.68599999999999
 20
181.0418125421274
 30
0.0
 11
40.68599999999999
 21
185.0408125421274
 31
0.0
  0
LINE
  5
2E6C
330
1E
100
AcDbEntity
  8
SA
100
AcDbLine
 10
40.68599999999999
 20
185.0408125421274
 30
0.0
 11
28.689
 21
185.0408125421274
 31
0.0
  0
LINE
  5
2E6D
330
1E
100
AcDbEntity
  8
SA
100
AcDbLine
 10
28.689
 20
177.0428125421274
 30
0.0
 11
40.68599999999999
 21
177.0428125421274
 31
0.0
  0
LINE
  5
2E6E
330
1E
100
AcDbEntity
  8
SA
100
AcDbLine
 10
40.68599999999999
 20
177.0428125421274
 30
0.0
 11
40.68599999999999
 21
181.0418125421274
 31
0.0
  0
LINE
  5
2E6F
330
1E
100
AcDbEntity
  8
SA
100
AcDbLine
 10
40.68599999999999
 20
181.0418125421274
 30
0.0
 11
40.68599999999999
 21
186.3738125421274
 31
0.0
  0
LINE
  5
2E70
330
1E
100
AcDbEntity
  8
SA
100
AcDbLine
 10
41.48579999999999
 20
188.3733125421274
 30
0.0
 11
46.01799999999999
 21
188.3733125421274
 31
0.0
  0
LINE
  5
2E71
330
1E
100
AcDbEntity
  8
SA
100
AcDbLine
 10
46.01799999999999
 20
188.3733125421274
 30
0.0
 11
46.01799999999999
 21
173.7103125421274
 31
0.0
  0
LINE
  5
2E72
330
1E
100
AcDbEntity
  8
SA
100
AcDbLine
 10
46.01799999999999
 20
173.7103125421274
 30
0.0
 11
41.48579999999999
 21
173.7103125421274
 31
0.0
  0
LINE
  5
2E73
330
1E
100
AcDbEntity
  8
SA
100
AcDbLine
 10
40.68599999999999
 20
175.7098125421274
 30
0.0
 11
40.68599999999999
 21
177.0428125421274
 31
0.0
  0
LINE
  5
2E74
330
1E
100
AcDbEntity
  8
SA
100
AcDbLine
 10
46.01799999999999
 20
181.0418125421274
 30
0.0
 11
46.01799999999999
 21
183.0413125421274
 31
0.0
  0
LINE
  5
2E78
330
1E
100
AcDbEntity
  8
HA
100
AcDbLine
 10
40.68599999999999
 20
183.7078125421274
 30
0.0
 11
27.356
 21
183.7078125421274
 31
0.0
  0
LINE
  5
2E79
330
1E
100
AcDbEntity
  8
HA
100
AcDbLine
 10
27.356
 20
178.3758125421274
 30
0.0
 11
40.68599999999999
 21
178.3758125421274
 31
0.0
  0
LINE
  5
2E7A
330
1E
100
AcDbEntity
  8
SA
100
AcDbLine
 10
41.48579999999999
 20
184.3743125421274
 30
0.0
 11
46.01799999999999
 21
184.3743125421274
 31
0.0
  0
LINE
  5
2E7B
330
1E
100
AcDbEntity
  8
SA
100
AcDbLine
 10
46.01799999999999
 20
177.7093125421274
 30
0.0
 11
41.48579999999999
 21
177.7093125421274
 31
0.0
  0
LINE
  5
2E7C
330
1E
100
AcDbEntity
  8
SA
100
AcDbLine
 10
41.48579999999999
 20
188.3733125421274
 30
0.0
 11
40.68599999999999
 21
186.3738125421274
 31
0.0
  0
LINE
  5
2E7D
330
1E
100
AcDbEntity
  8
SA
100
AcDbLine
 10
40.68599999999999
 20
186.3738125421274
 30
0.0
 11
41.48579999999999
 21
184.3743125421274
 31
0.0
  0
LINE
  5
2E7E
330
1E
100
AcDbEntity
  8
SA
100
AcDbLine
 10
41.48579999999999
 20
173.7103125421274
 30
0.0
 11
40.68599999999999
 21
175.7098125421274
 31
0.0
  0
LINE
  5
2E7F
330
1E
100
AcDbEntity
  8
SA
100
AcDbLine
 10
40.68599999999999
 20
175.7098125421274
 30
0.0
 11
41.48579999999999
 21
177.7093125421274
 31
0.0
  0
ARC
  5
2E80
330
1E
100
AcDbEntity
  8
SA
100
AcDbCircle
 10
48.02860833333344
 20
181.0418125421274
 30
0.0
 40
7.342608333333433
100
AcDbArc
 50
153.0085334384076
 51
206.9914665615907
  0
LINE
  5
2E82
330
1E
100
AcDbEntity
  8
SA
100
AcDbLine
 10
61.37425
 20
183.4412125421274
 30
0.0
 11
153.2042204063242
 21
183.4412125421274
 31
0.0
  0
LINE
  5
2E84
330
1E
100
AcDbEntity
  8
SA
100
AcDbLine
 10
61.37425
 20
178.6424125421274
 30
0.0
 11
154.8339455936758
 21
178.6424125421274
 31
0.0
  0
SPLINE
  5
2E85
330
1E
100
AcDbEntity
  8
SA
100
AcDbSpline
210
0.0
220
0.0
230
1.0
 70
  1064
 71
     3
 72
    10
 73
     6
 74
     4
 42
0.000000001
 43
0.0000000001
 44
0.0000000001
 40
0.0
 40
0.0
 40
0.0
 40
0.0
 40
6.324555320336759
 40
14.57076657157206
 40
20.89532189190883
 40
20.89532189190883
 40
20.89532189190883
 40
20.89532189190883
 10
155.352083
 20
194.3718125421274
 30
0.0
 10
153.9881382756406
 20
191.7240655058229
 30
0.0
 10
150.8458272057597
 20
185.6240787000295
 30
0.0
 10
157.1923387942404
 20
176.4595463842254
 30
0.0
 10
154.0500277243595
 20
170.3595595784319
 30
0.0
 10
152.686083
 20
167.7118125421274
 30
0.0
 11
155.352083
 21
194.3718125421274
 31
0.0
 11
152.686083
 21
186.3738125421274
 31
0.0
 11
155.352083
 21
175.7098125421274
 31
0.0
 11
152.686083
 21
167.7118125421274
 31
0.0
  0
SPLINE
  5
2E86
330
1E
100
AcDbEntity
  8
SA
100
AcDbSpline
210
0.0
220
0.0
230
1.0
 70
  1064
 71
     3
 72
    10
 73
     6
 74
     4
 42
0.000000001
 43
0.0000000001
 44
0.0000000001
 40
0.0
 40
0.0
 40
0.0
 40
0.0
 40
6.324555320336759
 40
14.57076657157206
 40
20.89532189190883
 40
20.89532189190883
 40
20.89532189190883
 40
20.89532189190883
 10
158.0180830000001
 20
194.3718125421274
 30
0.0
 10
156.6541382756406
 20
191.7240655058229
 30
0.0
 10
153.5118272057597
 20
185.6240787000295
 30
0.0
 10
159.8583387942404
 20
176.4595463842254
 30
0.0
 10
156.7160277243595
 20
170.3595595784319
 30
0.0
 10
155.352083
 20
167.7118125421274
 30
0.0
 11
158.0180830000001
 21
194.3718125421274
 31
0.0
 11
155.352083
 21
186.3738125421274
 31
0.0
 11
158.0180830000001
 21
175.7098125421274
 31
0.0
 11
155.352083
 21
167.7118125421274
 31
0.0
  0
LINE
  5
2E87
330
1E
100
AcDbEntity
  8
SA
100
AcDbLine
 10
27.356
 20
178.3758125421274
 30
0.0
 11
27.356
 21
183.7078125421274
 31
0.0
  0
LINE
  5
2E88
330
1E
100
AcDbEntity
  8
HA
100
AcDbLine
 10
28.689
 20
177.0428125421274
 30
0.0
 11
28.689
 21
185.0408125421274
 31
0.0
  0
LINE
  5
2E89
330
1E
100
AcDbEntity
  8
SA
100
AcDbLine
 10
28.689
 20
185.0408125421274
 30
0.0
 11
27.356
 21
183.7078125421274
 31
0.0
  0
LINE
  5
2E8A
330
1E
100
AcDbEntity
  8
SA
100
AcDbLine
 10
27.356
 20
178.3758125421274
 30
0.0
 11
28.689
 21
177.0428125421274
 31
0.0
  0
LINE
  5
2E8B
330
1E
100
AcDbEntity
  8
SA
100
AcDbLine
 10
27.356
 20
183.7078125421274
 30
0.0
 11
24.0235
 21
183.7078125421274
 31
0.0
  0
LINE
  5
2E8C
330
1E
100
AcDbEntity
  8
SA
100
AcDbLine
 10
27.356
 20
178.3758125421274
 30
0.0
 11
24.02350000000001
 21
178.3758125421274
 31
0.0
  0
LINE
  5
2E8D
330
1E
100
AcDbEntity
  8
SA
100
AcDbLine
 10
24.02350000000001
 20
178.3758125421274
 30
0.0
 11
24.02350000000001
 21
183.7078125421274
 31
0.0
  0
LINE
  5
2E8E
330
1E
100
AcDbEntity
  8
SA
100
AcDbLine
 10
24.0235
 20
183.7078125421274
 30
0.0
 11
22.23021581765955
 21
183.7078125421274
 31
0.0
  0
LINE
  5
2E8F
330
1E
100
AcDbEntity
  8
SA
100
AcDbLine
 10
24.02350000000001
 20
178.3758125421274
 30
0.0
 11
22.23021581765955
 21
178.3758125421274
 31
0.0
  0
LINE
  5
2E90
330
1E
100
AcDbEntity
  8
SA
100
AcDbLine
 10
20.69100000000002
 20
181.0418125421274
 30
0.0
 11
22.23021581765955
 21
183.7078125421274
 31
0.0
  0
LINE
  5
2E91
330
1E
100
AcDbEntity
  8
SA
100
AcDbLine
 10
20.69100000000002
 20
181.0418125421274
 30
0.0
 11
22.23021581765955
 21
178.3758125421274
 31
0.0
  0
LINE
  5
2E92
330
1E
100
AcDbEntity
  8
SA
100
AcDbLine
 10
24.15680000000001
 20
178.3758125421274
 30
0.0
 11
24.15680000000001
 21
183.7078125421274
 31
0.0
  0
LINE
  5
2E93
330
1E
100
AcDbEntity
  8
SA
100
AcDbLine
 10
268.874362
 20
182.7747125421274
 30
0.0
 11
290.9635050000001
 21
182.7747125421274
 31
0.0
  0
LINE
  5
2E94
330
1E
100
AcDbEntity
  8
SA
100
AcDbLine
 10
268.874362
 20
179.3089125421274
 30
0.0
 11
290.9635050000001
 21
179.3089125421274
 31
0.0
  0
LINE
  5
2E95
330
1E
100
AcDbEntity
  8
SA
100
AcDbLine
 10
290.9635050000001
 20
179.3089125421274
 30
0.0
 11
290.9635050000001
 21
180.6419125421274
 31
0.0
  0
LINE
  5
2E96
330
1E
100
AcDbEntity
  8
SA
100
AcDbLine
 10
290.9635050000001
 20
180.6419125421274
 30
0.0
 11
268.874362
 21
180.6419125421274
 31
0.0
  0
LINE
  5
2E97
330
1E
100
AcDbEntity
  8
SA
100
AcDbLine
 10
290.9635050000001
 20
180.6419125421274
 30
0.0
 11
290.9635050000001
 21
180.9085125421274
 31
0.0
  0
LINE
  5
2E98
330
1E
100
AcDbEntity
  8
SA
100
AcDbLine
 10
290.9635050000001
 20
180.9085125421274
 30
0.0
 11
293.6295050000001
 21
180.9085125421274
 31
0.0
  0
LINE
  5
2E99
330
1E
100
AcDbEntity
  8
SA
100
AcDbLine
 10
290.9635050000001
 20
179.3089125421274
 30
0.0
 11
290.9635050000001
 21
179.0423125421274
 31
0.0
  0
LINE
  5
2E9A
330
1E
100
AcDbEntity
  8
SA
100
AcDbLine
 10
290.9635050000001
 20
179.0423125421274
 30
0.0
 11
293.6295050000001
 21
179.0423125421274
 31
0.0
  0
LINE
  5
2E9B
330
1E
100
AcDbEntity
  8
SA
100
AcDbLine
 10
294.296005
 20
181.3084125421274
 30
0.0
 11
296.9620050000001
 21
181.3084125421274
 31
0.0
  0
ARC
  5
2E9C
330
1E
100
AcDbEntity
  8
SA
100
AcDbCircle
 10
294.7811914687501
 20
179.7444017608773
 30
0.0
 40
1.637539505882138
100
AcDbArc
 50
107.234903462754
 51
134.6926096013897
  0
LINE
  5
2E9D
330
1E
100
AcDbEntity
  8
SA
100
AcDbLine
 10
294.741227
 20
180.6419125421274
 30
0.0
 11
296.9620050000001
 21
180.6419125421274
 31
0.0
  0
ARC
  5
2E9E
330
1E
100
AcDbEntity
  8
SA
100
AcDbCircle
 10
296.9620050000001
 20
180.9751625421274
 30
0.0
 40
0.33325
100
AcDbArc
 50
270.0
 51
90.0
  0
ARC
  5
2E9F
330
1E
100
AcDbEntity
  8
SA
100
AcDbCircle
 10
296.9620050000001
 20
178.9756625421274
 30
0.0
 40
0.33325
100
AcDbArc
 50
270.0
 51
90.0
  0
LINE
  5
2EA0
330
1E
100
AcDbEntity
  8
SA
100
AcDbLine
 10
294.741227
 20
179.3089125421274
 30
0.0
 11
296.9620050000001
 21
179.3089125421274
 31
0.0
  0
ARC
  5
2EA1
330
1E
100
AcDbEntity
  8
SA
100
AcDbCircle
 10
294.7811914687501
 20
180.2064233233775
 30
0.0
 40
1.637539505882138
100
AcDbArc
 50
225.3073903986103
 51
252.7650965372457
  0
LINE
  5
2EA2
330
1E
100
AcDbEntity
  8
SA
100
AcDbLine
 10
294.296005
 20
178.6424125421274
 30
0.0
 11
296.9620050000001
 21
178.6424125421274
 31
0.0
  0
ARC
  5
2EA3
330
1E
100
AcDbEntity
  8
SA
100
AcDbCircle
 10
294.741227
 20
179.9754125421274
 30
0.0
 40
0.6665000000000001
100
AcDbArc
 50
90.0
 51
270.0
  0
ARC
  5
2EA4
330
1E
100
AcDbEntity
  8
SA
100
AcDbCircle
 10
294.741227
 20
182.1082125421275
 30
0.0
 40
0.6665000000000001
100
AcDbArc
 50
90.0
 51
270.0
  0
LINE
  5
2EA5
330
1E
100
AcDbEntity
  8
SA
100
AcDbLine
 10
294.296005
 20
183.4412125421275
 30
0.0
 11
296.9620050000001
 21
183.4412125421275
 31
0.0
  0
ARC
  5
2EA6
330
1E
100
AcDbEntity
  8
SA
100
AcDbCircle
 10
294.7811914687501
 20
181.8772017608774
 30
0.0
 40
1.637539505882138
100
AcDbArc
 50
107.234903462754
 51
134.6926096013897
  0
LINE
  5
2EA7
330
1E
100
AcDbEntity
  8
SA
100
AcDbLine
 10
294.741227
 20
182.7747125421275
 30
0.0
 11
296.9620050000001
 21
182.7747125421275
 31
0.0
  0
ARC
  5
2EA8
330
1E
100
AcDbEntity
  8
SA
100
AcDbCircle
 10
296.9620050000001
 20
183.1079625421275
 30
0.0
 40
0.33325
100
AcDbArc
 50
270.0
 51
90.0
  0
ARC
  5
2EA9
330
1E
100
AcDbEntity
  8
SA
100
AcDbCircle
 10
296.9620050000001
 20
181.1084625421275
 30
0.0
 40
0.33325
100
AcDbArc
 50
348.4630409724173
 51
90.0
  0
LINE
  5
2EAA
330
1E
100
AcDbEntity
  8
SA
100
AcDbLine
 10
294.741227
 20
181.4417125421275
 30
0.0
 11
296.9620050000001
 21
181.4417125421275
 31
0.0
  0
ARC
  5
2EAB
330
1E
100
AcDbEntity
  8
SA
100
AcDbCircle
 10
294.7811914687501
 20
182.3392233233775
 30
0.0
 40
1.637539505882138
100
AcDbArc
 50
225.3073903986103
 51
232.4002976318954
  0
LINE
  5
2EAC
330
1E
100
AcDbEntity
  8
SA
100
AcDbLine
 10
290.9635050000001
 20
183.0413125421275
 30
0.0
 11
293.6295050000001
 21
183.0413125421275
 31
0.0
  0
LINE
  5
2EAD
330
1E
100
AcDbEntity
  8
SA
100
AcDbLine
 10
290.9635050000001
 20
182.7747125421275
 30
0.0
 11
290.9635050000001
 21
183.0413125421275
 31
0.0
  0
LINE
  5
2EAE
330
1E
100
AcDbEntity
  8
SA
100
AcDbLine
 10
290.9635050000001
 20
181.1751125421274
 30
0.0
 11
293.6295050000001
 21
181.1751125421274
 31
0.0
  0
LINE
  5
2EAF
330
1E
100
AcDbEntity
  8
SA
100
AcDbLine
 10
290.9635050000001
 20
181.4417125421275
 30
0.0
 11
290.9635050000001
 21
181.1751125421274
 31
0.0
  0
LINE
  5
2EB0
330
1E
100
AcDbEntity
  8
SA
100
AcDbLine
 10
290.9635050000001
 20
181.4417125421275
 30
0.0
 11
268.874362
 21
181.4417125421274
 31
0.0
  0
LINE
  5
2EB1
330
1E
100
AcDbEntity
  8
SA
100
AcDbLine
 10
290.9635050000001
 20
182.7747125421275
 30
0.0
 11
290.9635050000001
 21
181.4417125421275
 31
0.0
  0
LINE
  5
2EB2
330
1E
100
AcDbEntity
  8
SA
100
AcDbLine
 10
268.874362
 20
182.7747125421275
 30
0.0
 11
290.9635050000001
 21
182.7747125421275
 31
0.0
  0
LINE
  5
2EB3
330
1E
100
AcDbEntity
  8
SA
100
AcDbLine
 10
255.439055
 20
183.7078125421274
 30
0.0
 11
255.439055
 21
181.0418125421274
 31
0.0
  0
LINE
  5
2EB4
330
1E
100
AcDbEntity
  8
SA
100
AcDbLine
 10
255.439055
 20
183.4412125421274
 30
0.0
 11
255.439055
 21
183.7078125421274
 31
0.0
  0
LINE
  5
2EB5
330
1E
100
AcDbEntity
  8
SA
100
AcDbLine
 10
255.439055
 20
183.7078125421274
 30
0.0
 11
264.3141689999999
 21
183.7078125421274
 31
0.0
  0
LINE
  5
2EB6
330
1E
100
AcDbEntity
  8
SA
100
AcDbLine
 10
265.752476
 20
183.0413125421275
 30
0.0
 11
268.874362
 21
183.0413125421275
 31
0.0
  0
LINE
  5
2EB7
330
1E
100
AcDbEntity
  8
SA
100
AcDbLine
 10
268.874362
 20
183.0413125421275
 30
0.0
 11
268.874362
 21
181.4417125421275
 31
0.0
  0
LINE
  5
2EB8
330
1E
100
AcDbEntity
  8
SA
100
AcDbLine
 10
264.314169
 20
183.7078125421274
 30
0.0
 11
265.752476
 21
183.0413125421275
 31
0.0
  0
LINE
  5
2EB9
330
1E
100
AcDbEntity
  8
SA
100
AcDbLine
 10
264.314169
 20
178.3758125421275
 30
0.0
 11
265.752476
 21
179.0423125421274
 31
0.0
  0
LINE
  5
2EBA
330
1E
100
AcDbEntity
  8
SA
100
AcDbLine
 10
268.874362
 20
179.0423125421274
 30
0.0
 11
268.874362
 21
181.4417125421274
 31
0.0
  0
LINE
  5
2EBB
330
1E
100
AcDbEntity
  8
SA
100
AcDbLine
 10
265.752476
 20
179.0423125421274
 30
0.0
 11
268.874362
 21
179.0423125421274
 31
0.0
  0
LINE
  5
2EBC
330
1E
100
AcDbEntity
  8
SA
100
AcDbLine
 10
255.439055
 20
178.3758125421275
 30
0.0
 11
264.3141689999999
 21
178.3758125421275
 31
0.0
  0
LINE
  5
2EBD
330
1E
100
AcDbEntity
  8
SA
100
AcDbLine
 10
255.439055
 20
178.6424125421274
 30
0.0
 11
255.439055
 21
178.3758125421275
 31
0.0
  0
LINE
  5
2EBE
330
1E
100
AcDbEntity
  8
SA
100
AcDbLine
 10
255.439055
 20
178.3758125421275
 30
0.0
 11
255.439055
 21
181.0418125421274
 31
0.0
  0
DIMENSION
  5
2EBF
330
1E
100
AcDbEntity
  8
SC
100
AcDbDimension
  2
*D28
 10
40.68599999999999
 20
162.4717895421274
 30
0.0
 11
30.68850000000001
 21
165.0967895421274
 31
0.0
 70
    32
  1
13
 71
     5
 42
19.99499999999998
  3
nisimura
100
AcDbAlignedDimension
 13
20.69100000000002
 23
181.0418125421274
 33
0.0
 14
40.68599999999999
 24
177.0428125421274
 34
0.0
100
AcDbRotatedDimension
1001
ACAD
1000
DSTYLE
1002
{
1070
   140
1040
4.0
1002
}
  0
LINE
  5
2EC4
330
1E
100
AcDbEntity
  8
SA
100
AcDbLine
 10
155.8702204063242
 20
183.4412125421274
 30
0.0
 11
255.439055
 21
183.4412125421274
 31
0.0
  0
LINE
  5
2EC5
330
1E
100
AcDbEntity
  8
SA
100
AcDbLine
 10
157.4999455936758
 20
178.6424125421274
 30
0.0
 11
255.439055
 21
178.6424125421274
 31
0.0
  0
HATCH
  5
2EC6
330
1E
100
AcDbEntity
  8
HA
100
AcDbHatch
 10
0.0
 20
0.0
 30
0.0
210
0.0
220
0.0
230
1.0
  2
ANSI37
 70
     0
 71
     0
 91
        2
 92
        5
 93
        4
 72
     4
 94
        3
 73
     0
 74
     0
 95
        8
 96
        4
 40
8.598710652970375
 40
8.598710652970375
 40
8.598710652970375
 40
8.598710652970375
 40
12.29661123893841
 40
12.29661123893841
 40
12.29661123893841
 40
12.29661123893841
 10
154.8339455936758
 20
178.6424125421274
 10
154.3635655161199
 20
180.2392143042134
 10
153.6746004838802
 20
181.8444107800415
 10
153.2042204063243
 20
183.4412125421274
 72
     1
 10
153.2042204063243
 20
183.4412125421275
 11
61.37425000000003
 21
183.4412125421274
 72
     1
 10
61.37425
 20
183.4412125421274
 11
61.37425
 21
178.6424125421274
 72
     1
 10
61.37425
 20
178.6424125421274
 11
154.8339455936758
 21
178.6424125421274
 97
        0
 92
        5
 93
        5
 72
     1
 10
255.439055
 20
183.4412125421274
 11
155.8702204063242
 21
183.4412125421274
 72
     4
 94
        3
 73
     0
 74
     0
 95
        8
 96
        4
 40
8.598710652970376
 40
8.598710652970376
 40
8.598710652970376
 40
8.598710652970376
 40
12.29661123893842
 40
12.29661123893842
 40
12.29661123893842
 40
12.29661123893842
 10
155.8702204063243
 20
183.4412125421274
 10
156.3406004838801
 20
181.8444107800415
 10
157.0295655161199
 20
180.2392143042134
 10
157.4999455936758
 20
178.6424125421274
 72
     1
 10
157.4999455936758
 20
178.6424125421274
 11
255.439055
 21
178.6424125421274
 72
     1
 10
255.439055
 20
178.6424125421274
 11
255.439055
 21
181.0418125421275
 72
     1
 10
255.439055
 20
181.0418125421274
 11
255.439055
 21
183.4412125421274
 97
        0
 75
     0
 76
     1
 52
0.0
 41
13.33
 77
     0
 78
     2
 53
44.99999999999999
 43
-22.98065600000005
 44
11.52286954212742
 45
-1.178216674152084
 46
1.178216674152084
 79
     0
 53
135.0
 43
-22.98065600000005
 44
11.52286954212742
 45
-1.178216674152084
 46
-1.178216674152084
 79
     0
 47
0.2569935116249364
 98
        2
 10
146.875536
 20
181.3737295421274
 10
196.933685
 20
181.3737295421274
  0
LEADER
  5
2FA6
330
1E
100
AcDbEntity
  8
SC
100
AcDbLeader
  3
nisimura
 76
     3
 10
221.8845108902923
 20
114.8756650589699
 30
0.0
 10
234.237281328785
 20
143.4972009935723
 30
0.0
 10
260.4970582946939
 20
143.4972009935723
 30
0.0
1001
ACAD
1000
DSTYLE
1002
{
1070
   147
1040
0.625
1070
    77
1070
     0
1002
}
  0
LEADER
  5
2FA7
330
1E
100
AcDbEntity
  8
SC
100
AcDbLeader
  3
nisimura
 76
     3
 10
183.6933001500802
 20
114.6131650589699
 30
0.0
 10
197.4390108902923
 20
136.9931650589699
 30
0.0
 10
218.5650582946939
 20
136.9931650589699
 30
0.0
1001
ACAD
1000
DSTYLE
1002
{
1070
   147
1040
0.625
1070
    77
1070
     0
1002
}
  0
HATCH
  5
2FA8
330
1E
100
AcDbEntity
  8
HA
100
AcDbHatch
 10
0.0
 20
0.0
 30
0.0
210
0.0
220
0.0
230
1.0
  2
ANSI37
 70
     0
 71
     0
 91
        2
 92
        5
 93
        4
 72
     4
 94
        3
 73
     0
 74
     0
 95
        8
 96
        4
 40
8.606940604933729
 40
8.606940604933729
 40
8.606940604933729
 40
8.606940604933729
 40
12.30484138349211
 40
12.30484138349211
 40
12.30484138349211
 40
12.30484138349211
 10
277.3179920307768
 20
108.08066505897
 10
276.7897793979545
 20
109.877474205735
 10
276.0145023003472
 20
111.683771816428
 10
275.4840999476388
 20
113.4806650589701
 72
     1
 10
275.4840999476388
 20
113.48066505897
 11
232.1220108902924
 21
113.48066505897
 72
     1
 10
232.1220108902924
 20
113.48066505897
 11
232.1220108902924
 21
108.08066505897
 72
     1
 10
232.1220108902924
 20
108.08066505897
 11
277.3179920307768
 21
108.08066505897
 97
        0
 92
        5
 93
        5
 72
     1
 10
342.3310612349933
 20
110.78066505897
 11
342.3310612349932
 21
113.48066505897
 72
     1
 10
342.3310612349933
 20
113.48066505897
 11
278.4840999476389
 21
113.48066505897
 72
     4
 94
        3
 73
     0
 74
     0
 95
        8
 96
        4
 40
8.606940604933729
 40
8.606940604933729
 40
8.606940604933729
 40
8.606940604933729
 40
12.30484138349211
 40
12.30484138349211
 40
12.30484138349211
 40
12.30484138349211
 10
278.4840999476388
 20
113.4806650589701
 10
279.0145023003472
 20
111.683771816428
 10
279.7897793979545
 20
109.877474205735
 10
280.3179920307769
 20
108.08066505897
 72
     1
 10
280.3179920307769
 20
108.08066505897
 11
342.3310612349933
 21
108.08066505897
 72
     1
 10
342.3310612349933
 20
108.08066505897
 11
342.3310612349933
 21
110.78066505897
 97
        0
 75
     0
 76
     1
 52
0.0
 41
15.0
 77
     0
 78
     2
 53
44.99999999999999
 43
24.37951089029238
 44
-97.63833494103009
 45
-1.325825214724776
 46
1.325825214724776
 79
     0
 53
135.0
 43
24.37951089029238
 44
-97.63833494103009
 45
-1.325825214724776
 46
-1.325825214724776
 79
     0
 47
0.2240440034045316
 98
        2
 10
256.8750108902924
 20
111.7691650589699
 10
300.6000108902924
 20
109.7531650589699
  0
LINE
  5
2FA9
330
1E
100
AcDbEntity
  8
0
100
AcDbLine
 10
280.3179920307767
 20
108.08066505897
 30
0.0
 11
342.3310612349933
 21
108.08066505897
 31
0.0
  0
LINE
  5
2FAA
330
1E
100
AcDbEntity
  8
0
100
AcDbLine
 10
278.4840999476388
 20
113.48066505897
 30
0.0
 11
342.3310612349933
 21
113.48066505897
 31
0.0
  0
LEADER
  5
2FAB
330
1E
100
AcDbEntity
  8
SC
100
AcDbLeader
  3
nisimura
 76
     3
 10
246.2935612349933
 20
112.06766505897
 30
0.0
 10
259.7785612349933
 20
134.8676650589701
 30
0.0
 10
295.9410582946939
 20
134.8676650589701
 30
0.0
1001
ACAD
1000
DSTYLE
1002
{
1070
   147
1040
0.625
1070
    77
1070
     0
1002
}
  0
LINE
  5
2FAC
330
1E
100
AcDbEntity
  8
0
100
AcDbLine
 10
342.3310612349933
 20
107.7806650589701
 30
0.0
 11
342.3310612349933
 21
110.78066505897
 31
0.0
  0
LINE
  5
2FAD
330
1E
100
AcDbEntity
  8
0
100
AcDbLine
 10
342.3310612349933
 20
108.08066505897
 30
0.0
 11
342.3310612349933
 21
107.7806650589701
 31
0.0
  0
LINE
  5
2FAE
330
1E
100
AcDbEntity
  8
0
100
AcDbLine
 10
342.3310612349933
 20
107.7806650589701
 30
0.0
 11
352.3180612349932
 21
107.7806650589701
 31
0.0
  0
LINE
  5
2FAF
330
1E
100
AcDbEntity
  8
0
100
AcDbLine
 10
353.9365612349932
 20
108.53066505897
 30
0.0
 11
357.4495612349932
 21
108.53066505897
 31
0.0
  0
LINE
  5
2FB0
330
1E
100
AcDbEntity
  8
0
100
AcDbLine
 10
357.4495612349932
 20
108.53066505897
 30
0.0
 11
357.4495612349933
 21
111.23066505897
 31
0.0
  0
LINE
  5
2FB1
330
1E
100
AcDbEntity
  8
0
100
AcDbLine
 10
352.3180612349932
 20
107.7806650589701
 30
0.0
 11
353.9365612349932
 21
108.53066505897
 31
0.0
  0
LINE
  5
2FB2
330
1E
100
AcDbEntity
  8
0
100
AcDbLine
 10
352.3180612349932
 20
113.78066505897
 30
0.0
 11
353.9365612349932
 21
113.0306650589701
 31
0.0
  0
LINE
  5
2FB3
330
1E
100
AcDbEntity
  8
0
100
AcDbLine
 10
357.4495612349932
 20
113.0306650589701
 30
0.0
 11
357.4495612349932
 21
111.2306650589701
 31
0.0
  0
LINE
  5
2FB4
330
1E
100
AcDbEntity
  8
0
100
AcDbLine
 10
353.9365612349932
 20
113.0306650589701
 30
0.0
 11
357.4495612349932
 21
113.0306650589701
 31
0.0
  0
LINE
  5
2FB5
330
1E
100
AcDbEntity
  8
0
100
AcDbLine
 10
342.3310612349933
 20
113.78066505897
 30
0.0
 11
352.3180612349932
 21
113.78066505897
 31
0.0
  0
LINE
  5
2FB6
330
1E
100
AcDbEntity
  8
0
100
AcDbLine
 10
342.3310612349933
 20
113.48066505897
 30
0.0
 11
342.3310612349933
 21
113.78066505897
 31
0.0
  0
LINE
  5
2FB7
330
1E
100
AcDbEntity
  8
0
100
AcDbLine
 10
342.3310612349933
 20
113.78066505897
 30
0.0
 11
342.3310612349933
 21
110.78066505897
 31
0.0
  0
LINE
  5
2FB8
330
1E
100
AcDbEntity
  8
0
100
AcDbLine
 10
357.4495612349932
 20
112.7306650589701
 30
0.0
 11
382.3060612349932
 21
112.7306650589701
 31
0.0
  0
LINE
  5
2FB9
330
1E
100
AcDbEntity
  8
0
100
AcDbLine
 10
382.3060612349932
 20
112.7306650589701
 30
0.0
 11
382.3060612349932
 21
111.2306650589701
 31
0.0
  0
LINE
  5
2FBA
330
1E
100
AcDbEntity
  8
0
100
AcDbLine
 10
382.3060612349932
 20
111.2306650589701
 30
0.0
 11
357.4495612349933
 21
111.23066505897
 31
0.0
  0
LINE
  5
2FBB
330
1E
100
AcDbEntity
  8
0
100
AcDbLine
 10
382.3060612349932
 20
111.2306650589701
 30
0.0
 11
382.3060612349932
 21
110.93066505897
 31
0.0
  0
LINE
  5
2FBC
330
1E
100
AcDbEntity
  8
0
100
AcDbLine
 10
382.3060612349932
 20
110.93066505897
 30
0.0
 11
385.3060612349934
 21
110.93066505897
 31
0.0
  0
LINE
  5
2FBD
330
1E
100
AcDbEntity
  8
0
100
AcDbLine
 10
382.3060612349932
 20
112.7306650589701
 30
0.0
 11
382.3060612349932
 21
113.0306650589701
 31
0.0
  0
LINE
  5
2FBE
330
1E
100
AcDbEntity
  8
0
100
AcDbLine
 10
382.3060612349932
 20
113.0306650589701
 30
0.0
 11
385.3060612349934
 21
113.0306650589701
 31
0.0
  0
ARC
  5
2FBF
330
1E
100
AcDbEntity
  8
0
100
AcDbCircle
 10
386.6020325051548
 20
112.2406171759056
 30
0.0
 40
1.842692617271723
100
AcDbArc
 50
225.3073903986098
 51
232.400297631896
  0
LINE
  5
2FC0
330
1E
100
AcDbEntity
  8
0
100
AcDbLine
 10
386.5570612349933
 20
111.2306650589701
 30
0.0
 11
389.0560612349934
 21
111.2306650589701
 31
0.0
  0
ARC
  5
2FC1
330
1E
100
AcDbEntity
  8
0
100
AcDbCircle
 10
389.0560612349934
 20
110.8556650589701
 30
0.0
 40
0.375
100
AcDbArc
 50
348.4630409724173
 51
90.0
  0
ARC
  5
2FC2
330
1E
100
AcDbEntity
  8
0
100
AcDbCircle
 10
389.0560612349934
 20
113.1056650589701
 30
0.0
 40
0.375
100
AcDbArc
 50
270.0
 51
90.0
  0
LINE
  5
2FC3
330
1E
100
AcDbEntity
  8
0
100
AcDbLine
 10
386.5570612349933
 20
112.7306650589701
 30
0.0
 11
389.0560612349934
 21
112.7306650589701
 31
0.0
  0
ARC
  5
2FC4
330
1E
100
AcDbEntity
  8
0
100
AcDbCircle
 10
386.6020325051548
 20
111.7207129420344
 30
0.0
 40
1.842692617271723
100
AcDbArc
 50
107.2349034627553
 51
134.6926096013897
  0
LINE
  5
2FC5
330
1E
100
AcDbEntity
  8
0
100
AcDbLine
 10
386.0560612349934
 20
113.4806650589701
 30
0.0
 11
389.0560612349934
 21
113.4806650589701
 31
0.0
  0
ARC
  5
2FC6
330
1E
100
AcDbEntity
  8
0
100
AcDbCircle
 10
386.5570612349933
 20
111.9806650589701
 30
0.0
 40
0.75
100
AcDbArc
 50
90.0
 51
270.0
  0
ARC
  5
2FC7
330
1E
100
AcDbEntity
  8
0
100
AcDbCircle
 10
386.5570612349933
 20
109.5806650589699
 30
0.0
 40
0.75
100
AcDbArc
 50
90.0
 51
270.0
  0
LINE
  5
2FC8
330
1E
100
AcDbEntity
  8
0
100
AcDbLine
 10
386.0560612349934
 20
108.08066505897
 30
0.0
 11
389.0560612349934
 21
108.08066505897
 31
0.0
  0
ARC
  5
2FC9
330
1E
100
AcDbEntity
  8
0
100
AcDbCircle
 10
386.6020325051548
 20
109.8406171759056
 30
0.0
 40
1.842692617271723
100
AcDbArc
 50
225.3073903986098
 51
252.7650965372446
  0
LINE
  5
2FCA
330
1E
100
AcDbEntity
  8
0
100
AcDbLine
 10
386.5570612349933
 20
108.8306650589699
 30
0.0
 11
389.0560612349934
 21
108.8306650589699
 31
0.0
  0
ARC
  5
2FCB
330
1E
100
AcDbEntity
  8
0
100
AcDbCircle
 10
389.0560612349934
 20
108.4556650589699
 30
0.0
 40
0.375
100
AcDbArc
 50
270.0
 51
90.0
  0
ARC
  5
2FCC
330
1E
100
AcDbEntity
  8
0
100
AcDbCircle
 10
389.0560612349934
 20
110.7056650589699
 30
0.0
 40
0.375
100
AcDbArc
 50
270.0
 51
90.0
  0
LINE
  5
2FCD
330
1E
100
AcDbEntity
  8
0
100
AcDbLine
 10
386.5570612349933
 20
110.33066505897
 30
0.0
 11
389.0560612349934
 21
110.33066505897
 31
0.0
  0
ARC
  5
2FCE
330
1E
100
AcDbEntity
  8
0
100
AcDbCircle
 10
386.6020325051548
 20
109.3207129420343
 30
0.0
 40
1.842692617271723
100
AcDbArc
 50
107.2349034627553
 51
134.6926096013897
  0
LINE
  5
2FCF
330
1E
100
AcDbEntity
  8
0
100
AcDbLine
 10
386.0560612349934
 20
111.0806650589699
 30
0.0
 11
389.0560612349934
 21
111.0806650589699
 31
0.0
  0
LINE
  5
2FD0
330
1E
100
AcDbEntity
  8
0
100
AcDbLine
 10
382.3060612349932
 20
108.53066505897
 30
0.0
 11
385.3060612349934
 21
108.53066505897
 31
0.0
  0
LINE
  5
2FD1
330
1E
100
AcDbEntity
  8
0
100
AcDbLine
 10
382.3060612349932
 20
108.8306650589699
 30
0.0
 11
382.3060612349932
 21
108.53066505897
 31
0.0
  0
LINE
  5
2FD2
330
1E
100
AcDbEntity
  8
0
100
AcDbLine
 10
382.3060612349932
 20
110.6306650589699
 30
0.0
 11
385.3060612349934
 21
110.6306650589699
 31
0.0
  0
LINE
  5
2FD3
330
1E
100
AcDbEntity
  8
0
100
AcDbLine
 10
382.3060612349932
 20
110.33066505897
 30
0.0
 11
382.3060612349932
 21
110.6306650589699
 31
0.0
  0
LINE
  5
2FD4
330
1E
100
AcDbEntity
  8
0
100
AcDbLine
 10
382.3060612349932
 20
110.33066505897
 30
0.0
 11
357.4495612349932
 21
110.33066505897
 31
0.0
  0
LINE
  5
2FD5
330
1E
100
AcDbEntity
  8
0
100
AcDbLine
 10
382.3060612349932
 20
108.8306650589699
 30
0.0
 11
382.3060612349932
 21
110.33066505897
 31
0.0
  0
LINE
  5
2FD6
330
1E
100
AcDbEntity
  8
0
100
AcDbLine
 10
357.4495612349932
 20
108.8306650589699
 30
0.0
 11
382.3060612349932
 21
108.8306650589699
 31
0.0
  0
LINE
  5
2FD7
330
1E
100
AcDbEntity
  8
0
100
AcDbLine
 10
357.4495612349932
 20
112.73066505897
 30
0.0
 11
382.3060612349932
 21
112.73066505897
 31
0.0
  0
LINE
  5
2FD8
330
1E
100
AcDbEntity
  8
0
100
AcDbLine
 10
232.1220108902924
 20
113.48066505897
 30
0.0
 11
275.4840999476388
 21
113.48066505897
 31
0.0
  0
LINE
  5
2FD9
330
1E
100
AcDbEntity
  8
0
100
AcDbLine
 10
232.1220108902924
 20
108.08066505897
 30
0.0
 11
277.3179920307768
 21
108.08066505897
 31
0.0
  0
SPLINE
  5
2FDA
330
1E
100
AcDbEntity
  8
0
100
AcDbSpline
210
0.0
220
0.0
230
1.0
 70
  1064
 71
     3
 72
    10
 73
     6
 74
     4
 42
0.000000001
 43
0.0000000001
 44
0.0000000001
 40
0.0
 40
0.0
 40
0.0
 40
0.0
 40
9.486832980505138
 40
21.85614985735812
 40
31.34298283786326
 40
31.34298283786326
 40
31.34298283786326
 40
31.34298283786326
 10
277.897511897971
 20
125.7926622758595
 30
0.0
 10
276.3626903776865
 20
122.8132019949467
 30
0.0
 10
272.8267064280831
 20
115.9490007881274
 30
0.0
 10
279.968317367859
 20
105.6363237635916
 30
0.0
 10
276.4323334182555
 20
98.77212255677235
 30
0.0
 10
274.897511897971
 20
95.79266227585955
 30
0.0
 11
277.897511897971
 21
125.7926622758595
 31
0.0
 11
274.897511897971
 21
116.7926622758595
 31
0.0
 11
277.897511897971
 21
104.7926622758595
 31
0.0
 11
274.897511897971
 21
95.79266227585955
 31
0.0
  0
SPLINE
  5
2FDB
330
1E
100
AcDbEntity
  8
0
100
AcDbSpline
210
0.0
220
0.0
230
1.0
 70
  1064
 71
     3
 72
    10
 73
     6
 74
     4
 42
0.000000001
 43
0.0000000001
 44
0.0000000001
 40
0.0
 40
0.0
 40
0.0
 40
0.0
 40
9.486832980505138
 40
21.85614985735812
 40
31.34298283786326
 40
31.34298283786326
 40
31.34298283786326
 40
31.34298283786326
 10
280.897511897971
 20
125.7926622758595
 30
0.0
 10
279.3626903776866
 20
122.8132019949467
 30
0.0
 10
275.8267064280831
 20
115.9490007881274
 30
0.0
 10
282.9683173678589
 20
105.6363237635916
 30
0.0
 10
279.4323334182554
 20
98.77212255677235
 30
0.0
 10
277.897511897971
 20
95.79266227585955
 30
0.0
 11
280.897511897971
 21
125.7926622758595
 31
0.0
 11
277.897511897971
 21
116.7926622758595
 31
0.0
 11
280.897511897971
 21
104.7926622758595
 31
0.0
 11
277.897511897971
 21
95.79266227585955
 31
0.0
  0
LINE
  5
2FDC
330
1E
100
AcDbEntity
  8
0
100
AcDbLine
 10
232.1220108902924
 20
114.0881650589699
 30
0.0
 11
230.5470108902925
 21
107.4731650589699
 31
0.0
  0
ARC
  5
2FDD
330
1E
100
AcDbEntity
  8
0
100
AcDbCircle
 10
231.3345108902924
 20
107.4731650589699
 30
0.0
 40
0.7874999999999999
100
AcDbArc
 50
180.0
 51
0.0
  0
ARC
  5
2FDE
330
1E
100
AcDbEntity
  8
0
100
AcDbCircle
 10
231.3345108902924
 20
114.0881650589699
 30
0.0
 40
0.7874999999999999
100
AcDbArc
 50
0.0
 51
180.0
  0
LINE
  5
2FDF
330
1E
100
AcDbEntity
  8
0
100
AcDbLine
 10
230.5470108902924
 20
114.0881650589699
 30
0.0
 11
228.9720108902924
 21
107.4731650589699
 31
0.0
  0
ARC
  5
2FE0
330
1E
100
AcDbEntity
  8
0
100
AcDbCircle
 10
229.7595108902923
 20
107.4731650589699
 30
0.0
 40
0.7874999999999999
100
AcDbArc
 50
180.0
 51
0.0
  0
ARC
  5
2FE1
330
1E
100
AcDbEntity
  8
0
100
AcDbCircle
 10
229.7595108902923
 20
114.0881650589699
 30
0.0
 40
0.7874999999999999
100
AcDbArc
 50
0.0
 51
180.0
  0
LINE
  5
2FE2
330
1E
100
AcDbEntity
  8
0
100
AcDbLine
 10
228.9720108902924
 20
114.0881650589699
 30
0.0
 11
227.3970108902925
 21
107.4731650589699
 31
0.0
  0
ARC
  5
2FE3
330
1E
100
AcDbEntity
  8
0
100
AcDbCircle
 10
228.1845108902924
 20
107.4731650589699
 30
0.0
 40
0.7874999999999999
100
AcDbArc
 50
180.0
 51
0.0
  0
ARC
  5
2FE4
330
1E
100
AcDbEntity
  8
0
100
AcDbCircle
 10
228.1845108902924
 20
114.0881650589699
 30
0.0
 40
0.7874999999999999
100
AcDbArc
 50
0.0
 51
180.0
  0
LINE
  5
2FE5
330
1E
100
AcDbEntity
  8
0
100
AcDbLine
 10
227.3970108902925
 20
114.0881650589699
 30
0.0
 11
225.8220108902924
 21
107.4731650589699
 31
0.0
  0
ARC
  5
2FE6
330
1E
100
AcDbEntity
  8
0
100
AcDbCircle
 10
226.6095108902923
 20
107.4731650589699
 30
0.0
 40
0.7874999999999999
100
AcDbArc
 50
180.0
 51
0.0
  0
ARC
  5
2FE7
330
1E
100
AcDbEntity
  8
0
100
AcDbCircle
 10
226.6095108902923
 20
114.0881650589699
 30
0.0
 40
0.7874999999999999
100
AcDbArc
 50
0.0
 51
180.0
  0
LINE
  5
2FE8
330
1E
100
AcDbEntity
  8
0
100
AcDbLine
 10
225.8220108902924
 20
114.0881650589699
 30
0.0
 11
224.2470108902924
 21
107.4731650589699
 31
0.0
  0
ARC
  5
2FE9
330
1E
100
AcDbEntity
  8
0
100
AcDbCircle
 10
225.0345108902924
 20
107.4731650589699
 30
0.0
 40
0.7874999999999999
100
AcDbArc
 50
180.0
 51
0.0
  0
ARC
  5
2FEA
330
1E
100
AcDbEntity
  8
0
100
AcDbCircle
 10
225.0345108902924
 20
114.0881650589699
 30
0.0
 40
0.7874999999999999
100
AcDbArc
 50
0.0
 51
180.0
  0
LINE
  5
2FEB
330
1E
100
AcDbEntity
  8
0
100
AcDbLine
 10
224.2470108902924
 20
114.0881650589699
 30
0.0
 11
222.6720108902925
 21
107.4731650589699
 31
0.0
  0
ARC
  5
2FEC
330
1E
100
AcDbEntity
  8
0
100
AcDbCircle
 10
223.4595108902925
 20
107.4731650589699
 30
0.0
 40
0.7874999999999999
100
AcDbArc
 50
180.0
 51
0.0
  0
ARC
  5
2FED
330
1E
100
AcDbEntity
  8
0
100
AcDbCircle
 10
223.4595108902925
 20
114.0881650589699
 30
0.0
 40
0.7874999999999999
100
AcDbArc
 50
0.0
 51
180.0
  0
LINE
  5
2FEE
330
1E
100
AcDbEntity
  8
0
100
AcDbLine
 10
222.6720108902924
 20
114.0881650589699
 30
0.0
 11
221.0970108902924
 21
107.4731650589699
 31
0.0
  0
ARC
  5
2FEF
330
1E
100
AcDbEntity
  8
0
100
AcDbCircle
 10
221.8845108902923
 20
107.4731650589699
 30
0.0
 40
0.7874999999999999
100
AcDbArc
 50
180.0
 51
0.0
  0
ARC
  5
2FF0
330
1E
100
AcDbEntity
  8
0
100
AcDbCircle
 10
221.8845108902923
 20
114.0881650589699
 30
0.0
 40
0.7874999999999999
100
AcDbArc
 50
0.0
 51
180.0
  0
LINE
  5
2FF1
330
1E
100
AcDbEntity
  8
0
100
AcDbLine
 10
221.0970108902924
 20
114.0881650589699
 30
0.0
 11
219.5220108902924
 21
107.4731650589699
 31
0.0
  0
ARC
  5
2FF2
330
1E
100
AcDbEntity
  8
0
100
AcDbCircle
 10
220.3095108902924
 20
107.4731650589699
 30
0.0
 40
0.7874999999999999
100
AcDbArc
 50
180.0
 51
0.0
  0
ARC
  5
2FF3
330
1E
100
AcDbEntity
  8
0
100
AcDbCircle
 10
220.3095108902924
 20
114.0881650589699
 30
0.0
 40
0.7874999999999999
100
AcDbArc
 50
0.0
 51
180.0
  0
LINE
  5
2FF4
330
1E
100
AcDbEntity
  8
0
100
AcDbLine
 10
219.5220108902924
 20
114.0881650589699
 30
0.0
 11
217.9470108902924
 21
107.4731650589699
 31
0.0
  0
ARC
  5
2FF5
330
1E
100
AcDbEntity
  8
0
100
AcDbCircle
 10
218.7345108902924
 20
107.4731650589699
 30
0.0
 40
0.7874999999999999
100
AcDbArc
 50
180.0
 51
0.0
  0
ARC
  5
2FF6
330
1E
100
AcDbEntity
  8
0
100
AcDbCircle
 10
218.7345108902924
 20
114.0881650589699
 30
0.0
 40
0.7874999999999999
100
AcDbArc
 50
0.0
 51
180.0
  0
LINE
  5
2FF7
330
1E
100
AcDbEntity
  8
0
100
AcDbLine
 10
217.9470108902923
 20
114.0881650589699
 30
0.0
 11
216.3720108902924
 21
107.4731650589699
 31
0.0
  0
ARC
  5
2FF8
330
1E
100
AcDbEntity
  8
0
100
AcDbCircle
 10
217.1595108902924
 20
107.4731650589699
 30
0.0
 40
0.7874999999999999
100
AcDbArc
 50
180.0
 51
0.0
  0
ARC
  5
2FF9
330
1E
100
AcDbEntity
  8
0
100
AcDbCircle
 10
217.1595108902924
 20
114.0881650589699
 30
0.0
 40
0.7874999999999999
100
AcDbArc
 50
0.0
 51
180.0
  0
LINE
  5
2FFA
330
1E
100
AcDbEntity
  8
0
100
AcDbLine
 10
216.3720108902924
 20
114.0881650589699
 30
0.0
 11
214.7970108902925
 21
107.4731650589699
 31
0.0
  0
ARC
  5
2FFB
330
1E
100
AcDbEntity
  8
0
100
AcDbCircle
 10
215.5845108902925
 20
107.4731650589699
 30
0.0
 40
0.7874999999999999
100
AcDbArc
 50
180.0
 51
0.0
  0
ARC
  5
2FFC
330
1E
100
AcDbEntity
  8
0
100
AcDbCircle
 10
215.5845108902925
 20
114.0881650589699
 30
0.0
 40
0.7874999999999999
100
AcDbArc
 50
0.0
 51
180.0
  0
LINE
  5
2FFD
330
1E
100
AcDbEntity
  8
0
100
AcDbLine
 10
214.7970108902924
 20
114.0881650589699
 30
0.0
 11
213.2220108902924
 21
107.4731650589699
 31
0.0
  0
ARC
  5
2FFE
330
1E
100
AcDbEntity
  8
0
100
AcDbCircle
 10
214.0095108902924
 20
107.4731650589699
 30
0.0
 40
0.7874999999999999
100
AcDbArc
 50
180.0
 51
0.0
  0
ARC
  5
2FFF
330
1E
100
AcDbEntity
  8
0
100
AcDbCircle
 10
214.0095108902924
 20
114.0881650589699
 30
0.0
 40
0.7874999999999999
100
AcDbArc
 50
0.0
 51
180.0
  0
LINE
  5
3000
330
1E
100
AcDbEntity
  8
0
100
AcDbLine
 10
213.2220108902924
 20
114.0881650589699
 30
0.0
 11
211.6470108902924
 21
107.4731650589699
 31
0.0
  0
ARC
  5
3001
330
1E
100
AcDbEntity
  8
0
100
AcDbCircle
 10
212.4345108902924
 20
107.4731650589699
 30
0.0
 40
0.7874999999999999
100
AcDbArc
 50
180.0
 51
0.0
  0
ARC
  5
3002
330
1E
100
AcDbEntity
  8
0
100
AcDbCircle
 10
212.4345108902924
 20
114.0881650589699
 30
0.0
 40
0.7874999999999999
100
AcDbArc
 50
0.0
 51
180.0
  0
LINE
  5
3003
330
1E
100
AcDbEntity
  8
0
100
AcDbLine
 10
211.6470108902924
 20
114.0881650589699
 30
0.0
 11
210.0720108902924
 21
107.4731650589699
 31
0.0
  0
ARC
  5
3004
330
1E
100
AcDbEntity
  8
0
100
AcDbCircle
 10
210.8595108902924
 20
107.4731650589699
 30
0.0
 40
0.7874999999999999
100
AcDbArc
 50
180.0
 51
0.0
  0
ARC
  5
3005
330
1E
100
AcDbEntity
  8
0
100
AcDbCircle
 10
210.8595108902924
 20
114.0881650589699
 30
0.0
 40
0.7874999999999999
100
AcDbArc
 50
0.0
 51
180.0
  0
LINE
  5
3006
330
1E
100
AcDbEntity
  8
0
100
AcDbLine
 10
210.0720108902923
 20
114.0881650589699
 30
0.0
 11
208.4970108902924
 21
107.4731650589699
 31
0.0
  0
ARC
  5
3007
330
1E
100
AcDbEntity
  8
0
100
AcDbCircle
 10
209.2845108902924
 20
107.4731650589699
 30
0.0
 40
0.7874999999999999
100
AcDbArc
 50
180.0
 51
0.0
  0
ARC
  5
3008
330
1E
100
AcDbEntity
  8
0
100
AcDbCircle
 10
209.2845108902924
 20
114.0881650589699
 30
0.0
 40
0.7874999999999999
100
AcDbArc
 50
0.0
 51
180.0
  0
LINE
  5
3009
330
1E
100
AcDbEntity
  8
0
100
AcDbLine
 10
208.4970108902924
 20
114.0881650589699
 30
0.0
 11
206.9220108902925
 21
107.4731650589699
 31
0.0
  0
ARC
  5
300A
330
1E
100
AcDbEntity
  8
0
100
AcDbCircle
 10
207.7095108902924
 20
107.4731650589699
 30
0.0
 40
0.7874999999999999
100
AcDbArc
 50
180.0
 51
0.0
  0
ARC
  5
300B
330
1E
100
AcDbEntity
  8
0
100
AcDbCircle
 10
207.7095108902924
 20
114.0881650589699
 30
0.0
 40
0.7874999999999999
100
AcDbArc
 50
0.0
 51
180.0
  0
LINE
  5
300C
330
1E
100
AcDbEntity
  8
0
100
AcDbLine
 10
206.9220108902924
 20
114.0881650589699
 30
0.0
 11
205.3470108902924
 21
107.4731650589699
 31
0.0
  0
ARC
  5
300D
330
1E
100
AcDbEntity
  8
0
100
AcDbCircle
 10
206.1345108902923
 20
107.4731650589699
 30
0.0
 40
0.7874999999999999
100
AcDbArc
 50
180.0
 51
0.0
  0
ARC
  5
300E
330
1E
100
AcDbEntity
  8
0
100
AcDbCircle
 10
206.1345108902923
 20
114.0881650589699
 30
0.0
 40
0.7874999999999999
100
AcDbArc
 50
0.0
 51
180.0
  0
LINE
  5
300F
330
1E
100
AcDbEntity
  8
0
100
AcDbLine
 10
205.3470108902924
 20
114.0881650589699
 30
0.0
 11
203.7720108902925
 21
107.4731650589699
 31
0.0
  0
ARC
  5
3010
330
1E
100
AcDbEntity
  8
0
100
AcDbCircle
 10
204.5595108902924
 20
107.4731650589699
 30
0.0
 40
0.7874999999999999
100
AcDbArc
 50
180.0
 51
0.0
  0
ARC
  5
3011
330
1E
100
AcDbEntity
  8
0
100
AcDbCircle
 10
204.5595108902924
 20
114.0881650589699
 30
0.0
 40
0.7874999999999999
100
AcDbArc
 50
0.0
 51
180.0
  0
LINE
  5
3012
330
1E
100
AcDbEntity
  8
0
100
AcDbLine
 10
203.7720108902925
 20
114.0881650589699
 30
0.0
 11
202.1970108902924
 21
107.4731650589699
 31
0.0
  0
ARC
  5
3013
330
1E
100
AcDbEntity
  8
0
100
AcDbCircle
 10
202.9845108902924
 20
107.4731650589699
 30
0.0
 40
0.7874999999999999
100
AcDbArc
 50
180.0
 51
0.0
  0
ARC
  5
3014
330
1E
100
AcDbEntity
  8
0
100
AcDbCircle
 10
202.9845108902924
 20
114.0881650589699
 30
0.0
 40
0.7874999999999999
100
AcDbArc
 50
0.0
 51
180.0
  0
LINE
  5
3015
330
1E
100
AcDbEntity
  8
0
100
AcDbLine
 10
202.1970108902924
 20
106.9481650589699
 30
0.0
 11
202.1970108902924
 21
107.4731650589699
 31
0.0
  0
LINE
  5
3016
330
1E
100
AcDbEntity
  8
0
100
AcDbLine
 10
202.1970108902924
 20
114.61316505897
 30
0.0
 11
202.1970108902924
 21
114.0881650589699
 31
0.0
  0
LINE
  5
3017
330
1E
100
AcDbEntity
  8
0
100
AcDbLine
 10
232.1220108902924
 20
107.4731650589699
 30
0.0
 11
232.1220108902924
 21
114.08816505897
 31
0.0
  0
LINE
  5
3018
330
1E
100
AcDbEntity
  8
0
100
AcDbLine
 10
202.1970108902924
 20
106.9481650589699
 30
0.0
 11
202.1970108902924
 21
114.61316505897
 31
0.0
  0
LINE
  5
3019
330
1E
100
AcDbEntity
  8
0
100
AcDbLine
 10
170.6970108902923
 20
106.9481650589699
 30
0.0
 11
202.1970108902924
 21
106.9481650589699
 31
0.0
  0
LINE
  5
301A
330
1E
100
AcDbEntity
  8
0
100
AcDbLine
 10
170.6970108902923
 20
109.0481650589699
 30
0.0
 11
170.6970108902923
 21
106.9481650589699
 31
0.0
  0
LINE
  5
301B
330
1E
100
AcDbEntity
  8
0
100
AcDbLine
 10
170.6970108902923
 20
114.6131650589699
 30
0.0
 11
202.1970108902924
 21
114.61316505897
 31
0.0
  0
LINE
  5
301C
330
1E
100
AcDbEntity
  8
0
100
AcDbLine
 10
170.6970108902923
 20
112.5131650589699
 30
0.0
 11
170.6970108902923
 21
114.6131650589699
 31
0.0
  0
LINE
  5
301D
330
1E
100
AcDbEntity
  8
0
100
AcDbLine
 10
170.6970108902923
 20
109.0481650589699
 30
0.0
 11
170.6970108902923
 21
112.5131650589699
 31
0.0
  0
LINE
  5
301E
330
1E
100
AcDbEntity
  8
0
100
AcDbLine
 10
167.5470108902923
 20
109.0481650589699
 30
0.0
 11
170.6970108902923
 21
109.0481650589699
 31
0.0
  0
LINE
  5
301F
330
1E
100
AcDbEntity
  8
0
100
AcDbLine
 10
167.5470108902923
 20
109.5731650589699
 30
0.0
 11
167.5470108902923
 21
109.0481650589699
 31
0.0
  0
LINE
  5
3020
330
1E
100
AcDbEntity
  8
0
100
AcDbLine
 10
167.5470108902923
 20
112.5131650589699
 30
0.0
 11
170.6970108902923
 21
112.5131650589699
 31
0.0
  0
LINE
  5
3021
330
1E
100
AcDbEntity
  8
0
100
AcDbLine
 10
167.5470108902923
 20
109.5731650589699
 30
0.0
 11
167.5470108902923
 21
112.5131650589699
 31
0.0
  0
LINE
  5
3022
330
1E
100
AcDbEntity
  8
0
100
AcDbLine
 10
80.04701089029238
 20
109.5731650589699
 30
0.0
 11
97.92799999999996
 21
109.5731650589699
 31
0.0
  0
LINE
  5
3023
330
1E
100
AcDbEntity
  8
0
100
AcDbLine
 10
80.04701089029238
 20
111.9881650589699
 30
0.0
 11
97.92799999999996
 21
111.9881650589699
 31
0.0
  0
LINE
  5
3024
330
1E
100
AcDbEntity
  8
0
100
AcDbLine
 10
80.04701089029238
 20
109.5731650589699
 30
0.0
 11
79.34986044024589
 21
110.7806650589699
 31
0.0
  0
LINE
  5
3025
330
1E
100
AcDbEntity
  8
0
100
AcDbLine
 10
80.04701089029238
 20
111.9881650589699
 30
0.0
 11
79.34986044024589
 21
110.7806650589699
 31
0.0
  0
LEADER
  5
3026
330
1E
100
AcDbEntity
  8
SC
100
AcDbLeader
  3
nisimura
 76
     3
 10
148.837
 20
111.9881650589699
 30
0.0
 10
163.2534130780554
 20
135.460165218483
 30
0.0
 10
183.5034132387134
 20
135.460165218483
 30
0.0
1001
ACAD
1000
DSTYLE
1002
{
1070
   147
1040
0.625
1070
    77
1070
     0
1002
}
  0
TEXT
  5
3027
330
1E
100
AcDbEntity
  8
SC
100
AcDbText
 10
167.4246159970557
 20
135.9415400241766
 30
0.0
 40
4.454540999999999
  1
シース
  7
0
 72
     1
 11
174.9973356970557
 21
135.9415400241766
 31
0.0
100
AcDbText
  0
TEXT
  5
3028
330
1E
100
AcDbEntity
  8
SC
100
AcDbText
 10
199.0919411950628
 20
137.5047937200075
 30
0.0
 40
4.454540999999999
  1
スリーブ
  7
0
 72
     1
 11
209.3373854950629
 21
137.5047937200075
 31
0.0
100
AcDbText
  0
TEXT
  5
3029
330
1E
100
AcDbEntity
  8
SC
100
AcDbText
 10
260.4966543845179
 20
135.3067242586827
 30
0.0
 40
4.454540999999999
  1
シールドリード
  7
0
 72
     1
 11
278.6117877845179
 21
135.3067242586827
 31
0.0
100
AcDbText
  0
TEXT
  5
302A
330
1E
100
AcDbEntity
  8
SC
100
AcDbText
 10
234.6040241463696
 20
144.2412671940004
 30
0.0
 40
4.454540999999999
  1
スプリング
  7
0
 72
     1
 11
247.5221930463696
 21
144.2412671940004
 31
0.0
100
AcDbText
  0
LINE
  5
302B
330
1E
100
AcDbEntity
  8
SC
100
AcDbLine
 10
79.98451089029237
 20
111.9881650589699
 30
0.0
 11
72.80601089029232
 21
111.9881650589699
 31
0.0
  0
LINE
  5
302C
330
1E
100
AcDbEntity
  8
SC
100
AcDbLine
 10
74.05601089029232
 20
107.0731650589699
 30
0.0
 11
74.05601089029232
 21
76.67100000000001
 31
0.0
  0
LINE
  5
302D
330
1E
100
AcDbEntity
  8
SC
100
AcDbLine
 10
74.05601089029232
 20
111.9881650589699
 30
0.0
 11
74.05601089029232
 21
109.5731650589699
 31
0.0
  0
MTEXT
  5
302E
330
1E
100
AcDbEntity
  8
SC
100
AcDbMText
 10
71.17313395681001
 20
90.87769208606307
 30
0.0
 40
4.0
 41
0.0
 71
     5
 72
     1
  1
\A1; 3.2or4.8 %%C
  7
0
 11
0.0000000000000001
 21
1.0
 31
0.0
 73
     1
 44
1.0
1001
ACAD
1000
MTEXTBEGIN
1070
    73
1070
     1
1070
    44
1040
1.0
1070
    74
1070
     0
1000
MTEXTEND
  0
LINE
  5
302F
330
1E
100
AcDbEntity
  8
SC
100
AcDbLine
 10
79.34986044024589
 20
115.7181650589699
 30
0.0
 11
79.34986044024589
 21
85.19420099357233
 31
0.0
  0
LINE
  5
3031
330
1E
100
AcDbEntity
  8
SC
100
AcDbLine
 10
81.84986044024588
 20
90.11099999999998
 30
0.0
 11
178.1970108902923
 21
90.11099999999998
 31
0.0
  0
SOLID
  5
3032
330
1E
100
AcDbEntity
  8
SC
100
AcDbTrace
 10
81.84986044024588
 20
90.52766666666665
 30
0.0
 11
81.84986044024588
 21
89.69433333333332
 31
0.0
 12
79.34986044024589
 22
90.11099999999998
 32
0.0
 13
79.34986044024589
 23
90.11099999999998
 33
0.0
  0
SOLID
  5
3033
330
1E
100
AcDbEntity
  8
SC
100
AcDbTrace
 10
168.1970108902923
 20
90.52766666666665
 30
0.0
 11
168.1970108902923
 21
89.69433333333332
 31
0.0
 12
170.6970108902923
 22
90.11099999999998
 32
0.0
 13
170.6970108902923
 23
90.11099999999998
 33
0.0
  0
MTEXT
  5
3034
330
1E
100
AcDbEntity
  8
SC
 48
2.0
100
AcDbMText
 10
126.821778795889
 20
92.67161882150515
 30
0.0
 40
4.0
 41
0.0
 71
     5
 72
     1
  1
\A1;B+70
  7
0
 73
     1
 44
1.0
1001
ACAD
1000
MTEXTBEGIN
1070
    73
1070
     1
1070
    44
1040
1.0
1070
    74
1070
     0
1000
MTEXTEND
  0
LINE
  5
3035
330
1E
100
AcDbEntity
  8
SC
100
AcDbLine
 10
79.98451089029237
 20
109.5731650589699
 30
0.0
 11
72.80601089029232
 21
109.5731650589699
 31
0.0
  0
LINE
  5
3036
330
1E
100
AcDbEntity
  8
SC
100
AcDbLine
 10
74.05601089029232
 20
114.4881650589699
 30
0.0
 11
74.05601089029232
 21
116.9881650589699
 31
0.0
  0
LINE
  5
3037
330
1E
100
AcDbEntity
  8
SC
100
AcDbLine
 10
202.1970108902924
 20
106.8856650589699
 30
0.0
 11
202.1970108902924
 21
85.86320099357235
 31
0.0
  0
LINE
  5
3038
330
1E
100
AcDbEntity
  8
SC
100
AcDbLine
 10
389.0560612349934
 20
108.3931650589699
 30
0.0
 11
389.0560612349934
 21
85.86320099357235
 31
0.0
  0
LINE
  5
3039
330
1E
100
AcDbEntity
  8
SC
100
AcDbLine
 10
204.6970108902923
 20
90.218
 30
0.0
 11
386.5560612349934
 21
90.218
 31
0.0
  0
SOLID
  5
303A
330
1E
100
AcDbEntity
  8
SC
100
AcDbTrace
 10
73.63934422362565
 20
114.4881650589699
 30
0.0
 11
74.47267755695898
 21
114.4881650589699
 31
0.0
 12
74.05601089029232
 22
111.9881650589699
 32
0.0
 13
74.05601089029232
 23
111.9881650589699
 33
0.0
  0
SOLID
  5
303B
330
1E
100
AcDbEntity
  8
SC
100
AcDbTrace
 10
204.6970108902923
 20
90.63466666666666
 30
0.0
 11
204.6970108902923
 21
89.80133333333334
 31
0.0
 12
202.1970108902924
 22
90.218
 32
0.0
 13
202.1970108902924
 23
90.218
 33
0.0
  0
SOLID
  5
303C
330
1E
100
AcDbEntity
  8
SC
100
AcDbTrace
 10
73.63934422362565
 20
107.0731650589699
 30
0.0
 11
74.47267755695898
 21
107.0731650589699
 31
0.0
 12
74.05601089029232
 22
109.5731650589699
 32
0.0
 13
74.05601089029232
 23
109.5731650589699
 33
0.0
  0
SOLID
  5
303D
330
1E
100
AcDbEntity
  8
SC
100
AcDbTrace
 10
386.5560612349934
 20
90.63466666666666
 30
0.0
 11
386.5560612349934
 21
89.80133333333334
 31
0.0
 12
389.0560612349934
 22
90.218
 32
0.0
 13
389.0560612349934
 23
90.218
 33
0.0
  0
MTEXT
  5
303E
330
1E
100
AcDbEntity
  8
SC
 48
2.0
100
AcDbMText
 10
296.5750582946939
 20
93.145
 30
0.0
 40
4.0
 41
0.0
 71
     5
 72
     1
  1
\A1;C
  7
0
 73
     1
 44
1.0
1001
ACAD
1000
MTEXTBEGIN
1070
    73
1070
     1
1070
    44
1040
1.0
1070
    74
1070
     0
1000
MTEXTEND
  0
LEADER
  5
303F
330
1E
100
AcDbEntity
  8
SC
100
AcDbLeader
  3
nisimura
 76
     3
 10
347.3245612349932
 20
113.78066505897
 30
0.0
 10
359.6773316734859
 20
142.4022009935723
 30
0.0
 10
390.584058294694
 20
142.4022009935723
 30
0.0
1001
ACAD
1000
DSTYLE
1002
{
1070
   147
1040
0.625
1070
    77
1070
     0
1002
}
  0
TEXT
  5
3040
330
1E
100
AcDbEntity
  8
SC
100
AcDbText
 10
359.7662130196959
 20
143.1462671940004
 30
0.0
 40
4.454540999999999
  1
収縮チューブ
  7
0
 72
     1
 11
375.2086218196959
 21
143.1462671940004
 31
0.0
100
AcDbText
  0
TEXT
  5
3041
330
1E
100
AcDbEntity
  8
SC
100
AcDbText
 10
365.5301585446939
 20
137.9092009935723
 30
0.0
 40
3.712117499999999
  1
青or黄（D）
  7
0
 72
     1
 11
377.6387322946939
 21
137.9092009935723
 31
0.0
100
AcDbText
  0
LINE
  5
3094
330
1E
100
AcDbEntity
  8
SA
100
AcDbLine
 10
126.1319999999999
 20
110.7806650589699
 30
0.0
 11
126.1319999999999
 21
114.7796650589699
 31
0.0
  0
LINE
  5
3095
330
1E
100
AcDbEntity
  8
SA
100
AcDbLine
 10
126.1319999999999
 20
114.7796650589699
 30
0.0
 11
114.1349999999999
 21
114.7796650589699
 31
0.0
  0
LINE
  5
3096
330
1E
100
AcDbEntity
  8
SA
100
AcDbLine
 10
114.1349999999999
 20
106.7816650589699
 30
0.0
 11
126.1319999999999
 21
106.7816650589699
 31
0.0
  0
LINE
  5
3097
330
1E
100
AcDbEntity
  8
SA
100
AcDbLine
 10
126.1319999999999
 20
106.7816650589699
 30
0.0
 11
126.1319999999999
 21
110.7806650589699
 31
0.0
  0
LINE
  5
3098
330
1E
100
AcDbEntity
  8
SA
100
AcDbLine
 10
126.1319999999999
 20
110.7806650589699
 30
0.0
 11
126.1319999999999
 21
116.1126650589699
 31
0.0
  0
LINE
  5
3099
330
1E
100
AcDbEntity
  8
SA
100
AcDbLine
 10
126.9317999999999
 20
118.1121650589699
 30
0.0
 11
131.464
 21
118.1121650589699
 31
0.0
  0
LINE
  5
309A
330
1E
100
AcDbEntity
  8
SA
100
AcDbLine
 10
131.464
 20
118.1121650589699
 30
0.0
 11
131.464
 21
103.4491650589699
 31
0.0
  0
LINE
  5
309B
330
1E
100
AcDbEntity
  8
SA
100
AcDbLine
 10
131.464
 20
103.4491650589699
 30
0.0
 11
126.9317999999999
 21
103.4491650589699
 31
0.0
  0
LINE
  5
309C
330
1E
100
AcDbEntity
  8
SA
100
AcDbLine
 10
126.1319999999999
 20
105.4486650589699
 30
0.0
 11
126.1319999999999
 21
106.7816650589699
 31
0.0
  0
LINE
  5
309D
330
1E
100
AcDbEntity
  8
SA
100
AcDbLine
 10
131.464
 20
110.7806650589699
 30
0.0
 11
131.464
 21
113.4466650589699
 31
0.0
  0
LINE
  5
309E
330
1E
100
AcDbEntity
  8
SA
100
AcDbLine
 10
126.9317999999999
 20
114.1131650589699
 30
0.0
 11
131.464
 21
114.1131650589699
 31
0.0
  0
LINE
  5
309F
330
1E
100
AcDbEntity
  8
SA
100
AcDbLine
 10
131.464
 20
107.4481650589699
 30
0.0
 11
126.9317999999999
 21
107.4481650589699
 31
0.0
  0
LINE
  5
30A0
330
1E
100
AcDbEntity
  8
SA
100
AcDbLine
 10
126.9317999999999
 20
118.1121650589699
 30
0.0
 11
126.1319999999999
 21
116.1126650589699
 31
0.0
  0
LINE
  5
30A1
330
1E
100
AcDbEntity
  8
SA
100
AcDbLine
 10
126.1319999999999
 20
116.1126650589699
 30
0.0
 11
126.9317999999999
 21
114.1131650589699
 31
0.0
  0
LINE
  5
30A2
330
1E
100
AcDbEntity
  8
SA
100
AcDbLine
 10
126.9317999999999
 20
103.4491650589699
 30
0.0
 11
126.1319999999999
 21
105.4486650589699
 31
0.0
  0
LINE
  5
30A3
330
1E
100
AcDbEntity
  8
SA
100
AcDbLine
 10
126.1319999999999
 20
105.4486650589699
 30
0.0
 11
126.9317999999999
 21
107.4481650589699
 31
0.0
  0
ARC
  5
30A4
330
1E
100
AcDbEntity
  8
SA
100
AcDbCircle
 10
133.4746083333334
 20
110.7806650589699
 30
0.0
 40
7.342608333333433
100
AcDbArc
 50
153.0085334384074
 51
206.9914665615908
  0
LINE
  5
30A5
330
1E
100
AcDbEntity
  8
SA
100
AcDbLine
 10
112.8019999999999
 20
108.1146650589699
 30
0.0
 11
112.8019999999999
 21
113.4466650589699
 31
0.0
  0
LINE
  5
30A6
330
1E
100
AcDbEntity
  8
HA
  6
ByBlock
370
     9
100
AcDbLine
 10
114.1349999999999
 20
106.7816650589699
 30
0.0
 11
114.1349999999999
 21
114.7796650589699
 31
0.0
  0
LINE
  5
30A7
330
1E
100
AcDbEntity
  8
SA
100
AcDbLine
 10
114.1349999999999
 20
114.7796650589699
 30
0.0
 11
112.8019999999999
 21
113.4466650589699
 31
0.0
  0
LINE
  5
30A8
330
1E
100
AcDbEntity
  8
SA
100
AcDbLine
 10
112.8019999999999
 20
108.1146650589699
 30
0.0
 11
114.1349999999999
 21
106.7816650589699
 31
0.0
  0
LINE
  5
30A9
330
1E
100
AcDbEntity
  8
HA
  6
ByBlock
370
     9
100
AcDbLine
 10
112.8019999999999
 20
113.4466650589699
 30
0.0
 11
126.1319999999999
 21
113.4466650589699
 31
0.0
  0
LINE
  5
30AA
330
1E
100
AcDbEntity
  8
HA
  6
ByBlock
370
     9
100
AcDbLine
 10
112.8019999999999
 20
108.1146650589699
 30
0.0
 11
126.1319999999999
 21
108.1146650589699
 31
0.0
  0
LINE
  5
30AC
330
1E
100
AcDbEntity
  8
0
100
AcDbLine
 10
97.92799999999997
 20
108.7806650589699
 30
0.0
 11
97.92799999999997
 21
112.7806650589699
 31
0.0
  0
LINE
  5
30AD
330
1E
100
AcDbEntity
  8
0
100
AcDbLine
 10
97.92799999999997
 20
112.7806650589699
 30
0.0
 11
98.92799999999997
 21
112.7806650589699
 31
0.0
  0
LINE
  5
30AE
330
1E
100
AcDbEntity
  8
0
100
AcDbLine
 10
98.92799999999997
 20
112.7806650589699
 30
0.0
 11
98.92799999999997
 21
108.7806650589699
 31
0.0
  0
LINE
  5
30AF
330
1E
100
AcDbEntity
  8
0
100
AcDbLine
 10
98.92799999999997
 20
108.7806650589699
 30
0.0
 11
97.92799999999997
 21
108.7806650589699
 31
0.0
  0
LINE
  5
30B0
330
1E
100
AcDbEntity
  8
0
100
AcDbLine
 10
98.92799999999995
 20
111.9881650589699
 30
0.0
 11
167.5470108902923
 21
111.9881650589699
 31
0.0
  0
LINE
  5
30B1
330
1E
100
AcDbEntity
  8
0
100
AcDbLine
 10
98.92799999999995
 20
109.5731650589699
 30
0.0
 11
167.5470108902923
 21
109.5731650589699
 31
0.0
  0
DIMENSION
  5
30B4
330
1E
100
AcDbEntity
  8
SC
100
AcDbDimension
  2
*D32
 10
34.00800000000002
 20
185.0408125421274
 30
0.0
 11
34.008
 21
199.4939776996351
 31
0.0
 70
   160
  1
A　ネジ径
 71
     5
 42
7.99799999999999
  3
nisimura
100
AcDbAlignedDimension
 13
34.6875
 23
177.0428125421274
 33
0.0
 14
34.6875
 24
185.0408125421274
 34
0.0
 50
90.0
100
AcDbRotatedDimension
1001
ACAD
1000
DSTYLE
1002
{
1070
   140
1040
4.0
1002
}
  0
DIMENSION
  5
30E9
330
1E
100
AcDbEntity
  8
SC
100
AcDbDimension
  2
*D33
 10
295.6290050000001
 20
208.309
 30
0.0
 11
170.8235025
 21
210.934
 31
0.0
 70
    32
  1
C
 71
     5
 42
249.6110050000001
  3
nisimura
100
AcDbAlignedDimension
 13
46.01799999999999
 23
188.3733125421274
 33
0.0
 14
295.6290050000001
 24
183.4412125421275
 34
0.0
100
AcDbRotatedDimension
1001
ACAD
1000
DSTYLE
1002
{
1070
   140
1040
4.0
1002
}
  0
TEXT
  5
3121
330
1E
100
AcDbEntity
  8
NN
370
    25
100
AcDbText
 10
22.05858491705596
 20
213.3135312110948
 30
0.0
 40
6.240000000000001
  1
ネジ型センサー（固定タイプ）
  7
0
 72
     1
 11
72.18658491705598
 21
213.3135312110948
 31
0.0
100
AcDbText
  0
TEXT
  5
3122
330
1E
100
AcDbEntity
  8
NN
370
    25
100
AcDbText
 10
35.98038337772147
 20
134.4581158601837
 30
0.0
 40
6.240000000000001
  1
ネジ型センサー（遊動タイプ）
  7
0
 72
     1
 11
86.10838337772149
 21
134.4581158601837
 31
0.0
100
AcDbText
  0
DIMENSION
  5
313F
330
1E
100
AcDbEntity
  8
SC
100
AcDbDimension
  2
*D35
 10
97.92799999999997
 20
123.144
 30
0.0
 11
88.63893022012293
 21
125.769
 31
0.0
 70
    32
  1
B
 71
     5
 42
18.57813955975408
  3
nisimura
100
AcDbAlignedDimension
 13
79.34986044024589
 23
110.7806650589699
 33
0.0
 14
97.92799999999997
 24
112.7806650589699
 34
0.0
100
AcDbRotatedDimension
1001
ACAD
1000
DSTYLE
1002
{
1070
   140
1040
4.0
1070
    41
1040
4.0
1002
}
  0
LINE
  5
314C
330
1E
100
AcDbEntity
  8
SC
100
AcDbLine
 10
170.6970108902923
 20
106.8856650589699
 30
0.0
 11
170.6970108902923
 21
85.219
 31
0.0
  0
LINE
  5
314D
330
1E
100
AcDbEntity
  8
0
100
AcDbLine
 10
166.24
 20
50.70499999999999
 30
0.0
 11
238.74
 21
50.70499999999999
 31
0.0
  0
LINE
  5
314E
330
1E
100
AcDbEntity
  8
0
100
AcDbLine
 10
238.74
 20
50.70499999999999
 30
0.0
 11
238.74
 21
40.70499999999999
 31
0.0
  0
LINE
  5
314F
330
1E
100
AcDbEntity
  8
0
100
AcDbLine
 10
176.24
 20
50.70499999999999
 30
0.0
 11
176.24
 21
40.70499999999999
 31
0.0
  0
LINE
  5
3150
330
1E
100
AcDbEntity
  8
0
100
AcDbLine
 10
201.24
 20
50.70499999999999
 30
0.0
 11
201.24
 21
40.70499999999999
 31
0.0
  0
TEXT
  5
3151
330
1E
100
AcDbEntity
  8
MO
100
AcDbText
 10
180.581001936613
 20
43.50686474409735
 30
0.0
 40
4.375
  1
タイプ
  7
0
 72
     1
 11
188.1643352699463
 21
43.50686474409735
 31
0.0
100
AcDbText
  0
TEXT
  5
3152
330
1E
100
AcDbEntity
  8
MO
100
AcDbText
 10
206.2713292051396
 20
43.6308398612732
 30
0.0
 40
3.5
  1
固定　・　遊動
  7
0
 72
     1
 11
220.6213292051396
 21
43.6308398612732
 31
0.0
100
AcDbText
  0
DIMENSION
  5
316E
330
1E
100
AcDbEntity
  8
SC
100
AcDbDimension
  2
*D36
 10
126.1319999999999
 20
126.607
 30
0.0
 11
119.4669999999999
 21
129.232
 31
0.0
 70
    32
  1
10
 71
     5
 42
13.33000000000001
  3
nisimura
100
AcDbAlignedDimension
 13
112.8019999999999
 23
113.4466650589699
 33
0.0
 14
126.1319999999999
 24
114.7796650589699
 34
0.0
100
AcDbRotatedDimension
1001
ACAD
1000
DSTYLE
1002
{
1070
   140
1040
4.0
1070
    41
1040
2.5
1002
}
  0
LEADER
  5
31DB
330
1E
100
AcDbEntity
  8
SC
100
AcDbLeader
  3
nisimura
 76
     3
 10
179.3168112349932
 20
178.7290776010974
 30
0.0
 10
185.39125
 20
157.545
 30
0.0
 10
224.1002473480521
 20
157.5432232600206
 30
0.0
1001
ACAD
1000
DSTYLE
1002
{
1070
   147
1040
0.625
1070
    77
1070
     0
1002
}
  0
TEXT
  5
31DC
330
1E
100
AcDbEntity
  8
SC
100
AcDbText
 10
187.6495550943199
 20
158.5560920119765
 30
0.0
 40
4.454540999999999
  1
シールドリード
  7
0
 72
     1
 11
205.7646884943199
 21
158.5560920119765
 31
0.0
100
AcDbText
  0
LINE
  5
3282
330
1E
100
AcDbEntity
  8
0
100
AcDbLine
 10
61.37425000000002
 20
183.5224375421274
 30
0.0
 11
60.19300000000002
 21
178.5611875421274
 31
0.0
  0
ARC
  5
3283
330
1E
100
AcDbEntity
  8
0
100
AcDbCircle
 10
60.783625
 20
178.5611875421274
 30
0.0
 40
0.590625
100
AcDbArc
 50
180.0
 51
0.0
  0
ARC
  5
3284
330
1E
100
AcDbEntity
  8
0
100
AcDbCircle
 10
60.783625
 20
183.5224375421274
 30
0.0
 40
0.590625
100
AcDbArc
 50
0.0
 51
180.0
  0
LINE
  5
3285
330
1E
100
AcDbEntity
  8
0
100
AcDbLine
 10
60.19300000000002
 20
183.5224375421274
 30
0.0
 11
59.01175000000008
 21
178.5611875421274
 31
0.0
  0
ARC
  5
3286
330
1E
100
AcDbEntity
  8
0
100
AcDbCircle
 10
59.60237500000005
 20
178.5611875421274
 30
0.0
 40
0.590625
100
AcDbArc
 50
180.0
 51
0.0
  0
ARC
  5
3287
330
1E
100
AcDbEntity
  8
0
100
AcDbCircle
 10
59.60237500000005
 20
183.5224375421274
 30
0.0
 40
0.590625
100
AcDbArc
 50
0.0
 51
180.0
  0
LINE
  5
3288
330
1E
100
AcDbEntity
  8
0
100
AcDbLine
 10
59.01175000000008
 20
183.5224375421274
 30
0.0
 11
57.83050000000004
 21
178.5611875421274
 31
0.0
  0
ARC
  5
3289
330
1E
100
AcDbEntity
  8
0
100
AcDbCircle
 10
58.42112500000002
 20
178.5611875421274
 30
0.0
 40
0.590625
100
AcDbArc
 50
180.0
 51
0.0
  0
ARC
  5
328A
330
1E
100
AcDbEntity
  8
0
100
AcDbCircle
 10
58.42112500000002
 20
183.5224375421274
 30
0.0
 40
0.590625
100
AcDbArc
 50
0.0
 51
180.0
  0
LINE
  5
328B
330
1E
100
AcDbEntity
  8
0
100
AcDbLine
 10
57.8305
 20
183.5224375421274
 30
0.0
 11
56.64925000000005
 21
178.5611875421274
 31
0.0
  0
ARC
  5
328C
330
1E
100
AcDbEntity
  8
0
100
AcDbCircle
 10
57.23987500000003
 20
178.5611875421274
 30
0.0
 40
0.590625
100
AcDbArc
 50
180.0
 51
0.0
  0
ARC
  5
328D
330
1E
100
AcDbEntity
  8
0
100
AcDbCircle
 10
57.23987500000003
 20
183.5224375421274
 30
0.0
 40
0.590625
100
AcDbArc
 50
0.0
 51
180.0
  0
LINE
  5
328E
330
1E
100
AcDbEntity
  8
0
100
AcDbLine
 10
56.64925000000005
 20
183.5224375421274
 30
0.0
 11
55.4680000000001
 21
178.5611875421274
 31
0.0
  0
ARC
  5
328F
330
1E
100
AcDbEntity
  8
0
100
AcDbCircle
 10
56.05862500000007
 20
178.5611875421274
 30
0.0
 40
0.590625
100
AcDbArc
 50
180.0
 51
0.0
  0
ARC
  5
3290
330
1E
100
AcDbEntity
  8
0
100
AcDbCircle
 10
56.05862500000007
 20
183.5224375421274
 30
0.0
 40
0.590625
100
AcDbArc
 50
0.0
 51
180.0
  0
LINE
  5
3291
330
1E
100
AcDbEntity
  8
0
100
AcDbLine
 10
55.46800000000001
 20
183.5224375421274
 30
0.0
 11
54.28675000000002
 21
178.5611875421274
 31
0.0
  0
ARC
  5
3292
330
1E
100
AcDbEntity
  8
0
100
AcDbCircle
 10
54.877375
 20
178.5611875421274
 30
0.0
 40
0.590625
100
AcDbArc
 50
180.0
 51
0.0
  0
ARC
  5
3293
330
1E
100
AcDbEntity
  8
0
100
AcDbCircle
 10
54.877375
 20
183.5224375421274
 30
0.0
 40
0.590625
100
AcDbArc
 50
0.0
 51
180.0
  0
LINE
  5
3294
330
1E
100
AcDbEntity
  8
0
100
AcDbLine
 10
54.28675000000002
 20
183.5224375421274
 30
0.0
 11
53.10550000000008
 21
178.5611875421274
 31
0.0
  0
ARC
  5
3295
330
1E
100
AcDbEntity
  8
0
100
AcDbCircle
 10
53.69612500000005
 20
178.5611875421274
 30
0.0
 40
0.590625
100
AcDbArc
 50
180.0
 51
0.0
  0
ARC
  5
3296
330
1E
100
AcDbEntity
  8
0
100
AcDbCircle
 10
53.69612500000005
 20
183.5224375421274
 30
0.0
 40
0.590625
100
AcDbArc
 50
0.0
 51
180.0
  0
LINE
  5
3297
330
1E
100
AcDbEntity
  8
0
100
AcDbLine
 10
53.10550000000008
 20
183.5224375421274
 30
0.0
 11
51.92425000000004
 21
178.5611875421274
 31
0.0
  0
ARC
  5
3298
330
1E
100
AcDbEntity
  8
0
100
AcDbCircle
 10
52.51487500000002
 20
178.5611875421274
 30
0.0
 40
0.590625
100
AcDbArc
 50
180.0
 51
0.0
  0
ARC
  5
3299
330
1E
100
AcDbEntity
  8
0
100
AcDbCircle
 10
52.51487500000002
 20
183.5224375421274
 30
0.0
 40
0.590625
100
AcDbArc
 50
0.0
 51
180.0
  0
LINE
  5
329A
330
1E
100
AcDbEntity
  8
0
100
AcDbLine
 10
51.92425
 20
183.5224375421274
 30
0.0
 11
50.74300000000005
 21
178.5611875421274
 31
0.0
  0
ARC
  5
329B
330
1E
100
AcDbEntity
  8
0
100
AcDbCircle
 10
51.33362500000003
 20
178.5611875421274
 30
0.0
 40
0.590625
100
AcDbArc
 50
180.0
 51
0.0
  0
ARC
  5
329C
330
1E
100
AcDbEntity
  8
0
100
AcDbCircle
 10
51.33362500000003
 20
183.5224375421274
 30
0.0
 40
0.590625
100
AcDbArc
 50
0.0
 51
180.0
  0
LINE
  5
329D
330
1E
100
AcDbEntity
  8
0
100
AcDbLine
 10
50.74300000000005
 20
183.5224375421274
 30
0.0
 11
49.5617500000001
 21
178.5611875421274
 31
0.0
  0
ARC
  5
329E
330
1E
100
AcDbEntity
  8
0
100
AcDbCircle
 10
50.15237500000008
 20
178.5611875421274
 30
0.0
 40
0.590625
100
AcDbArc
 50
180.0
 51
0.0
  0
ARC
  5
329F
330
1E
100
AcDbEntity
  8
0
100
AcDbCircle
 10
50.15237500000008
 20
183.5224375421274
 30
0.0
 40
0.590625
100
AcDbArc
 50
0.0
 51
180.0
  0
LINE
  5
32A0
330
1E
100
AcDbEntity
  8
0
100
AcDbLine
 10
49.56175000000001
 20
183.5224375421274
 30
0.0
 11
48.38050000000002
 21
178.5611875421274
 31
0.0
  0
ARC
  5
32A1
330
1E
100
AcDbEntity
  8
0
100
AcDbCircle
 10
48.971125
 20
178.5611875421274
 30
0.0
 40
0.590625
100
AcDbArc
 50
180.0
 51
0.0
  0
ARC
  5
32A2
330
1E
100
AcDbEntity
  8
0
100
AcDbCircle
 10
48.971125
 20
183.5224375421274
 30
0.0
 40
0.590625
100
AcDbArc
 50
0.0
 51
180.0
  0
LINE
  5
32A3
330
1E
100
AcDbEntity
  8
0
100
AcDbLine
 10
48.38050000000002
 20
183.5224375421274
 30
0.0
 11
47.19925000000007
 21
178.5611875421274
 31
0.0
  0
ARC
  5
32A4
330
1E
100
AcDbEntity
  8
0
100
AcDbCircle
 10
47.78987500000005
 20
178.5611875421274
 30
0.0
 40
0.590625
100
AcDbArc
 50
180.0
 51
0.0
  0
ARC
  5
32A5
330
1E
100
AcDbEntity
  8
0
100
AcDbCircle
 10
47.78987500000005
 20
183.5224375421274
 30
0.0
 40
0.590625
100
AcDbArc
 50
0.0
 51
180.0
  0
LINE
  5
32A6
330
1E
100
AcDbEntity
  8
0
100
AcDbLine
 10
47.19925000000007
 20
183.5224375421274
 30
0.0
 11
46.01800000000004
 21
178.5611875421274
 31
0.0
  0
ARC
  5
32A7
330
1E
100
AcDbEntity
  8
0
100
AcDbCircle
 10
46.60862500000002
 20
178.5611875421274
 30
0.0
 40
0.590625
100
AcDbArc
 50
180.0
 51
0.0
  0
ARC
  5
32A8
330
1E
100
AcDbEntity
  8
0
100
AcDbCircle
 10
46.60862500000002
 20
183.5224375421274
 30
0.0
 40
0.590625
100
AcDbArc
 50
0.0
 51
180.0
  0
LINE
  5
32A9
330
1E
100
AcDbEntity
  8
0
100
AcDbLine
 10
46.01799999999999
 20
178.1674375421274
 30
0.0
 11
46.01799999999999
 21
178.5611875421274
 31
0.0
  0
LINE
  5
32AA
330
1E
100
AcDbEntity
  8
0
100
AcDbLine
 10
46.01799999999999
 20
183.9161875421275
 30
0.0
 11
46.01799999999999
 21
183.5224375421274
 31
0.0
  0
LINE
  5
32AB
330
1E
100
AcDbEntity
  8
0
100
AcDbLine
 10
61.37425
 20
178.5611875421274
 30
0.0
 11
61.37425
 21
183.5224375421274
 31
0.0
  0
LINE
  5
32AC
330
1E
100
AcDbEntity
  8
0
100
AcDbLine
 10
46.01799999999999
 20
178.1674375421274
 30
0.0
 11
46.01799999999999
 21
183.9161875421275
 31
0.0
  0
LEADER
  5
32B6
330
1E
100
AcDbEntity
  8
SC
100
AcDbLeader
  3
nisimura
 76
     3
 10
53.69612500000005
 20
177.9705625421274
 30
0.0
 10
62.98125718241539
 20
156.7009337995719
 30
0.0
 10
89.24103414832433
 20
156.7009337995719
 30
0.0
1001
ACAD
1000
DSTYLE
1002
{
1070
   147
1040
0.625
1070
    77
1070
     0
1002
}
  0
TEXT
  5
32B7
330
1E
100
AcDbEntity
  8
SC
100
AcDbText
 10
63.34800000000003
 20
157.445
 30
0.0
 40
4.454540999999999
  1
スプリング
  7
0
 72
     1
 11
76.26616890000002
 21
157.445
 31
0.0
100
AcDbText
  0
TEXT
  5
32C2
330
1E
100
AcDbEntity
  8
SC
100
AcDbText
 10
108.9290543518281
 20
81.04588495460301
 30
0.0
 40
4.454540999999999
  1
固定ストッパー
  7
0
 72
     1
 11
127.0441877518281
 21
81.04588495460301
 31
0.0
100
AcDbText
  0
SOLID
  5
32C3
330
1E
100
AcDbEntity
  8
SC
100
AcDbTrace
 10
98.69171711625172
 20
106.3493270083004
 30
0.0
 11
98.40314918498258
 21
108.8673301179399
 31
0.0
 12
99.49276850687702
 22
106.5790248838276
 32
0.0
 13
99.49276850687702
 23
106.5790248838276
 33
0.0
1001
ACAD
1000
DSTYLE
1002
{
1070
   147
1040
0.625
1070
    77
1070
     0
1002
}
  0
LWPOLYLINE
  5
32C4
330
1E
100
AcDbEntity
  8
SC
100
AcDbPolyline
 90
        3
 70
     0
 43
0.0
 10
99.09224281156443
 20
106.464175946064
 10
106.6707492575082
 20
80.03479294262653
 10
145.3797466055603
 20
80.03301620264714
1001
ACAD
1000
DSTYLE
1002
{
1070
   147
1040
0.625
1070
    77
1070
     0
1002
}
  0
ENDSEC
  0
SECTION
  2
OBJECTS
  0
DICTIONARY
  5
C
330
0
100
AcDbDictionary
281
     1
  3
ACAD_CIP_PREVIOUS_PRODUCT_INFO
350
2022
  3
ACAD_COLOR
350
1793
  3
ACAD_DETAILVIEWSTYLE
350
201F
  3
ACAD_GROUP
350
D
  3
ACAD_LAYOUT
350
19
  3
ACAD_MATERIAL
350
1792
  3
ACAD_MLEADERSTYLE
350
201B
  3
ACAD_MLINESTYLE
350
16
  3
ACAD_PLOTSETTINGS
350
18
  3
ACAD_PLOTSTYLENAME
350
E
  3
ACAD_SCALELIST
350
2009
  3
ACAD_SECTIONVIEWSTYLE
350
201D
  3
ACAD_TABLESTYLE
350
17A5
  3
ACAD_VISUALSTYLE
350
1FF0
  3
ACDB_RECOMPOSE_DATA
350
32E8
  3
AcDbVariableDictionary
350
17B5
  3
AcDsDecomposeData
350
32EF
  3
DWGPROPS
350
32E9
  0
DICTIONARY
  5
2081
330
2
100
AcDbDictionary
280
     1
281
     1
  3
ACAD_LAYERSTATES
360
2082
  0
DICTIONARY
  5
2058
330
10
100
AcDbDictionary
280
     1
281
     1
  3
ADSK_XREC_LAYER_RECONCILED
360
2059
  0
DICTIONARY
  5
205A
330
28
100
AcDbDictionary
280
     1
281
     1
  3
ADSK_XREC_LAYER_RECONCILED
360
205B
  0
DICTIONARY
  5
205C
330
29
100
AcDbDictionary
280
     1
281
     1
  3
ADSK_XREC_LAYER_RECONCILED
360
205D
  0
DICTIONARY
  5
205E
330
2A
100
AcDbDictionary
280
     1
281
     1
  3
ADSK_XREC_LAYER_RECONCILED
360
205F
  0
DICTIONARY
  5
2060
330
2B
100
AcDbDictionary
280
     1
281
     1
  3
ADSK_XREC_LAYER_RECONCILED
360
2061
  0
DICTIONARY
  5
2062
330
2C
100
AcDbDictionary
280
     1
281
     1
  3
ADSK_XREC_LAYER_RECONCILED
360
2063
  0
DICTIONARY
  5
2064
330
2D
100
AcDbDictionary
280
     1
281
     1
  3
ADSK_XREC_LAYER_RECONCILED
360
2065
  0
DICTIONARY
  5
2066
330
1397
100
AcDbDictionary
280
     1
281
     1
  3
ADSK_XREC_LAYER_RECONCILED
360
2067
  0
DICTIONARY
  5
2BBB
330
1E
100
AcDbDictionary
280
     1
281
     1
  3
ACAD_SORTENTS
360
2BBC
  0
XRECORD
  5
2022
102
{ACAD_REACTORS
330
C
102
}
330
C
100
AcDbXrecord
280
     1
300
ACDLT
300
2014
300
ACDLT_F_S
  0
DICTIONARY
  5
1793
102
{ACAD_REACTORS
330
C
102
}
330
C
100
AcDbDictionary
281
     1
  0
DICTIONARY
  5
201F
102
{ACAD_REACTORS
330
C
102
}
330
C
100
AcDbDictionary
281
     1
  3
Imperial24
350
2020
  0
DICTIONARY
  5
D
102
{ACAD_REACTORS
330
C
102
}
330
C
100
AcDbDictionary
281
     1
  0
DICTIONARY
  5
19
102
{ACAD_REACTORS
330
C
102
}
330
C
100
AcDbDictionary
281
     1
  3
Model
350
21
  3
ﾚｲｱｳﾄ1
350
1D
  0
DICTIONARY
  5
1792
102
{ACAD_REACTORS
330
C
102
}
330
C
100
AcDbDictionary
281
     1
  3
ByBlock
350
1FE0
  3
ByLayer
350
1FD8
  3
Global
350
1FE8
  0
DICTIONARY
  5
201B
102
{ACAD_REACTORS
330
C
102
}
330
C
100
AcDbDictionary
281
     1
  3
Standard
350
201C
  0
DICTIONARY
  5
16
102
{ACAD_REACTORS
330
C
102
}
330
C
100
AcDbDictionary
281
     1
  3
Standard
350
17
  0
DICTIONARY
  5
18
102
{ACAD_REACTORS
330
C
102
}
330
C
100
AcDbDictionary
281
     1
  0
ACDBDICTIONARYWDFLT
  5
E
102
{ACAD_REACTORS
330
C
102
}
330
C
100
AcDbDictionary
281
     1
  3
Normal
350
F
100
AcDbDictionaryWithDefault
340
F
  0
DICTIONARY
  5
2009
102
{ACAD_REACTORS
330
C
102
}
330
C
100
AcDbDictionary
281
     1
  3
A0
350
200A
  3
A1
350
200B
  3
A2
350
200C
  3
A3
350
200D
  3
A4
350
200E
  3
A5
350
200F
  3
A6
350
2010
  3
A7
350
2011
  3
A8
350
2012
  3
A9
350
2013
  3
B0
350
2014
  3
B1
350
2015
  3
B2
350
2016
  3
B3
350
2017
  3
B4
350
2018
  3
B5
350
2019
  3
B6
350
201A
  0
DICTIONARY
  5
201D
102
{ACAD_REACTORS
330
C
102
}
330
C
100
AcDbDictionary
281
     1
  3
Imperial24
350
201E
  0
DICTIONARY
  5
17A5
102
{ACAD_REACTORS
330
C
102
}
330
C
100
AcDbDictionary
281
     1
  3
Standard
350
17A6
  0
DICTIONARY
  5
1FF0
102
{ACAD_REACTORS
330
C
102
}
330
C
100
AcDbDictionary
281
     1
  3
2dWireframe
350
1FF6
  3
Basic
350
1FF5
  3
Brighten
350
1FFC
  3
ColorChange
350
2000
  3
Conceptual
350
1FF9
  3
Dim
350
1FFB
  3
EdgeColorOff
350
2008
  3
Facepattern
350
1FFF
  3
Flat
350
1FF1
  3
FlatWithEdges
350
1FF2
  3
Gouraud
350
1FF3
  3
GouraudWithEdges
350
1FF4
  3
Hidden
350
1FF8
  3
JitterOff
350
2006
  3
Linepattern
350
1FFE
  3
OverhangOff
350
2007
  3
Realistic
350
1FFA
  3
Shaded
350
2005
  3
Shaded with edges
350
2004
  3
Shades of Gray
350
2001
  3
Sketchy
350
2002
  3
Thicken
350
1FFD
  3
Wireframe
350
1FF7
  3
X-Ray
350
2003
  0
XRECORD
  5
32E8
102
{ACAD_REACTORS
330
C
102
}
330
C
100
AcDbXrecord
280
     1
 90
        1
330
17A6
  0
DICTIONARY
  5
17B5
102
{ACAD_REACTORS
330
C
102
}
330
C
100
AcDbDictionary
281
     1
  3
CANNOSCALE
350
2090
  3
CMLEADERSTYLE
350
208C
  3
CTABLESTYLE
350
17B6
  3
CVIEWDETAILSTYLE
350
208D
  3
CVIEWSECTIONSTYLE
350
208E
  3
DIMASSOC
350
1C49
  3
INDEXCTL
350
32E4
  3
LAYEREVAL
350
2092
  3
LAYERNOTIFY
350
2093
  3
LIGHTINGUNITS
350
2091
  3
MSLTSCALE
350
208F
  3
PROJECTNAME
350
1C4A
  3
SORTENTS
350
32E3
  3
XCLIPFRAME
350
32E5
  0
DICTIONARY
  5
32EF
102
{ACAD_REACTORS
330
C
102
}
330
C
100
AcDbDictionary
281
     1
  3
AcDsRecords
350
32F1
  3
AcDsSchemas
350
32F0
1001
ACAD
1070
     2
  0
XRECORD
  5
32E9
102
{ACAD_REACTORS
330
C
102
}
330
C
100
AcDbXrecord
280
     1
  1
DWGPROPS COOKIE
  2

  3

  4

  6

  7

  8
user
  9

300
=
301
=
302
=
303
=
304
=
305
=
306
=
307
=
308
=
309
=
 40
2.007305833333333
 41
2450808.702418171
 42
2458726.645794444
  1

 90
        0
  0
DICTIONARY
  5
2082
102
{ACAD_REACTORS
330
2081
102
}
330
2081
100
AcDbDictionary
281
     1
  0
XRECORD
  5
2059
102
{ACAD_REACTORS
330
2058
102
}
330
2058
100
AcDbXrecord
280
     1
290
     1
  0
XRECORD
  5
205B
102
{ACAD_REACTORS
330
205A
102
}
330
205A
100
AcDbXrecord
280
     1
290
     1
  0
XRECORD
  5
205D
102
{ACAD_REACTORS
330
205C
102
}
330
205C
100
AcDbXrecord
280
     1
290
     1
  0
XRECORD
  5
205F
102
{ACAD_REACTORS
330
205E
102
}
330
205E
100
AcDbXrecord
280
     1
290
     1
  0
XRECORD
  5
2061
102
{ACAD_REACTORS
330
2060
102
}
330
2060
100
AcDbXrecord
280
     1
290
     1
  0
XRECORD
  5
2063
102
{ACAD_REACTORS
330
2062
102
}
330
2062
100
AcDbXrecord
280
     1
290
     1
  0
XRECORD
  5
2065
102
{ACAD_REACTORS
330
2064
102
}
330
2064
100
AcDbXrecord
280
     1
290
     1
  0
XRECORD
  5
2067
102
{ACAD_REACTORS
330
2066
102
}
330
2066
100
AcDbXrecord
280
     1
290
     1
  0
SORTENTSTABLE
  5
2BBC
102
{ACAD_REACTORS
330
2BBB
102
}
330
2BBB
100
AcDbSortentsTable
330
1E
331
2E6C
  5
2E6C
331
2FD6
  5
2FE2
331
2EA7
  5
2EB3
331
18AA
  5
18AA
331
2FD2
  5
2FDE
331
2EA3
  5
2EAF
331
300D
  5
3019
331
2FCE
  5
2FDA
331
3009
  5
3015
331
2FCA
  5
2FD6
331
3040
  5
30A2
331
32A5
  5
32A5
331
61
  5
61
331
32A1
  5
32A1
331
139C
  5
139C
331
329D
  5
329D
331
3299
  5
3299
331
30B4
  5
316E
331
30B0
  5
3033
331
30AC
  5
314F
331
3122
  5
31DD
331
30A8
  5
314C
331
2E9F
  5
2EAB
331
18A2
  5
18A2
331
2E9B
  5
2EA7
331
3005
  5
3011
331
2E97
  5
2EA3
331
2FC6
  5
2FD2
331
1892
  5
1892
331
3001
  5
300D
331
2E93
  5
2E9F
331
303C
  5
309E
331
2FC2
  5
2FCE
331
2DDA
  5
2DD5
331
2FFD
  5
3009
331
3038
  5
309A
331
2FBE
  5
2FCA
331
2FF9
  5
3005
331
3034
  5
3096
331
2FBA
  5
2FC6
331
3295
  5
3295
331
31DC
  5
31EB
331
3291
  5
3291
331
328D
  5
328D
331
3289
  5
3289
331
30A4
  5
30E9
331
30A0
  5
30B1
331
309C
  5
30AD
331
3151
  5
31E7
331
3098
  5
30A8
331
2EBF
  5
2FAE
331
2EBB
  5
2FAA
331
1758
  5
1758
331
2E8F
  5
2E9B
331
188A
  5
188A
331
2E8B
  5
2E97
331
18ED
  5
18ED
331
2FF5
  5
3001
331
2E87
  5
2E93
331
2FB6
  5
2FC2
331
1EB7
  5
1EB7
331
2FF1
  5
2FFD
331
302C
  5
303D
331
2FB2
  5
2FBE
331
2FED
  5
2FF9
331
2FAE
  5
2FBA
331
3028
  5
3039
331
1E9F
  5
1E9F
331
2FE9
  5
2FF5
331
3024
  5
3035
331
2FAA
  5
2FB6
331
3020
  5
302E
331
AC
  5
AC
331
32C4
  5
32C3
331
3285
  5
3285
331
314D
  5
31E0
331
3094
  5
30A4
331
2EB7
  5
2FA6
331
2EB3
  5
2EBF
331
1807
  5
1807
331
2EAF
  5
2EBB
331
2EAB
  5
2EB7
331
2E7F
  5
2E8B
331
2E7B
  5
2E87
331
18BD
  5
18BD
331
2FE5
  5
2FF1
331
2FA6
  5
2FB2
331
13A0
  5
13A0
331
301C
  5
302A
331
2FE1
  5
2FED
331
2E73
  5
2E73
331
3018
  5
3025
331
2FDD
  5
2FE9
331
2FD9
  5
2FE5
331
3014
  5
3020
331
1924
  5
1924
331
3010
  5
301C
331
32AC
  5
32AC
331
32A8
  5
32A8
331
2E6F
  5
2E6F
331
2E6B
  5
2E6B
331
2FD5
  5
2FE1
331
2EA6
  5
2EB2
331
18A9
  5
18A9
331
1918
  5
1918
331
2FD1
  5
2FDD
331
2EA2
  5
2EAE
331
300C
  5
3018
331
2FCD
  5
2FD9
331
3008
  5
3014
331
2FC9
  5
2FD5
331
32A4
  5
32A4
331
139F
  5
139F
331
32A0
  5
32A0
331
329C
  5
329C
331
3298
  5
3298
331
30AF
  5
3152
331
3121
  5
31DC
331
1822
  5
1822
331
2E9E
  5
2EAA
331
178F
  5
178F
331
2E9A
  5
2EA6
331
181A
  5
181A
331
3004
  5
3010
331
2E96
  5
2EA2
331
303F
  5
30A1
331
2FC5
  5
2FD1
331
3000
  5
300C
331
2E92
  5
2E9E
331
303B
  5
309D
331
2FC1
  5
2FCD
331
2DD9
  5
2DDA
331
2FFC
  5
3008
331
3037
  5
3099
331
2FBD
  5
2FC9
331
2FF8
  5
3004
331
3033
  5
3095
331
2FB9
  5
2FC5
331
3294
  5
3294
331
31DB
  5
31EA
331
3290
  5
3290
331
328C
  5
328C
331
3288
  5
3288
331
30A7
  5
313F
331
30A3
  5
30B4
331
309F
  5
30B0
331
309B
  5
30AC
331
2EC6
  5
2FB1
331
3150
  5
31E3
331
2EBE
  5
2FAD
331
2EBA
  5
2FA9
331
2E8E
  5
2E9A
331
1889
  5
1889
331
18F0
  5
18F0
331
2E8A
  5
2E96
331
2FF4
  5
3000
331
2E86
  5
2E92
331
2FB5
  5
2FC1
331
302F
  5
3040
331
1EB6
  5
1EB6
331
2FF0
  5
2FFC
331
2E82
  5
2E8E
331
302B
  5
303C
331
2FB1
  5
2FBD
331
2FEC
  5
2FF8
331
3027
  5
3038
331
2FAD
  5
2FB9
331
2FE8
  5
2FF4
331
2FA9
  5
2FB5
331
3023
  5
3032
331
1943
  5
1943
331
32C3
  5
32C2
331
3284
  5
3284
331
3097
  5
30A7
331
314C
  5
31DF
331
2EB6
  5
2EC6
331
2EB2
  5
2EBE
331
1806
  5
1806
331
2EAE
  5
2EBA
331
18CC
  5
18CC
331
1875
  5
1875
331
2EAA
  5
2EB6
331
17DE
  5
17DE
331
2E7E
  5
2E8A
331
1871
  5
1871
331
2E7A
  5
2E86
331
1845
  5
1845
331
301F
  5
302D
331
2FE4
  5
2FF0
331
301B
  5
3029
331
2FE0
  5
2FEC
331
2E72
  5
2E72
331
2FDC
  5
2FE8
331
3017
  5
3023
331
1927
  5
1927
331
2FD8
  5
2FE4
331
3013
  5
301F
331
1923
  5
1923
331
32B7
  5
32B7
331
8B
  5
8B
331
32AB
  5
32AB
331
18B4
  5
18B4
331
2E6E
  5
2E6E
331
1829
  5
1829
331
2FD4
  5
2FE0
331
2EA5
  5
2EB1
331
300F
  5
301B
331
2EA1
  5
2EAD
331
2FD0
  5
2FDC
331
300B
  5
3017
331
2FCC
  5
2FD8
331
2FC8
  5
2FD4
331
32A7
  5
32A7
331
63
  5
63
331
32A3
  5
32A3
331
329F
  5
329F
331
329B
  5
329B
331
30AE
  5
3151
331
30E9
  5
31DB
331
30AA
  5
314E
331
190B
  5
190B
331
2E9D
  5
2EA9
331
18FF
  5
18FF
331
3007
  5
3013
331
2E99
  5
2EA5
331
3003
  5
300F
331
2E95
  5
2EA1
331
303E
  5
30A0
331
2FC4
  5
2FD0
331
2DDC
  5
2DDC
331
2FFF
  5
300B
331
2E91
  5
2E9D
331
303A
  5
309C
331
2FC0
  5
2FCC
331
2DD8
  5
2DD8
331
2FFB
  5
3007
331
3036
  5
3098
331
2FBC
  5
2FC8
331
2FB8
  5
2FC4
331
3032
  5
3094
331
19C2
  5
19C2
331
3297
  5
3297
331
3293
  5
3293
331
328F
  5
328F
331
328B
  5
328B
331
30A6
  5
3122
331
30A2
  5
30B3
331
309E
  5
30AF
331
309A
  5
30AA
331
2EC5
  5
2FB0
331
18F7
  5
18F7
331
2EBD
  5
2FAC
331
2EB9
  5
2FA8
331
2E8D
  5
2E99
331
1888
  5
1888
331
18EF
  5
18EF
331
1492
  5
1492
331
2FF7
  5
3003
331
2E89
  5
2E95
331
1884
  5
1884
331
18EB
  5
18EB
331
2FF3
  5
2FFF
331
2E85
  5
2E91
331
2FB4
  5
2FC0
331
302E
  5
303F
331
195E
  5
195E
331
1EB5
  5
1EB5
331
2FEF
  5
2FFB
331
302A
  5
303B
331
2FB0
  5
2FBC
331
2FEB
  5
2FF7
331
3026
  5
3037
331
2FAC
  5
2FB8
331
3022
  5
3030
331
2FA8
  5
2FB4
331
3287
  5
3287
331
32C2
  5
32C4
331
3283
  5
3283
331
314F
  5
31E2
331
3096
  5
30A6
331
2EB5
  5
2EC5
331
2EB1
  5
2EBD
331
148E
  5
148E
331
2EAD
  5
2EB9
331
1874
  5
1874
331
2EA9
  5
2EB5
331
2E7D
  5
2E89
331
1870
  5
1870
331
2FE7
  5
2FF3
331
2E79
  5
2E85
331
1844
  5
1844
331
2FE3
  5
2FEF
331
301E
  5
302C
331
192E
  5
192E
331
301A
  5
3028
331
2FDF
  5
2FEB
331
2E71
  5
2E71
331
2FDB
  5
2FE7
331
3016
  5
3022
331
1926
  5
1926
331
3012
  5
301E
331
32B6
  5
32B6
331
6E
  5
6E
331
32AA
  5
32AA
331
313F
  5
31DE
331
2E6D
  5
2E6D
331
2FD7
  5
2FE3
331
18AB
  5
18AB
331
2FD3
  5
2FDF
331
2EA4
  5
2EB0
331
300E
  5
301A
331
2EA0
  5
2EAC
331
2FCF
  5
2FDB
331
300A
  5
3016
331
2FCB
  5
2FD7
331
3041
  5
30A3
331
32A6
  5
32A6
331
62
  5
62
331
32A2
  5
32A2
331
329E
  5
329E
331
1399
  5
1399
331
329A
  5
329A
331
316E
  5
31E9
331
30B1
  5
3031
331
30AD
  5
3150
331
30A9
  5
314D
331
2E9C
  5
2EA8
331
3006
  5
3012
331
2E98
  5
2EA4
331
2FC7
  5
2FD3
331
1893
  5
1893
331
3002
  5
300E
331
2E94
  5
2EA0
331
303D
  5
309F
331
2FC3
  5
2FCF
331
2DDB
  5
2DDB
331
2FFE
  5
300A
331
2E90
  5
2E9C
331
3039
  5
309B
331
2FBF
  5
2FCB
331
2FFA
  5
3006
331
3035
  5
3097
331
2FBB
  5
2FC7
331
3031
  5
3041
331
3296
  5
3296
331
3292
  5
3292
331
328E
  5
328E
331
328A
  5
328A
331
30A5
  5
3121
331
30A1
  5
30B2
331
309D
  5
30AE
331
3152
  5
31E8
331
3099
  5
30A9
331
2EC4
  5
2FAF
331
1814
  5
1814
331
2EBC
  5
2FAB
331
2EB8
  5
2FA7
331
18EE
  5
18EE
331
2E8C
  5
2E98
331
2DD3
  5
2DD3
331
2FF6
  5
3002
331
2E88
  5
2E94
331
2FB7
  5
2FC3
331
1491
  5
1491
331
1808
  5
1808
331
2FF2
  5
2FFE
331
2E84
  5
2E90
331
302D
  5
303E
331
2FB3
  5
2FBF
331
2FEE
  5
2FFA
331
2E80
  5
2E8C
331
3029
  5
303A
331
2FAF
  5
2FBB
331
2FEA
  5
2FF6
331
3025
  5
3036
331
2FAB
  5
2FB7
331
3021
  5
302F
331
3286
  5
3286
331
3282
  5
3282
331
91
  5
91
331
314E
  5
31E1
331
3095
  5
30A5
331
2EB4
  5
2EC4
331
2EB0
  5
2EBC
331
2EAC
  5
2EB8
331
1873
  5
1873
331
2DC7
  5
2DC7
331
2EA8
  5
2EB4
331
17DC
  5
17DC
331
2E7C
  5
2E88
331
1847
  5
1847
331
2FE6
  5
2FF2
331
2E78
  5
2E84
331
2FA7
  5
2FB3
331
2FE2
  5
2FEE
331
2E74
  5
2E74
331
301D
  5
302B
331
1D1C
  5
1D1C
331
3019
  5
3026
331
2FDE
  5
2FEA
331
2E70
  5
2E70
331
2FDA
  5
2FE6
331
3015
  5
3021
331
1925
  5
1925
331
3011
  5
301D
331
8D
  5
8D
331
89
  5
89
331
32A9
  5
32A9
  0
ACDBDETAILVIEWSTYLE
  5
2020
102
{ACAD_XDICTIONARY
360
2089
102
}
102
{ACAD_REACTORS
330
201F
102
}
330
201F
100
AcDbModelDocViewStyle
 70
     0
  3
Imperial24
290
     0
100
AcDbDetailViewStyle
 70
     0
 71
     0
 90
        3
 71
     1
340
11
 40
0.24
340
0
 40
0.24
300

 40
0.36
280
     3
 71
     2
340
15
 90
       25
 71
     3
340
11
 40
0.24
 90
        1
 40
0.75
 90
        1
300
%<\AcVar ViewType \f "%tc1">% %<\AcVar ViewDetailId>%\PSCALE %<\AcVar ViewScale \f "%sn">%
 71
     4
340
15
 90
       25
340
15
 90
       25
280
     0
  0
LAYOUT
  5
21
102
{ACAD_XDICTIONARY
360
32F4
102
}
102
{ACAD_REACTORS
330
19
102
}
330
19
100
AcDbPlotSettings
  1

  2
PrimoPDF
  4
A4
  6
HYOU
 40
3.174999952316283
 41
3.174999952316283
 42
3.175003051757812
 43
3.17498779296875
 44
210.0156707763672
 45
297.0106506347656
 46
-1.0
 47
10.0
 48
0.0
 49
0.0
140
0.0
141
0.0
142
1.0
143
1.458272291292898
 70
 11952
 72
     1
 73
     1
 74
     2
  7
monochrome.ctb
 75
     0
147
0.6857429891323
148
0.0
149
0.0
100
AcDbLayout
  1
Model
 70
     1
 71
     0
 10
0.0
 20
0.0
 11
12.0
 21
9.0
 12
0.0
 22
0.0
 32
0.0
 14
0.0
 24
0.0
 34
0.0
 15
0.0
 25
0.0
 35
0.0
146
0.0
 13
0.0
 23
0.0
 33
0.0
 16
1.0
 26
0.0
 36
0.0
 17
0.0
 27
1.0
 37
0.0
 76
     0
330
1E
331
1FCB
1001
ACAD_PSEXT
1000
FX DocuPrint 205
1000
FX DocuPrint 205
1000
USB001
1000

1070
     0
  0
LAYOUT
  5
1D
102
{ACAD_XDICTIONARY
360
32F2
102
}
102
{ACAD_REACTORS
330
19
102
}
330
19
100
AcDbPlotSettings
  1

  2
EPSON LP-1500S
  4

  6

 40
0.0
 41
0.0
 42
0.0
 43
0.0
 44
0.0
 45
0.0
 46
0.0
 47
0.0
 48
0.0
 49
0.0
140
0.0
141
0.0
142
1.0
143
1.0
 70
   688
 72
     0
 73
     0
 74
     5
  7
monochrome.ctb
 75
    16
147
1.0
148
0.0
149
0.0
100
AcDbLayout
  1
ﾚｲｱｳﾄ1
 70
     0
 71
     1
 10
0.0
 20
0.0
 11
12.0
 21
9.0
 12
0.0
 22
0.0
 32
0.0
 14
1.000000000000000E+20
 24
1.000000000000000E+20
 34
1.000000000000000E+20
 15
-1.000000000000000E+20
 25
-1.000000000000000E+20
 35
-1.000000000000000E+20
146
0.0
 13
0.0
 23
0.0
 33
0.0
 16
1.0
 26
0.0
 36
0.0
 17
0.0
 27
1.0
 37
0.0
 76
     0
330
1A
  0
MATERIAL
  5
1FE0
102
{ACAD_XDICTIONARY
360
1FE1
102
}
102
{ACAD_REACTORS
330
1792
102
}
330
1792
100
AcDbMaterial
  1
ByBlock
 72
     0
 43
0.0208333333333333
 43
0.0
 43
0.0
 43
0.0
 43
0.0
 43
0.0208333333333333
 43
0.0
 43
0.0
 43
0.0
 43
0.0
 43
1.0
 43
0.0
 43
0.0
 43
0.0
 43
0.0
 43
1.0
 77
     0
 47
0.0208333333333333
 47
0.0
 47
0.0
 47
0.0
 47
0.0
 47
0.0208333333333333
 47
0.0
 47
0.0
 47
0.0
 47
0.0
 47
1.0
 47
0.0
 47
0.0
 47
0.0
 47
0.0
 47
1.0
171
     0
 49
0.0208333333333333
 49
0.0
 49
0.0
 49
0.0
 49
0.0
 49
0.0208333333333333
 49
0.0
 49
0.0
 49
0.0
 49
0.0
 49
1.0
 49
0.0
 49
0.0
 49
0.0
 49
0.0
 49
1.0
175
     0
142
0.0208333333333333
142
0.0
142
0.0
142
0.0
142
0.0
142
0.0208333333333333
142
0.0
142
0.0
142
0.0
142
0.0
142
1.0
142
0.0
142
0.0
142
0.0
142
0.0
142
1.0
179
     0
144
0.0208333333333333
144
0.0
144
0.0
144
0.0
144
0.0
144
0.0208333333333333
144
0.0
144
0.0
144
0.0
144
0.0
144
1.0
144
0.0
144
0.0
144
0.0
144
0.0
144
1.0
147
0.0208333333333333
147
0.0
147
0.0
147
0.0
147
0.0
147
0.0208333333333333
147
0.0
147
0.0
147
0.0
147
0.0
147
1.0
147
0.0
147
0.0
147
0.0
147
0.0
147
1.0
  0
MATERIAL
  5
1FD8
102
{ACAD_XDICTIONARY
360
1FD9
102
}
102
{ACAD_REACTORS
330
1792
102
}
330
1792
100
AcDbMaterial
  1
ByLayer
 72
     0
 43
0.0208333333333333
 43
0.0
 43
0.0
 43
0.0
 43
0.0
 43
0.0208333333333333
 43
0.0
 43
0.0
 43
0.0
 43
0.0
 43
1.0
 43
0.0
 43
0.0
 43
0.0
 43
0.0
 43
1.0
 77
     0
 47
0.0208333333333333
 47
0.0
 47
0.0
 47
0.0
 47
0.0
 47
0.0208333333333333
 47
0.0
 47
0.0
 47
0.0
 47
0.0
 47
1.0
 47
0.0
 47
0.0
 47
0.0
 47
0.0
 47
1.0
171
     0
 49
0.0208333333333333
 49
0.0
 49
0.0
 49
0.0
 49
0.0
 49
0.0208333333333333
 49
0.0
 49
0.0
 49
0.0
 49
0.0
 49
1.0
 49
0.0
 49
0.0
 49
0.0
 49
0.0
 49
1.0
175
     0
142
0.0208333333333333
142
0.0
142
0.0
142
0.0
142
0.0
142
0.0208333333333333
142
0.0
142
0.0
142
0.0
142
0.0
142
1.0
142
0.0
142
0.0
142
0.0
142
0.0
142
1.0
179
     0
144
0.0208333333333333
144
0.0
144
0.0
144
0.0
144
0.0
144
0.0208333333333333
144
0.0
144
0.0
144
0.0
144
0.0
144
1.0
144
0.0
144
0.0
144
0.0
144
0.0
144
1.0
147
0.0208333333333333
147
0.0
147
0.0
147
0.0
147
0.0
147
0.0208333333333333
147
0.0
147
0.0
147
0.0
147
0.0
147
1.0
147
0.0
147
0.0
147
0.0
147
0.0
147
1.0
  0
MATERIAL
  5
1FE8
102
{ACAD_XDICTIONARY
360
1FE9
102
}
102
{ACAD_REACTORS
330
1792
102
}
330
1792
100
AcDbMaterial
  1
Global
 72
     0
 43
0.0208333333333333
 43
0.0
 43
0.0
 43
0.0
 43
0.0
 43
0.0208333333333333
 43
0.0
 43
0.0
 43
0.0
 43
0.0
 43
1.0
 43
0.0
 43
0.0
 43
0.0
 43
0.0
 43
1.0
 77
     0
 47
0.0208333333333333
 47
0.0
 47
0.0
 47
0.0
 47
0.0
 47
0.0208333333333333
 47
0.0
 47
0.0
 47
0.0
 47
0.0
 47
1.0
 47
0.0
 47
0.0
 47
0.0
 47
0.0
 47
1.0
171
     0
 49
0.0208333333333333
 49
0.0
 49
0.0
 49
0.0
 49
0.0
 49
0.0208333333333333
 49
0.0
 49
0.0
 49
0.0
 49
0.0
 49
1.0
 49
0.0
 49
0.0
 49
0.0
 49
0.0
 49
1.0
175
     0
142
0.0208333333333333
142
0.0
142
0.0
142
0.0
142
0.0
142
0.0208333333333333
142
0.0
142
0.0
142
0.0
142
0.0
142
1.0
142
0.0
142
0.0
142
0.0
142
0.0
142
1.0
179
     0
144
0.0208333333333333
144
0.0
144
0.0
144
0.0
144
0.0
144
0.0208333333333333
144
0.0
144
0.0
144
0.0
144
0.0
144
1.0
144
0.0
144
0.0
144
0.0
144
0.0
144
1.0
147
0.0208333333333333
147
0.0
147
0.0
147
0.0
147
0.0
147
0.0208333333333333
147
0.0
147
0.0
147
0.0
147
0.0
147
1.0
147
0.0
147
0.0
147
0.0
147
0.0
147
1.0
  0
MLEADERSTYLE
  5
201C
102
{ACAD_REACTORS
330
201B
102
}
330
201B
100
AcDbMLeaderStyle
170
     2
171
     1
172
     0
 90
        2
 40
0.0
 41
0.0
173
     1
 91
-1056964608
340
13
 92
       -2
290
     1
 42
0.09
291
     1
 43
0.36
  3
Standard
 44
0.18
300

342
11
174
     1
178
     6
175
     1
176
     0
 93
-1056964608
 45
0.18
292
     0
297
     0
 46
0.18
 94
-1056964608
 47
1.0
 49
1.0
140
1.0
293
     1
141
0.0
294
     1
177
     0
142
1.0
295
     0
296
     0
143
0.125
1001
ACAD_MLEADERVER
1070
     2
  0
MLINESTYLE
  5
17
102
{ACAD_REACTORS
330
16
102
}
330
16
100
AcDbMlineStyle
  2
STANDARD
 70
     0
  3

 62
   256
 51
90.0
 52
90.0
 71
     2
 49
0.5
 62
   256
  6
BYLAYER
 49
-0.5
 62
   256
  6
BYLAYER
  0
ACDBPLACEHOLDER
  5
F
102
{ACAD_REACTORS
330
E
102
}
330
E
  0
SCALE
  5
200A
102
{ACAD_REACTORS
330
2009
102
}
330
2009
100
AcDbScale
 70
     0
300
1:1
140
1.0
141
1.0
290
     1
  0
SCALE
  5
200B
102
{ACAD_REACTORS
330
2009
102
}
330
2009
100
AcDbScale
 70
     0
300
1/128" = 1'-0"
140
0.0078125
141
12.0
290
     0
  0
SCALE
  5
200C
102
{ACAD_REACTORS
330
2009
102
}
330
2009
100
AcDbScale
 70
     0
300
1/64" = 1'-0"
140
0.015625
141
12.0
290
     0
  0
SCALE
  5
200D
102
{ACAD_REACTORS
330
2009
102
}
330
2009
100
AcDbScale
 70
     0
300
1/32" = 1'-0"
140
0.03125
141
12.0
290
     0
  0
SCALE
  5
200E
102
{ACAD_REACTORS
330
2009
102
}
330
2009
100
AcDbScale
 70
     0
300
1/16" = 1'-0"
140
0.0625
141
12.0
290
     0
  0
SCALE
  5
200F
102
{ACAD_REACTORS
330
2009
102
}
330
2009
100
AcDbScale
 70
     0
300
3/32" = 1'-0"
140
0.09375
141
12.0
290
     0
  0
SCALE
  5
2010
102
{ACAD_REACTORS
330
2009
102
}
330
2009
100
AcDbScale
 70
     0
300
1/8" = 1'-0"
140
0.125
141
12.0
290
     0
  0
SCALE
  5
2011
102
{ACAD_REACTORS
330
2009
102
}
330
2009
100
AcDbScale
 70
     0
300
3/16" = 1'-0"
140
0.1875
141
12.0
290
     0
  0
SCALE
  5
2012
102
{ACAD_REACTORS
330
2009
102
}
330
2009
100
AcDbScale
 70
     0
300
1/4" = 1'-0"
140
0.25
141
12.0
290
     0
  0
SCALE
  5
2013
102
{ACAD_REACTORS
330
2009
102
}
330
2009
100
AcDbScale
 70
     0
300
3/8" = 1'-0"
140
0.375
141
12.0
290
     0
  0
SCALE
  5
2014
102
{ACAD_REACTORS
330
2009
102
}
330
2009
100
AcDbScale
 70
     0
300
1/2" = 1'-0"
140
0.5
141
12.0
290
     0
  0
SCALE
  5
2015
102
{ACAD_REACTORS
330
2009
102
}
330
2009
100
AcDbScale
 70
     0
300
3/4" = 1'-0"
140
0.75
141
12.0
290
     0
  0
SCALE
  5
2016
102
{ACAD_REACTORS
330
2009
102
}
330
2009
100
AcDbScale
 70
     0
300
1" = 1'-0"
140
1.0
141
12.0
290
     0
  0
SCALE
  5
2017
102
{ACAD_REACTORS
330
2009
102
}
330
2009
100
AcDbScale
 70
     0
300
1-1/2" = 1'-0"
140
1.5
141
12.0
290
     0
  0
SCALE
  5
2018
102
{ACAD_REACTORS
330
2009
102
}
330
2009
100
AcDbScale
 70
     0
300
3" = 1'-0"
140
3.0
141
12.0
290
     0
  0
SCALE
  5
2019
102
{ACAD_REACTORS
330
2009
102
}
330
2009
100
AcDbScale
 70
     0
300
6" = 1'-0"
140
6.0
141
12.0
290
     0
  0
SCALE
  5
201A
102
{ACAD_REACTORS
330
2009
102
}
330
2009
100
AcDbScale
 70
     0
300
1'-0" = 1'-0"
140
12.0
141
12.0
290
     0
  0
ACDBSECTIONVIEWSTYLE
  5
201E
102
{ACAD_XDICTIONARY
360
2087
102
}
102
{ACAD_REACTORS
330
201D
102
}
330
201D
100
AcDbModelDocViewStyle
 70
     0
  3
Imperial24
290
     0
100
AcDbSectionViewStyle
 70
     0
 71
     0
 90
       78
 71
     1
340
11
 40
0.24
340
0
340
0
 40
0.24
300
I, O, Q, S, X, Z
 40
0.48
 90
        3
 40
0.18
 90
        1
 71
     2
340
15
 90
       25
340
15
 90
       50
 40
0.24
 40
0.0
 40
0.24
 71
     3
340
11
 40
0.24
 90
        1
 40
0.75
 90
        1
300
%<\AcVar ViewType \f "%tc1">% %<\AcVar ViewSectionStartId>%-%<\AcVar ViewSectionEndId>%\PSCALE %<\AcVar ViewScale \f "%sn">%
 71
     4
300
ANSI31
 40
1.0
 90
        0
290
     0
290
     0
 90
        6
 40
0.0
 40
1.570796326794896
 40
0.2617993877991494
 40
1.308996938995747
 40
-0.2617993877991494
 40
1.832595714594046
  0
TABLESTYLE
  5
17A6
102
{ACAD_XDICTIONARY
360
32E6
102
}
102
{ACAD_REACTORS
330
17A5
102
}
330
17A5
100
AcDbTableStyle
  3
Standard
 70
     0
 71
     0
 40
0.06
 41
0.06
280
     0
281
     0
  7
STANDARD
140
0.18
170
     2
 62
     0
 63
     7
283
     0
274
    -2
284
     1
 64
     0
275
    -2
285
     1
 65
     0
276
    -2
286
     1
 66
     0
277
    -2
287
     1
 67
     0
278
    -2
288
     1
 68
     0
279
    -2
289
     1
 69
     0
  7
STANDARD
140
0.25
170
     5
 62
     0
 63
     7
283
     0
274
    -2
284
     1
 64
     0
275
    -2
285
     1
 65
     0
276
    -2
286
     1
 66
     0
277
    -2
287
     1
 67
     0
278
    -2
288
     1
 68
     0
279
    -2
289
     1
 69
     0
  7
STANDARD
140
0.18
170
     5
 62
     0
 63
     7
283
     0
274
    -2
284
     1
 64
     0
275
    -2
285
     1
 65
     0
276
    -2
286
     1
 66
     0
277
    -2
287
     1
 67
     0
278
    -2
288
     1
 68
     0
279
    -2
289
     1
 69
     0
1001
ACAD
1000
AcRTDxfName
1000
TABLESTYLE
  0
VISUALSTYLE
  5
1FF6
102
{ACAD_XDICTIONARY
360
3304
102
}
102
{ACAD_REACTORS
330
1FF0
102
}
330
1FF0
100
AcDbVisualStyle
  2
2dWireframe
 70
     4
 71
     0
 72
     2
 73
     0
 90
        0
 40
-0.6
 41
-30.0
 62
     5
 63
     7
 74
     1
 91
        4
 64
     7
 65
   257
 75
     1
175
     1
 42
1.0
 92
        0
 66
   257
 43
1.0
 76
     1
 77
     6
 78
     2
 67
     7
 79
     5
170
     0
171
     0
290
     0
174
     0
 93
        1
 44
0.0
173
     0
291
     0
 45
0.0
1001
ACAD
1000
AcDbSavedByObjectVersion
1070
     0
  0
VISUALSTYLE
  5
1FF5
102
{ACAD_XDICTIONARY
360
3302
102
}
102
{ACAD_REACTORS
330
1FF0
102
}
330
1FF0
100
AcDbVisualStyle
  2
Basic
 70
     7
 71
     1
 72
     0
 73
     1
 90
        0
 40
-0.6
 41
-30.0
 62
     5
 63
     7
 74
     0
 91
        4
 64
     7
 65
   257
 75
     1
175
     1
 42
1.0
 92
        8
 66
     7
 43
1.0
 76
     1
 77
     6
 78
     2
 67
     7
 79
     5
170
     0
171
     0
290
     0
174
     0
 93
        1
 44
0.0
173
     0
291
     1
 45
0.0
1001
ACAD
1000
AcDbSavedByObjectVersion
1070
     0
  0
VISUALSTYLE
  5
1FFC
102
{ACAD_XDICTIONARY
360
3310
102
}
102
{ACAD_REACTORS
330
1FF0
102
}
330
1FF0
100
AcDbVisualStyle
  2
Brighten
 70
    12
 71
     2
 72
     2
 73
     0
 90
        0
 40
-0.6
 41
-30.0
 62
     5
 63
     7
 74
     1
 91
        4
 64
     7
 65
   257
 75
     1
175
     1
 42
1.0
 92
        8
 66
     7
 43
1.0
 76
     1
 77
     6
 78
     2
 67
     7
 79
     5
170
     0
171
     0
290
     0
174
     0
 93
        1
 44
50.0
173
     0
291
     1
 45
0.0
1001
ACAD
1000
AcDbSavedByObjectVersion
1070
     0
  0
VISUALSTYLE
  5
2000
102
{ACAD_XDICTIONARY
360
3318
102
}
102
{ACAD_REACTORS
330
1FF0
102
}
330
1FF0
100
AcDbVisualStyle
  2
ColorChange
 70
    16
 71
     2
 72
     2
 73
     3
 90
        0
 40
-0.6
 41
-30.0
 62
     5
 63
     8
 74
     1
 91
        4
 64
     7
 65
   257
 75
     1
175
     1
 42
1.0
 92
        8
 66
     8
 43
1.0
 76
     1
 77
     6
 78
     2
 67
     7
 79
     5
170
     0
171
     0
290
     0
174
     0
 93
        1
 44
0.0
173
     0
291
     1
 45
0.0
1001
ACAD
1000
AcDbSavedByObjectVersion
1070
     0
  0
VISUALSTYLE
  5
1FF9
102
{ACAD_XDICTIONARY
360
330A
102
}
102
{ACAD_REACTORS
330
1FF0
102
}
330
1FF0
100
AcDbVisualStyle
  2
Conceptual
 70
     9
 71
     3
 72
     2
 73
     0
 90
        0
 40
-0.6
 41
-30.0
 62
     5
 63
     7
 74
     2
 91
        2
 64
     7
 65
   257
 75
     1
175
     1
 42
179.0
 92
        8
 66
     7
 43
1.0
 76
     1
 77
     6
 78
     2
 67
     7
 79
     3
170
     0
171
     0
290
     0
174
     0
 93
        1
 44
0.0
173
     0
291
     0
 45
0.0
1001
ACAD
1000
AcDbSavedByObjectVersion
1070
     0
  0
VISUALSTYLE
  5
1FFB
102
{ACAD_XDICTIONARY
360
330E
102
}
102
{ACAD_REACTORS
330
1FF0
102
}
330
1FF0
100
AcDbVisualStyle
  2
Dim
 70
    11
 71
     2
 72
     2
 73
     0
 90
        0
 40
-0.6
 41
-30.0
 62
     5
 63
     7
 74
     1
 91
        4
 64
     7
 65
   257
 75
     1
175
     1
 42
1.0
 92
        8
 66
     7
 43
1.0
 76
     1
 77
     6
 78
     2
 67
     7
 79
     5
170
     0
171
     0
290
     0
174
     0
 93
        1
 44
-50.0
173
     0
291
     1
 45
0.0
1001
ACAD
1000
AcDbSavedByObjectVersion
1070
     0
  0
VISUALSTYLE
  5
2008
102
{ACAD_XDICTIONARY
360
3328
102
}
102
{ACAD_REACTORS
330
1FF0
102
}
330
1FF0
100
AcDbVisualStyle
  2
EdgeColorOff
 70
    22
 71
     2
 72
     2
 73
     0
 90
        0
 40
-0.6
 41
-30.0
 62
     5
 63
     7
 74
     1
 91
        4
 64
     7
 65
   257
 75
     1
175
     1
 42
1.0
 92
        8
 66
     7
 43
1.0
 76
     1
 77
     6
 78
     2
 67
     7
 79
     5
170
     0
171
     0
290
     0
174
     0
 93
        1
 44
0.0
173
     0
291
     1
 45
0.0
1001
ACAD
1000
AcDbSavedByObjectVersion
1070
     0
  0
VISUALSTYLE
  5
1FFF
102
{ACAD_XDICTIONARY
360
3316
102
}
102
{ACAD_REACTORS
330
1FF0
102
}
330
1FF0
100
AcDbVisualStyle
  2
Facepattern
 70
    15
 71
     2
 72
     2
 73
     0
 90
        0
 40
-0.6
 41
-30.0
 62
     5
 63
     7
 74
     1
 91
        4
 64
     7
 65
   257
 75
     1
175
     1
 42
1.0
 92
        8
 66
     7
 43
1.0
 76
     1
 77
     6
 78
     2
 67
     7
 79
     5
170
     0
171
     0
290
     0
174
     0
 93
        1
 44
0.0
173
     0
291
     1
 45
0.0
1001
ACAD
1000
AcDbSavedByObjectVersion
1070
     0
  0
VISUALSTYLE
  5
1FF1
102
{ACAD_XDICTIONARY
360
32FA
102
}
102
{ACAD_REACTORS
330
1FF0
102
}
330
1FF0
100
AcDbVisualStyle
  2
Flat
 70
     0
 71
     2
 72
     1
 73
     1
 90
        2
 40
-0.6
 41
30.0
 62
     5
 63
     7
 74
     0
 91
        0
 64
     7
 65
   257
 75
     1
175
     1
 42
1.0
 92
        8
 66
     7
 43
1.0
 76
     1
 77
     6
 78
     2
 67
     7
 79
     5
170
     0
171
     0
290
     0
174
     0
 93
       13
 44
0.0
173
     0
291
     1
 45
0.0
1001
ACAD
1000
AcDbSavedByObjectVersion
1070
     0
  0
VISUALSTYLE
  5
1FF2
102
{ACAD_XDICTIONARY
360
32FC
102
}
102
{ACAD_REACTORS
330
1FF0
102
}
330
1FF0
100
AcDbVisualStyle
  2
FlatWithEdges
 70
     1
 71
     2
 72
     1
 73
     1
 90
        2
 40
-0.6
 41
30.0
 62
     5
 63
     7
 74
     1
 91
        0
 64
     7
 65
   257
 75
     1
175
     1
 42
1.0
 92
        0
 66
   257
 43
1.0
 76
     1
 77
     6
 78
     2
 67
     7
 79
     5
170
     0
171
     0
290
     0
174
     0
 93
       13
 44
0.0
173
     0
291
     1
 45
0.0
1001
ACAD
1000
AcDbSavedByObjectVersion
1070
     0
  0
VISUALSTYLE
  5
1FF3
102
{ACAD_XDICTIONARY
360
32FE
102
}
102
{ACAD_REACTORS
330
1FF0
102
}
330
1FF0
100
AcDbVisualStyle
  2
Gouraud
 70
     2
 71
     2
 72
     2
 73
     1
 90
        2
 40
-0.6
 41
30.0
 62
     5
 63
     7
 74
     0
 91
        0
 64
     7
 65
   257
 75
     1
175
     1
 42
1.0
 92
        0
 66
     7
 43
1.0
 76
     1
 77
     6
 78
     2
 67
     7
 79
     5
170
     0
171
     0
290
     0
174
     0
 93
       13
 44
0.0
173
     0
291
     1
 45
0.0
1001
ACAD
1000
AcDbSavedByObjectVersion
1070
     0
  0
VISUALSTYLE
  5
1FF4
102
{ACAD_XDICTIONARY
360
3300
102
}
102
{ACAD_REACTORS
330
1FF0
102
}
330
1FF0
100
AcDbVisualStyle
  2
GouraudWithEdges
 70
     3
 71
     2
 72
     2
 73
     1
 90
        2
 40
-0.6
 41
30.0
 62
     5
 63
     7
 74
     1
 91
        0
 64
     7
 65
   257
 75
     1
175
     1
 42
1.0
 92
        0
 66
   257
 43
1.0
 76
     1
 77
     6
 78
     2
 67
     7
 79
     5
170
     0
171
     0
290
     0
174
     0
 93
       13
 44
0.0
173
     0
291
     1
 45
0.0
1001
ACAD
1000
AcDbSavedByObjectVersion
1070
     0
  0
VISUALSTYLE
  5
1FF8
102
{ACAD_XDICTIONARY
360
3308
102
}
102
{ACAD_REACTORS
330
1FF0
102
}
330
1FF0
100
AcDbVisualStyle
  2
Hidden
 70
     6
 71
     1
 72
     2
 73
     2
 90
        0
 40
-0.6
 41
-30.0
 62
     5
 63
     7
 74
     2
 91
        2
 64
     7
 65
   257
 75
     2
175
     1
 42
40.0
 92
        0
 66
   257
 43
1.0
 76
     1
 77
     6
 78
     2
 67
     7
 79
     3
170
     0
171
     0
290
     0
174
     0
 93
        1
 44
0.0
173
     0
291
     0
 45
0.0
1001
ACAD
1000
AcDbSavedByObjectVersion
1070
     0
  0
VISUALSTYLE
  5
2006
102
{ACAD_XDICTIONARY
360
3324
102
}
102
{ACAD_REACTORS
330
1FF0
102
}
330
1FF0
100
AcDbVisualStyle
  2
JitterOff
 70
    20
 71
     2
 72
     2
 73
     0
 90
        0
 40
-0.6
 41
-30.0
 62
     5
 63
     7
 74
     1
 91
        4
 64
     7
 65
   257
 75
     1
175
     1
 42
1.0
 92
       10
 66
     7
 43
1.0
 76
     1
 77
     6
 78
     2
 67
     7
 79
     5
170
     0
171
     0
290
     0
174
     0
 93
        1
 44
0.0
173
     0
291
     1
 45
0.0
1001
ACAD
1000
AcDbSavedByObjectVersion
1070
     0
  0
VISUALSTYLE
  5
1FFE
102
{ACAD_XDICTIONARY
360
3314
102
}
102
{ACAD_REACTORS
330
1FF0
102
}
330
1FF0
100
AcDbVisualStyle
  2
Linepattern
 70
    14
 71
     2
 72
     2
 73
     0
 90
        0
 40
-0.6
 41
-30.0
 62
     5
 63
     7
 74
     1
 91
        4
 64
     7
 65
   257
 75
     7
175
     7
 42
1.0
 92
        8
 66
     7
 43
1.0
 76
     1
 77
     6
 78
     2
 67
     7
 79
     5
170
     0
171
     0
290
     0
174
     0
 93
        1
 44
0.0
173
     0
291
     1
 45
0.0
1001
ACAD
1000
AcDbSavedByObjectVersion
1070
     0
  0
VISUALSTYLE
  5
2007
102
{ACAD_XDICTIONARY
360
3326
102
}
102
{ACAD_REACTORS
330
1FF0
102
}
330
1FF0
100
AcDbVisualStyle
  2
OverhangOff
 70
    21
 71
     2
 72
     2
 73
     0
 90
        0
 40
-0.6
 41
-30.0
 62
     5
 63
     7
 74
     1
 91
        4
 64
     7
 65
   257
 75
     1
175
     1
 42
1.0
 92
        9
 66
     7
 43
1.0
 76
     1
 77
     6
 78
     2
 67
     7
 79
     5
170
     0
171
     0
290
     0
174
     0
 93
        1
 44
0.0
173
     0
291
     1
 45
0.0
1001
ACAD
1000
AcDbSavedByObjectVersion
1070
     0
  0
VISUALSTYLE
  5
1FFA
102
{ACAD_XDICTIONARY
360
330C
102
}
102
{ACAD_REACTORS
330
1FF0
102
}
330
1FF0
100
AcDbVisualStyle
  2
Realistic
 70
     8
 71
     2
 72
     3
 73
     0
 90
        2
 40
-0.6
 41
30.0
 62
     5
 63
     7
 74
     0
 91
        0
 64
     7
 65
   257
 75
     1
175
     1
 42
1.0
 92
        8
 66
   257
 43
1.0
 76
     1
 77
     6
 78
     2
 67
     7
 79
     3
170
     0
171
     0
290
     0
174
     0
 93
       13
 44
0.0
173
     0
291
     0
 45
0.0
1001
ACAD
1000
AcDbSavedByObjectVersion
1070
     0
  0
VISUALSTYLE
  5
2005
102
{ACAD_XDICTIONARY
360
3322
102
}
102
{ACAD_REACTORS
330
1FF0
102
}
330
1FF0
100
AcDbVisualStyle
  2
Shaded
 70
    27
 71
     2
 72
     2
 73
     1
 90
        2
 40
-0.6
 41
30.0
 62
     5
 63
     7
 74
     0
 91
        4
 64
     7
 65
   257
 75
     1
175
     1
 42
1.0
 92
        8
 66
   257
 43
1.0
 76
     1
 77
     6
 78
     2
 67
     8
 79
     3
170
     0
171
     0
290
     0
174
     0
 93
        5
 44
0.0
173
     0
291
     0
 45
0.0
1001
ACAD
1000
AcDbSavedByObjectVersion
1070
     0
  0
VISUALSTYLE
  5
2004
102
{ACAD_XDICTIONARY
360
3320
102
}
102
{ACAD_REACTORS
330
1FF0
102
}
330
1FF0
100
AcDbVisualStyle
  2
Shaded with edges
 70
    26
 71
     2
 72
     2
 73
     1
 90
        2
 40
-0.6
 41
30.0
 62
     5
 63
     7
 74
     1
 91
       10
 64
     7
 65
   257
 75
     2
175
     1
 42
1.0
 92
        8
 66
   257
 43
1.0
 76
     1
 77
     6
 78
     2
 67
     7
 79
     3
170
     0
171
     0
290
     0
174
     0
 93
        5
 44
0.0
173
     0
291
     0
 45
0.0
1001
ACAD
1000
AcDbSavedByObjectVersion
1070
     0
  0
VISUALSTYLE
  5
2001
102
{ACAD_XDICTIONARY
360
331A
102
}
102
{ACAD_REACTORS
330
1FF0
102
}
330
1FF0
100
AcDbVisualStyle
  2
Shades of Gray
 70
    23
 71
     2
 72
     2
 73
     3
 90
        0
 40
-0.6
 41
-30.0
 62
     5
 63
     7
 74
     2
 91
        2
 64
     7
 65
     7
 75
     1
175
     1
 42
40.0
 92
        8
 66
     7
 43
1.0
 76
     1
 77
     6
 78
     2
 67
     7
 79
     3
170
     0
171
     0
290
     0
174
     0
 93
        1
 44
0.0
173
     0
291
     0
 45
0.0
1001
ACAD
1000
AcDbSavedByObjectVersion
1070
     0
  0
VISUALSTYLE
  5
2002
102
{ACAD_XDICTIONARY
360
331C
102
}
102
{ACAD_REACTORS
330
1FF0
102
}
330
1FF0
100
AcDbVisualStyle
  2
Sketchy
 70
    24
 71
     1
 72
     2
 73
     2
 90
        0
 40
-0.6
 41
-30.0
 62
     5
 63
     7
 74
     2
 91
        2
 64
     7
 65
     7
 75
     1
175
     1
 42
40.0
 92
       11
 66
     7
 43
1.0
 76
     1
 77
     6
 78
     2
 67
     7
 79
     6
170
     0
171
     0
290
     0
174
     0
 93
        1
 44
0.0
173
     0
291
     0
 45
0.0
1001
ACAD
1000
AcDbSavedByObjectVersion
1070
     0
  0
VISUALSTYLE
  5
1FFD
102
{ACAD_XDICTIONARY
360
3312
102
}
102
{ACAD_REACTORS
330
1FF0
102
}
330
1FF0
100
AcDbVisualStyle
  2
Thicken
 70
    13
 71
     2
 72
     2
 73
     0
 90
        0
 40
-0.6
 41
-30.0
 62
     5
 63
     7
 74
     1
 91
        4
 64
     7
 65
   257
 75
     1
175
     1
 42
1.0
 92
       12
 66
     7
 43
1.0
 76
     1
 77
     6
 78
     2
 67
     7
 79
     5
170
     0
171
     0
290
     0
174
     0
 93
        1
 44
0.0
173
     0
291
     1
 45
0.0
1001
ACAD
1000
AcDbSavedByObjectVersion
1070
     0
  0
VISUALSTYLE
  5
1FF7
102
{ACAD_XDICTIONARY
360
3306
102
}
102
{ACAD_REACTORS
330
1FF0
102
}
330
1FF0
100
AcDbVisualStyle
  2
Wireframe
 70
     5
 71
     0
 72
     2
 73
     0
 90
        0
 40
-0.6
 41
-30.0
 62
     5
 63
     7
 74
     1
 91
        4
 64
     7
 65
   257
 75
     1
175
     1
 42
1.0
 92
        0
 66
   257
 43
1.0
 76
     1
 77
     6
 78
     2
 67
     7
 79
     3
170
     0
171
     0
290
     0
174
     0
 93
        1
 44
0.0
173
     0
291
     0
 45
0.0
1001
ACAD
1000
AcDbSavedByObjectVersion
1070
     0
  0
VISUALSTYLE
  5
2003
102
{ACAD_XDICTIONARY
360
331E
102
}
102
{ACAD_REACTORS
330
1FF0
102
}
330
1FF0
100
AcDbVisualStyle
  2
X-Ray
 70
    25
 71
     2
 72
     2
 73
     1
 90
        1
 40
0.5
 41
-30.0
 62
     5
 63
     7
 74
     1
 91
        0
 64
     7
 65
   257
 75
     1
175
     1
 42
1.0
 92
        8
 66
     7
 43
1.0
 76
     1
 77
     6
 78
     2
 67
     7
 79
     3
170
     0
171
     0
290
     0
174
     0
 93
       13
 44
0.0
173
     0
291
     0
 45
0.0
1001
ACAD
1000
AcDbSavedByObjectVersion
1070
     0
  0
DICTIONARYVAR
  5
2090
102
{ACAD_REACTORS
330
17B5
102
}
330
17B5
100
DictionaryVariables
280
     0
  1
1:1
  0
DICTIONARYVAR
  5
208C
102
{ACAD_REACTORS
330
17B5
102
}
330
17B5
100
DictionaryVariables
280
     0
  1
STANDARD
  0
DICTIONARYVAR
  5
17B6
102
{ACAD_REACTORS
330
17B5
102
}
330
17B5
100
DictionaryVariables
280
     0
  1
STANDARD
  0
DICTIONARYVAR
  5
208D
102
{ACAD_REACTORS
330
17B5
102
}
330
17B5
100
DictionaryVariables
280
     0
  1
Imperial24
  0
DICTIONARYVAR
  5
208E
102
{ACAD_REACTORS
330
17B5
102
}
330
17B5
100
DictionaryVariables
280
     0
  1
Imperial24
  0
DICTIONARYVAR
  5
1C49
102
{ACAD_REACTORS
330
17B5
102
}
330
17B5
100
DictionaryVariables
280
     0
  1
1
  0
DICTIONARYVAR
  5
32E4
102
{ACAD_REACTORS
330
17B5
102
}
330
17B5
100
DictionaryVariables
280
     0
  1
0
  0
DICTIONARYVAR
  5
2092
102
{ACAD_REACTORS
330
17B5
102
}
330
17B5
100
DictionaryVariables
280
     0
  1
1
  0
DICTIONARYVAR
  5
2093
102
{ACAD_REACTORS
330
17B5
102
}
330
17B5
100
DictionaryVariables
280
     0
  1
15
  0
DICTIONARYVAR
  5
2091
102
{ACAD_REACTORS
330
17B5
102
}
330
17B5
100
DictionaryVariables
280
     0
  1
0
  0
DICTIONARYVAR
  5
208F
102
{ACAD_REACTORS
330
17B5
102
}
330
17B5
100
DictionaryVariables
280
     0
  1
0
  0
DICTIONARYVAR
  5
1C4A
102
{ACAD_REACTORS
330
17B5
102
}
330
17B5
100
DictionaryVariables
280
     0
  1

  0
DICTIONARYVAR
  5
32E3
102
{ACAD_REACTORS
330
17B5
102
}
330
17B5
100
DictionaryVariables
280
     0
  1
127
  0
DICTIONARYVAR
  5
32E5
102
{ACAD_REACTORS
330
17B5
102
}
330
17B5
100
DictionaryVariables
280
     0
  1
2
  0
DICTIONARY
  5
32F1
102
{ACAD_REACTORS
330
32EF
102
}
330
32EF
100
AcDbDictionary
281
     1
  0
DICTIONARY
  5
32F0
102
{ACAD_REACTORS
330
32EF
102
}
330
32EF
100
AcDbDictionary
281
     1
  3
8796086991008
350
32EA
  3
8796086991024
350
32EB
  3
8796086991040
350
32EC
  3
8796086991056
350
32ED
  3
8796086991072
350
32EE
  0
DICTIONARY
  5
2089
330
2020
100
AcDbDictionary
280
     1
281
     1
  3
ACAD_XREC_ROUNDTRIP
360
332C
  0
DICTIONARY
  5
32F4
330
21
100
AcDbDictionary
280
     1
281
     1
  3
ACAD_XREC_ROUNDTRIP
360
32F5
  0
DICTIONARY
  5
32F2
330
1D
100
AcDbDictionary
280
     1
281
     1
  3
ACAD_XREC_ROUNDTRIP
360
32F3
  0
DICTIONARY
  5
1FE1
330
1FE0
100
AcDbDictionary
280
     1
281
     1
  3
ACAD_XREC_ROUNDTRIP
360
32F8
  3
BUMPTILE
360
1FE3
  3
DIFFUSETILE
360
1FE2
  3
OPACITYTILE
360
1FE6
  3
REFLECTIONTILE
360
1FE5
  3
REFRACTIONTILE
360
1FE7
  3
SPECULARTILE
360
1FE4
  0
DICTIONARY
  5
1FD9
330
1FD8
100
AcDbDictionary
280
     1
281
     1
  3
ACAD_XREC_ROUNDTRIP
360
32F7
  3
BUMPTILE
360
1FDB
  3
DIFFUSETILE
360
1FDA
  3
OPACITYTILE
360
1FDE
  3
REFLECTIONTILE
360
1FDD
  3
REFRACTIONTILE
360
1FDF
  3
SPECULARTILE
360
1FDC
  0
DICTIONARY
  5
1FE9
330
1FE8
100
AcDbDictionary
280
     1
281
     1
  3
ACAD_XREC_ROUNDTRIP
360
32F9
  3
BUMPTILE
360
1FEB
  3
DIFFUSETILE
360
1FEA
  3
OPACITYTILE
360
1FEE
  3
REFLECTIONTILE
360
1FED
  3
REFRACTIONTILE
360
1FEF
  3
SPECULARTILE
360
1FEC
  0
DICTIONARY
  5
2087
330
201E
100
AcDbDictionary
280
     1
281
     1
  3
ACAD_XREC_ROUNDTRIP
360
332B
  0
DICTIONARY
  5
32E6
330
17A6
100
AcDbDictionary
280
     1
281
     1
  3
ACAD_ROUNDTRIP_2008_TABLESTYLE_CELLSTYLEMAP
360
32E7
  3
ACAD_XREC_ROUNDTRIP
360
32F6
  0
DICTIONARY
  5
3304
330
1FF6
100
AcDbDictionary
280
     1
281
     1
  3
ACAD_XREC_ROUNDTRIP
360
3305
  0
DICTIONARY
  5
3302
330
1FF5
100
AcDbDictionary
280
     1
281
     1
  3
ACAD_XREC_ROUNDTRIP
360
3303
  0
DICTIONARY
  5
3310
330
1FFC
100
AcDbDictionary
280
     1
281
     1
  3
ACAD_XREC_ROUNDTRIP
360
3311
  0
DICTIONARY
  5
3318
330
2000
100
AcDbDictionary
280
     1
281
     1
  3
ACAD_XREC_ROUNDTRIP
360
3319
  0
DICTIONARY
  5
330A
330
1FF9
100
AcDbDictionary
280
     1
281
     1
  3
ACAD_XREC_ROUNDTRIP
360
330B
  0
DICTIONARY
  5
330E
330
1FFB
100
AcDbDictionary
280
     1
281
     1
  3
ACAD_XREC_ROUNDTRIP
360
330F
  0
DICTIONARY
  5
3328
330
2008
100
AcDbDictionary
280
     1
281
     1
  3
ACAD_XREC_ROUNDTRIP
360
3329
  0
DICTIONARY
  5
3316
330
1FFF
100
AcDbDictionary
280
     1
281
     1
  3
ACAD_XREC_ROUNDTRIP
360
3317
  0
DICTIONARY
  5
32FA
330
1FF1
100
AcDbDictionary
280
     1
281
     1
  3
ACAD_XREC_ROUNDTRIP
360
32FB
  0
DICTIONARY
  5
32FC
330
1FF2
100
AcDbDictionary
280
     1
281
     1
  3
ACAD_XREC_ROUNDTRIP
360
32FD
  0
DICTIONARY
  5
32FE
330
1FF3
100
AcDbDictionary
280
     1
281
     1
  3
ACAD_XREC_ROUNDTRIP
360
32FF
  0
DICTIONARY
  5
3300
330
1FF4
100
AcDbDictionary
280
     1
281
     1
  3
ACAD_XREC_ROUNDTRIP
360
3301
  0
DICTIONARY
  5
3308
330
1FF8
100
AcDbDictionary
280
     1
281
     1
  3
ACAD_XREC_ROUNDTRIP
360
3309
  0
DICTIONARY
  5
3324
330
2006
100
AcDbDictionary
280
     1
281
     1
  3
ACAD_XREC_ROUNDTRIP
360
3325
  0
DICTIONARY
  5
3314
330
1FFE
100
AcDbDictionary
280
     1
281
     1
  3
ACAD_XREC_ROUNDTRIP
360
3315
  0
DICTIONARY
  5
3326
330
2007
100
AcDbDictionary
280
     1
281
     1
  3
ACAD_XREC_ROUNDTRIP
360
3327
  0
DICTIONARY
  5
330C
330
1FFA
100
AcDbDictionary
280
     1
281
     1
  3
ACAD_XREC_ROUNDTRIP
360
330D
  0
DICTIONARY
  5
3322
330
2005
100
AcDbDictionary
280
     1
281
     1
  3
ACAD_XREC_ROUNDTRIP
360
3323
  0
DICTIONARY
  5
3320
330
2004
100
AcDbDictionary
280
     1
281
     1
  3
ACAD_XREC_ROUNDTRIP
360
3321
  0
DICTIONARY
  5
331A
330
2001
100
AcDbDictionary
280
     1
281
     1
  3
ACAD_XREC_ROUNDTRIP
360
331B
  0
DICTIONARY
  5
331C
330
2002
100
AcDbDictionary
280
     1
281
     1
  3
ACAD_XREC_ROUNDTRIP
360
331D
  0
DICTIONARY
  5
3312
330
1FFD
100
AcDbDictionary
280
     1
281
     1
  3
ACAD_XREC_ROUNDTRIP
360
3313
  0
DICTIONARY
  5
3306
330
1FF7
100
AcDbDictionary
280
     1
281
     1
  3
ACAD_XREC_ROUNDTRIP
360
3307
  0
DICTIONARY
  5
331E
330
2003
100
AcDbDictionary
280
     1
281
     1
  3
ACAD_XREC_ROUNDTRIP
360
331F
  0
XRECORD
  5
32EA
102
{ACAD_REACTORS
330
32F0
102
}
330
32F0
100
AcDbXrecord
280
     1
  1
AcDb_Thumbnail_Schema
102
{ATTRRECORD
341
32EB
  2
AcDbDs::TreatedAsObjectData
280
     1
291
     1
102
ATTRRECORD}
102
{ATTRRECORD
341
32EC
  2
AcDbDs::Legacy
280
     1
291
     1
102
ATTRRECORD}
  2
AcDbDs::ID
280
    10
 91
        8
102
{ATTRRECORD
341
32ED
  2
AcDs:Indexable
280
     1
291
     1
102
ATTRRECORD}
102
{ATTRRECORD
341
32EE
  2
AcDbDs::HandleAttribute
280
     7
282
     1
102
ATTRRECORD}
  2
Thumbnail_Data
280
    15
 91
        0
  0
XRECORD
  5
32EB
102
{ACAD_REACTORS
330
32F0
102
}
330
32F0
100
AcDbXrecord
280
     1
  1
AcDbDs::TreatedAsObjectDataSchema
  2
AcDbDs::TreatedAsObjectData
280
     1
 91
        0
  0
XRECORD
  5
32EC
102
{ACAD_REACTORS
330
32F0
102
}
330
32F0
100
AcDbXrecord
280
     1
  1
AcDbDs::LegacySchema
  2
AcDbDs::Legacy
280
     1
 91
        0
  0
XRECORD
  5
32ED
102
{ACAD_REACTORS
330
32F0
102
}
330
32F0
100
AcDbXrecord
280
     1
  1
AcDbDs::IndexedPropertySchema
  2
AcDs:Indexable
280
     1
 91
        0
  0
XRECORD
  5
32EE
102
{ACAD_REACTORS
330
32F0
102
}
330
32F0
100
AcDbXrecord
280
     1
  1
AcDbDs::HandleAttributeSchema
  2
AcDbDs::HandleAttribute
280
     7
 91
        1
284
     1
  0
XRECORD
  5
332C
102
{ACAD_REACTORS
330
2089
102
}
330
2089
100
AcDbXrecord
280
     1
102
DISPLAYNAME
  1
Imperial24
102
FLAGS
 90
        0
  0
XRECORD
  5
32F5
102
{ACAD_REACTORS
330
32F4
102
}
330
32F4
100
AcDbXrecord
280
     1
102
SHADEPLOT
 70
     0
102
SHADEPLOTRESLEVEL
 70
     2
102
SHADEPLOTCUSTOMDPI
 70
   300
  0
XRECORD
  5
32F3
102
{ACAD_REACTORS
330
32F2
102
}
330
32F2
100
AcDbXrecord
280
     1
102
SHADEPLOT
 70
     0
102
SHADEPLOTRESLEVEL
 70
     2
102
SHADEPLOTCUSTOMDPI
 70
   300
  0
XRECORD
  5
32F8
102
{ACAD_REACTORS
330
1FE1
102
}
330
1FE1
100
AcDbXrecord
280
     1
102
MATERIAL
148
0.0
149
0.0
149
0.0
 93
        0
 94
      127
282
     0
 72
     0
 77
     0
171
     0
175
     0
179
     0
273
     0
  0
XRECORD
  5
1FE3
102
{ACAD_REACTORS
330
1FE1
102
}
330
1FE1
100
AcDbXrecord
280
     1
270
     1
271
     1
  0
XRECORD
  5
1FE2
102
{ACAD_REACTORS
330
1FE1
102
}
330
1FE1
100
AcDbXrecord
280
     1
270
     1
271
     1
  0
XRECORD
  5
1FE6
102
{ACAD_REACTORS
330
1FE1
102
}
330
1FE1
100
AcDbXrecord
280
     1
270
     1
271
     1
  0
XRECORD
  5
1FE5
102
{ACAD_REACTORS
330
1FE1
102
}
330
1FE1
100
AcDbXrecord
280
     1
270
     1
271
     1
  0
XRECORD
  5
1FE7
102
{ACAD_REACTORS
330
1FE1
102
}
330
1FE1
100
AcDbXrecord
280
     1
270
     1
271
     1
  0
XRECORD
  5
1FE4
102
{ACAD_REACTORS
330
1FE1
102
}
330
1FE1
100
AcDbXrecord
280
     1
270
     1
271
     1
  0
XRECORD
  5
32F7
102
{ACAD_REACTORS
330
1FD9
102
}
330
1FD9
100
AcDbXrecord
280
     1
102
MATERIAL
148
0.0
149
0.0
149
0.0
 93
        0
 94
      127
282
     0
 72
     0
 77
     0
171
     0
175
     0
179
     0
273
     0
  0
XRECORD
  5
1FDB
102
{ACAD_REACTORS
330
1FD9
102
}
330
1FD9
100
AcDbXrecord
280
     1
270
     1
271
     1
  0
XRECORD
  5
1FDA
102
{ACAD_REACTORS
330
1FD9
102
}
330
1FD9
100
AcDbXrecord
280
     1
270
     1
271
     1
  0
XRECORD
  5
1FDE
102
{ACAD_REACTORS
330
1FD9
102
}
330
1FD9
100
AcDbXrecord
280
     1
270
     1
271
     1
  0
XRECORD
  5
1FDD
102
{ACAD_REACTORS
330
1FD9
102
}
330
1FD9
100
AcDbXrecord
280
     1
270
     1
271
     1
  0
XRECORD
  5
1FDF
102
{ACAD_REACTORS
330
1FD9
102
}
330
1FD9
100
AcDbXrecord
280
     1
270
     1
271
     1
  0
XRECORD
  5
1FDC
102
{ACAD_REACTORS
330
1FD9
102
}
330
1FD9
100
AcDbXrecord
280
     1
270
     1
271
     1
  0
XRECORD
  5
32F9
102
{ACAD_REACTORS
330
1FE9
102
}
330
1FE9
100
AcDbXrecord
280
     1
102
MATERIAL
148
0.0
149
0.0
149
0.0
 93
        0
 94
      127
282
     0
 72
     0
 77
     0
171
     0
175
     0
179
     0
273
     0
  0
XRECORD
  5
1FEB
102
{ACAD_REACTORS
330
1FE9
102
}
330
1FE9
100
AcDbXrecord
280
     1
270
     1
271
     1
  0
XRECORD
  5
1FEA
102
{ACAD_REACTORS
330
1FE9
102
}
330
1FE9
100
AcDbXrecord
280
     1
270
     1
271
     1
  0
XRECORD
  5
1FEE
102
{ACAD_REACTORS
330
1FE9
102
}
330
1FE9
100
AcDbXrecord
280
     1
270
     1
271
     1
  0
XRECORD
  5
1FED
102
{ACAD_REACTORS
330
1FE9
102
}
330
1FE9
100
AcDbXrecord
280
     1
270
     1
271
     1
  0
XRECORD
  5
1FEF
102
{ACAD_REACTORS
330
1FE9
102
}
330
1FE9
100
AcDbXrecord
280
     1
270
     1
271
     1
  0
XRECORD
  5
1FEC
102
{ACAD_REACTORS
330
1FE9
102
}
330
1FE9
100
AcDbXrecord
280
     1
270
     1
271
     1
  0
XRECORD
  5
332B
102
{ACAD_REACTORS
330
2087
102
}
330
2087
100
AcDbXrecord
280
     1
102
DISPLAYNAME
  1
Imperial24
102
FLAGS
 90
        0
  0
CELLSTYLEMAP
  5
32E7
102
{ACAD_REACTORS
330
32E6
102
}
330
32E6
100
AcDbCellStyleMap
 90
        3
300
CELLSTYLE
  1
TABLEFORMAT_BEGIN
 90
        5
170
     1
 91
        0
 92
    32768
 62
   257
 93
        1
300
CONTENTFORMAT
  1
CONTENTFORMAT_BEGIN
 90
        0
 91
        0
 92
        4
 93
        0
300

 40
0.0
140
1.0
 94
        5
 62
     0
340
11
144
0.25
309
CONTENTFORMAT_END
171
     0
 94
        6
 95
        1
302
GRIDFORMAT
  1
GRIDFORMAT_BEGIN
 90
        0
 91
        1
 62
     0
 92
       -2
340
0
 93
        0
 40
0.045
309
GRIDFORMAT_END
 95
        2
302
GRIDFORMAT
  1
GRIDFORMAT_BEGIN
 90
        0
 91
        1
 62
     0
 92
       -2
340
0
 93
        0
 40
0.045
309
GRIDFORMAT_END
 95
        4
302
GRIDFORMAT
  1
GRIDFORMAT_BEGIN
 90
        0
 91
        1
 62
     0
 92
       -2
340
0
 93
        0
 40
0.045
309
GRIDFORMAT_END
 95
        8
302
GRIDFORMAT
  1
GRIDFORMAT_BEGIN
 90
        0
 91
        1
 62
     0
 92
       -2
340
0
 93
        0
 40
0.045
309
GRIDFORMAT_END
 95
       16
302
GRIDFORMAT
  1
GRIDFORMAT_BEGIN
 90
        0
 91
        1
 62
     0
 92
       -2
340
0
 93
        0
 40
0.045
309
GRIDFORMAT_END
 95
       32
302
GRIDFORMAT
  1
GRIDFORMAT_BEGIN
 90
        0
 91
        1
 62
     0
 92
       -2
340
0
 93
        0
 40
0.045
309
GRIDFORMAT_END
309
TABLEFORMAT_END
  1
CELLSTYLE_BEGIN
 90
        1
 91
        1
300
_TITLE
309
CELLSTYLE_END
300
CELLSTYLE
  1
TABLEFORMAT_BEGIN
 90
        5
170
     1
 91
        0
 92
        0
 62
   257
 93
        1
300
CONTENTFORMAT
  1
CONTENTFORMAT_BEGIN
 90
        0
 91
        0
 92
        4
 93
        0
300

 40
0.0
140
1.0
 94
        5
 62
     0
340
11
144
0.18
309
CONTENTFORMAT_END
171
     0
 94
        6
 95
        1
302
GRIDFORMAT
  1
GRIDFORMAT_BEGIN
 90
        0
 91
        1
 62
     0
 92
       -2
340
0
 93
        0
 40
0.045
309
GRIDFORMAT_END
 95
        2
302
GRIDFORMAT
  1
GRIDFORMAT_BEGIN
 90
        0
 91
        1
 62
     0
 92
       -2
340
0
 93
        0
 40
0.045
309
GRIDFORMAT_END
 95
        4
302
GRIDFORMAT
  1
GRIDFORMAT_BEGIN
 90
        0
 91
        1
 62
     0
 92
       -2
340
0
 93
        0
 40
0.045
309
GRIDFORMAT_END
 95
        8
302
GRIDFORMAT
  1
GRIDFORMAT_BEGIN
 90
        0
 91
        1
 62
     0
 92
       -2
340
0
 93
        0
 40
0.045
309
GRIDFORMAT_END
 95
       16
302
GRIDFORMAT
  1
GRIDFORMAT_BEGIN
 90
        0
 91
        1
 62
     0
 92
       -2
340
0
 93
        0
 40
0.045
309
GRIDFORMAT_END
 95
       32
302
GRIDFORMAT
  1
GRIDFORMAT_BEGIN
 90
        0
 91
        1
 62
     0
 92
       -2
340
0
 93
        0
 40
0.045
309
GRIDFORMAT_END
309
TABLEFORMAT_END
  1
CELLSTYLE_BEGIN
 90
        2
 91
        1
300
_HEADER
309
CELLSTYLE_END
300
CELLSTYLE
  1
TABLEFORMAT_BEGIN
 90
        5
170
     1
 91
        0
 92
        0
 62
   257
 93
        1
300
CONTENTFORMAT
  1
CONTENTFORMAT_BEGIN
 90
        0
 91
        0
 92
        4
 93
        0
300

 40
0.0
140
1.0
 94
        2
 62
     0
340
11
144
0.18
309
CONTENTFORMAT_END
171
     0
 94
        6
 95
        1
302
GRIDFORMAT
  1
GRIDFORMAT_BEGIN
 90
        0
 91
        1
 62
     0
 92
       -2
340
0
 93
        0
 40
0.045
309
GRIDFORMAT_END
 95
        2
302
GRIDFORMAT
  1
GRIDFORMAT_BEGIN
 90
        0
 91
        1
 62
     0
 92
       -2
340
0
 93
        0
 40
0.045
309
GRIDFORMAT_END
 95
        4
302
GRIDFORMAT
  1
GRIDFORMAT_BEGIN
 90
        0
 91
        1
 62
     0
 92
       -2
340
0
 93
        0
 40
0.045
309
GRIDFORMAT_END
 95
        8
302
GRIDFORMAT
  1
GRIDFORMAT_BEGIN
 90
        0
 91
        1
 62
     0
 92
       -2
340
0
 93
        0
 40
0.045
309
GRIDFORMAT_END
 95
       16
302
GRIDFORMAT
  1
GRIDFORMAT_BEGIN
 90
        0
 91
        1
 62
     0
 92
       -2
340
0
 93
        0
 40
0.045
309
GRIDFORMAT_END
 95
       32
302
GRIDFORMAT
  1
GRIDFORMAT_BEGIN
 90
        0
 91
        1
 62
     0
 92
       -2
340
0
 93
        0
 40
0.045
309
GRIDFORMAT_END
309
TABLEFORMAT_END
  1
CELLSTYLE_BEGIN
 90
        3
 91
        2
300
_DATA
309
CELLSTYLE_END
  0
XRECORD
  5
32F6
102
{ACAD_REACTORS
330
32E6
102
}
330
32E6
100
AcDbXrecord
280
     1
102
ACAD_ROUNDTRIP_PRE2007_TABLESTYLE
 90
        4
 91
        0
  1

 92
        4
 93
        0
  2

 94
        4
 95
        0
  3

  0
XRECORD
  5
3305
102
{ACAD_REACTORS
330
3304
102
}
330
3304
100
AcDbXrecord
280
     1
102
RTVSPost2010Prop28
280
     1
102
RTVSPost2010PropOp28
 70
     1
102
RTVSPost2010Prop29
280
     1
102
RTVSPost2010PropOp29
 70
     1
102
RTVSPost2010Prop30
280
     0
102
RTVSPost2010PropOp30
 70
     1
102
RTVSPost2010Prop31
280
     0
102
RTVSPost2010PropOp31
 70
     1
102
RTVSPost2010Prop32
280
     0
102
RTVSPost2010PropOp32
 70
     1
102
RTVSPost2010Prop33
280
     0
102
RTVSPost2010PropOp33
 70
     1
102
RTVSPost2010Prop34
280
     0
102
RTVSPost2010PropOp34
 70
     1
102
RTVSPost2010Prop35
280
     0
102
RTVSPost2010PropOp35
 70
     1
102
RTVSPost2010Prop36
280
     0
102
RTVSPost2010PropOp36
 70
     1
102
RTVSPost2010Prop37
 90
       50
102
RTVSPost2010PropOp37
 70
     1
102
RTVSPost2010Prop38
140
0.0
102
RTVSPost2010PropOp38
 70
     1
102
RTVSPost2010Prop39
140
1.0
102
RTVSPost2010PropOp39
 70
     1
102
RTVSPost2010Prop40
 90
        0
102
RTVSPost2010PropOp40
 70
     1
102
RTVSPost2010Prop41ColorIndex
 90
       18
102
RTVSPost2010Prop41ColorRGB
 90
        0
102
RTVSPost2010PropOp41
 70
     1
102
RTVSPost2010Prop42
 90
       50
102
RTVSPost2010PropOp42
 70
     1
102
RTVSPost2010Prop43
 90
        3
102
RTVSPost2010PropOp43
 70
     1
102
RTVSPost2010Prop44ColorIndex
 90
        5
102
RTVSPost2010Prop44ColorRGB
 90
      255
102
RTVSPost2010PropOp44
 70
     1
102
RTVSPost2010Prop45
280
     0
102
RTVSPost2010PropOp45
 70
     1
102
RTVSPost2010Prop46
 90
       50
102
RTVSPost2010PropOp46
 70
     1
102
RTVSPost2010Prop47
 90
       50
102
RTVSPost2010PropOp47
 70
     1
102
RTVSPost2010Prop48
 90
       50
102
RTVSPost2010PropOp48
 70
     1
102
RTVSPost2010Prop49
280
     0
102
RTVSPost2010PropOp49
 70
     1
102
RTVSPost2010Prop50
 90
       50
102
RTVSPost2010PropOp50
 70
     1
102
RTVSPost2010Prop51ColorIndex
 90
      256
102
RTVSPost2010Prop51ColorRGB
 90
-16777216
102
RTVSPost2010PropOp51
 70
     0
102
RTVSPost2010Prop52
140
1.0
102
RTVSPost2010PropOp52
 70
     0
102
RTVSPost2010Prop53
 90
        2
102
RTVSPost2010PropOp53
 70
     1
102
RTVSPost2010Prop54
  1
strokes_ogs.tif
102
RTVSPost2010PropOp54
 70
     1
102
RTVSPost2010Prop55
280
     0
102
RTVSPost2010PropOp55
 70
     1
102
RTVSPost2010Prop56
140
1.0
102
RTVSPost2010PropOp56
 70
     1
102
RTVSPost2010Prop57
140
1.0
102
RTVSPost2010PropOp57
 70
     1
102
RTVSPropertyOp0
 70
     1
102
RTVSPropertyOp1
 70
     1
102
RTVSPropertyOp2
 70
     1
102
RTVSPropertyOp3
 70
     1
102
RTVSPropertyOp4
 70
     1
102
RTVSPropertyOp5
 70
     1
102
RTVSPropertyOp6
 70
     1
102
RTVSPropertyOp7
 70
     1
102
RTVSPropertyOp8
 70
     1
102
RTVSPropertyOp9
 70
     1
102
RTVSPropertyOp10
 70
     1
102
RTVSPropertyOp11
 70
     1
102
RTVSPropertyOp12
 70
     1
102
RTVSPropertyOp13
 70
     1
102
RTVSPropertyOp14
 70
     1
102
RTVSPropertyOp15
 70
     1
102
RTVSPropertyOp16
 70
     1
102
RTVSPropertyOp17
 70
     1
102
RTVSPropertyOp18
 70
     1
102
RTVSPropertyOp19
 70
     1
102
RTVSPropertyOp20
 70
     1
102
RTVSPropertyOp21
 70
     1
102
RTVSPropertyOp22
 70
     1
102
RTVSPropertyOp23
 70
     1
102
RTVSPropertyOp24
 70
     1
102
RTVSPropertyOp25
 70
     1
102
RTVSPropertyOp26
 70
     1
102
RTVSPropertyOp27
 70
     1
102
RTVSPropertyOp28
 70
     1
102
RTVSPropertyOp29
 70
     1
102
RTVSPropertyOp30
 70
     1
102
RTVSPropertyOp31
 70
     1
102
RTVSPropertyOp32
 70
     1
102
RTVSPropertyOp33
 70
     1
102
RTVSPropertyOp34
 70
     1
102
RTVSPropertyOp35
 70
     1
102
RTVSPropertyOp36
 70
     1
102
RTVSPropertyOp37
 70
     1
102
RTVSPropertyOp38
 70
     1
102
RTVSPropertyOp39
 70
     1
102
RTVSPropertyOp40
 70
     1
102
RTVSPropertyOp41
 70
     1
102
RTVSPropertyOp42
 70
     1
102
RTVSPropertyOp43
 70
     1
102
RTVSPropertyOp44
 70
     1
102
RTVSPropertyOp45
 70
     1
102
RTVSPropertyOp46
 70
     1
102
RTVSPropertyOp47
 70
     1
102
RTVSPropertyOp48
 70
     1
102
RTVSPropertyOp49
 70
     1
102
RTVSPropertyOp50
 70
     1
102
RTVSPropertyOp51
 70
     0
102
RTVSPropertyOp52
 70
     0
102
RTVSPropertyOp53
 70
     1
102
RTVSPropertyOp54
 70
     1
102
RTVSPropertyOp55
 70
     1
102
RTVSPropertyOp56
 70
     1
102
RTVSPropertyOp57
 70
     1
102
RTVSPropertyOp58
 70
     1
102
RTVSPropertyOp59
 70
     1
102
RTVSPropertyOp60
 70
     1
102
RTVSPropertyOp61
 70
     1
102
RTVSPropertyOp62
 70
     1
  0
XRECORD
  5
3303
102
{ACAD_REACTORS
330
3302
102
}
330
3302
100
AcDbXrecord
280
     1
102
RTVSPost2010Prop28
280
     0
102
RTVSPost2010PropOp28
 70
     1
102
RTVSPost2010Prop29
280
     1
102
RTVSPost2010PropOp29
 70
     1
102
RTVSPost2010Prop30
280
     1
102
RTVSPost2010PropOp30
 70
     1
102
RTVSPost2010Prop31
280
     0
102
RTVSPost2010PropOp31
 70
     1
102
RTVSPost2010Prop32
280
     0
102
RTVSPost2010PropOp32
 70
     1
102
RTVSPost2010Prop33
280
     0
102
RTVSPost2010PropOp33
 70
     1
102
RTVSPost2010Prop34
280
     0
102
RTVSPost2010PropOp34
 70
     1
102
RTVSPost2010Prop35
280
     0
102
RTVSPost2010PropOp35
 70
     1
102
RTVSPost2010Prop36
280
     0
102
RTVSPost2010PropOp36
 70
     1
102
RTVSPost2010Prop37
 90
       50
102
RTVSPost2010PropOp37
 70
     1
102
RTVSPost2010Prop38
140
0.0
102
RTVSPost2010PropOp38
 70
     1
102
RTVSPost2010Prop39
140
1.0
102
RTVSPost2010PropOp39
 70
     1
102
RTVSPost2010Prop40
 90
        0
102
RTVSPost2010PropOp40
 70
     1
102
RTVSPost2010Prop41ColorIndex
 90
       18
102
RTVSPost2010Prop41ColorRGB
 90
        0
102
RTVSPost2010PropOp41
 70
     1
102
RTVSPost2010Prop42
 90
       50
102
RTVSPost2010PropOp42
 70
     1
102
RTVSPost2010Prop43
 90
        3
102
RTVSPost2010PropOp43
 70
     1
102
RTVSPost2010Prop44ColorIndex
 90
        5
102
RTVSPost2010Prop44ColorRGB
 90
      255
102
RTVSPost2010PropOp44
 70
     1
102
RTVSPost2010Prop45
280
     0
102
RTVSPost2010PropOp45
 70
     1
102
RTVSPost2010Prop46
 90
       50
102
RTVSPost2010PropOp46
 70
     1
102
RTVSPost2010Prop47
 90
       50
102
RTVSPost2010PropOp47
 70
     1
102
RTVSPost2010Prop48
 90
       50
102
RTVSPost2010PropOp48
 70
     1
102
RTVSPost2010Prop49
280
     0
102
RTVSPost2010PropOp49
 70
     1
102
RTVSPost2010Prop50
 90
       50
102
RTVSPost2010PropOp50
 70
     1
102
RTVSPost2010Prop51ColorIndex
 90
      256
102
RTVSPost2010Prop51ColorRGB
 90
-16777216
102
RTVSPost2010PropOp51
 70
     0
102
RTVSPost2010Prop52
140
1.0
102
RTVSPost2010PropOp52
 70
     0
102
RTVSPost2010Prop53
 90
        2
102
RTVSPost2010PropOp53
 70
     1
102
RTVSPost2010Prop54
  1
strokes_ogs.tif
102
RTVSPost2010PropOp54
 70
     1
102
RTVSPost2010Prop55
280
     0
102
RTVSPost2010PropOp55
 70
     1
102
RTVSPost2010Prop56
140
1.0
102
RTVSPost2010PropOp56
 70
     1
102
RTVSPost2010Prop57
140
1.0
102
RTVSPost2010PropOp57
 70
     1
102
RTVSPropertyOp0
 70
     1
102
RTVSPropertyOp1
 70
     1
102
RTVSPropertyOp2
 70
     1
102
RTVSPropertyOp3
 70
     1
102
RTVSPropertyOp4
 70
     1
102
RTVSPropertyOp5
 70
     1
102
RTVSPropertyOp6
 70
     1
102
RTVSPropertyOp7
 70
     1
102
RTVSPropertyOp8
 70
     1
102
RTVSPropertyOp9
 70
     1
102
RTVSPropertyOp10
 70
     1
102
RTVSPropertyOp11
 70
     1
102
RTVSPropertyOp12
 70
     1
102
RTVSPropertyOp13
 70
     1
102
RTVSPropertyOp14
 70
     1
102
RTVSPropertyOp15
 70
     1
102
RTVSPropertyOp16
 70
     1
102
RTVSPropertyOp17
 70
     1
102
RTVSPropertyOp18
 70
     1
102
RTVSPropertyOp19
 70
     1
102
RTVSPropertyOp20
 70
     1
102
RTVSPropertyOp21
 70
     1
102
RTVSPropertyOp22
 70
     1
102
RTVSPropertyOp23
 70
     1
102
RTVSPropertyOp24
 70
     1
102
RTVSPropertyOp25
 70
     1
102
RTVSPropertyOp26
 70
     1
102
RTVSPropertyOp27
 70
     1
102
RTVSPropertyOp28
 70
     1
102
RTVSPropertyOp29
 70
     1
102
RTVSPropertyOp30
 70
     1
102
RTVSPropertyOp31
 70
     1
102
RTVSPropertyOp32
 70
     1
102
RTVSPropertyOp33
 70
     1
102
RTVSPropertyOp34
 70
     1
102
RTVSPropertyOp35
 70
     1
102
RTVSPropertyOp36
 70
     1
102
RTVSPropertyOp37
 70
     1
102
RTVSPropertyOp38
 70
     1
102
RTVSPropertyOp39
 70
     1
102
RTVSPropertyOp40
 70
     1
102
RTVSPropertyOp41
 70
     1
102
RTVSPropertyOp42
 70
     1
102
RTVSPropertyOp43
 70
     1
102
RTVSPropertyOp44
 70
     1
102
RTVSPropertyOp45
 70
     1
102
RTVSPropertyOp46
 70
     1
102
RTVSPropertyOp47
 70
     1
102
RTVSPropertyOp48
 70
     1
102
RTVSPropertyOp49
 70
     1
102
RTVSPropertyOp50
 70
     1
102
RTVSPropertyOp51
 70
     0
102
RTVSPropertyOp52
 70
     0
102
RTVSPropertyOp53
 70
     1
102
RTVSPropertyOp54
 70
     1
102
RTVSPropertyOp55
 70
     1
102
RTVSPropertyOp56
 70
     1
102
RTVSPropertyOp57
 70
     1
102
RTVSPropertyOp58
 70
     1
102
RTVSPropertyOp59
 70
     1
102
RTVSPropertyOp60
 70
     1
102
RTVSPropertyOp61
 70
     1
102
RTVSPropertyOp62
 70
     1
  0
XRECORD
  5
3311
102
{ACAD_REACTORS
330
3310
102
}
330
3310
100
AcDbXrecord
280
     1
102
RTVSPost2010Prop28
280
     0
102
RTVSPost2010PropOp28
 70
     1
102
RTVSPost2010Prop29
280
     1
102
RTVSPost2010PropOp29
 70
     1
102
RTVSPost2010Prop30
280
     1
102
RTVSPost2010PropOp30
 70
     1
102
RTVSPost2010Prop31
280
     0
102
RTVSPost2010PropOp31
 70
     1
102
RTVSPost2010Prop32
280
     0
102
RTVSPost2010PropOp32
 70
     1
102
RTVSPost2010Prop33
280
     0
102
RTVSPost2010PropOp33
 70
     1
102
RTVSPost2010Prop34
280
     0
102
RTVSPost2010PropOp34
 70
     1
102
RTVSPost2010Prop35
280
     0
102
RTVSPost2010PropOp35
 70
     1
102
RTVSPost2010Prop36
280
     0
102
RTVSPost2010PropOp36
 70
     1
102
RTVSPost2010Prop37
 90
       50
102
RTVSPost2010PropOp37
 70
     1
102
RTVSPost2010Prop38
140
0.0
102
RTVSPost2010PropOp38
 70
     1
102
RTVSPost2010Prop39
140
1.0
102
RTVSPost2010PropOp39
 70
     1
102
RTVSPost2010Prop40
 90
        0
102
RTVSPost2010PropOp40
 70
     1
102
RTVSPost2010Prop41ColorIndex
 90
       18
102
RTVSPost2010Prop41ColorRGB
 90
        0
102
RTVSPost2010PropOp41
 70
     1
102
RTVSPost2010Prop42
 90
       50
102
RTVSPost2010PropOp42
 70
     1
102
RTVSPost2010Prop43
 90
        3
102
RTVSPost2010PropOp43
 70
     1
102
RTVSPost2010Prop44ColorIndex
 90
        5
102
RTVSPost2010Prop44ColorRGB
 90
      255
102
RTVSPost2010PropOp44
 70
     1
102
RTVSPost2010Prop45
280
     0
102
RTVSPost2010PropOp45
 70
     1
102
RTVSPost2010Prop46
 90
       50
102
RTVSPost2010PropOp46
 70
     1
102
RTVSPost2010Prop47
 90
       50
102
RTVSPost2010PropOp47
 70
     1
102
RTVSPost2010Prop48
 90
       50
102
RTVSPost2010PropOp48
 70
     1
102
RTVSPost2010Prop49
280
     0
102
RTVSPost2010PropOp49
 70
     1
102
RTVSPost2010Prop50
 90
       50
102
RTVSPost2010PropOp50
 70
     1
102
RTVSPost2010Prop51ColorIndex
 90
      256
102
RTVSPost2010Prop51ColorRGB
 90
-16777216
102
RTVSPost2010PropOp51
 70
     0
102
RTVSPost2010Prop52
140
1.0
102
RTVSPost2010PropOp52
 70
     0
102
RTVSPost2010Prop53
 90
        2
102
RTVSPost2010PropOp53
 70
     1
102
RTVSPost2010Prop54
  1
strokes_ogs.tif
102
RTVSPost2010PropOp54
 70
     1
102
RTVSPost2010Prop55
280
     0
102
RTVSPost2010PropOp55
 70
     1
102
RTVSPost2010Prop56
140
1.0
102
RTVSPost2010PropOp56
 70
     1
102
RTVSPost2010Prop57
140
1.0
102
RTVSPost2010PropOp57
 70
     1
102
RTVSPropertyOp0
 70
     1
102
RTVSPropertyOp1
 70
     1
102
RTVSPropertyOp2
 70
     1
102
RTVSPropertyOp3
 70
     1
102
RTVSPropertyOp4
 70
     1
102
RTVSPropertyOp5
 70
     1
102
RTVSPropertyOp6
 70
     1
102
RTVSPropertyOp7
 70
     1
102
RTVSPropertyOp8
 70
     1
102
RTVSPropertyOp9
 70
     1
102
RTVSPropertyOp10
 70
     1
102
RTVSPropertyOp11
 70
     1
102
RTVSPropertyOp12
 70
     1
102
RTVSPropertyOp13
 70
     1
102
RTVSPropertyOp14
 70
     1
102
RTVSPropertyOp15
 70
     1
102
RTVSPropertyOp16
 70
     1
102
RTVSPropertyOp17
 70
     1
102
RTVSPropertyOp18
 70
     1
102
RTVSPropertyOp19
 70
     1
102
RTVSPropertyOp20
 70
     1
102
RTVSPropertyOp21
 70
     1
102
RTVSPropertyOp22
 70
     1
102
RTVSPropertyOp23
 70
     1
102
RTVSPropertyOp24
 70
     1
102
RTVSPropertyOp25
 70
     1
102
RTVSPropertyOp26
 70
     1
102
RTVSPropertyOp27
 70
     1
102
RTVSPropertyOp28
 70
     1
102
RTVSPropertyOp29
 70
     1
102
RTVSPropertyOp30
 70
     1
102
RTVSPropertyOp31
 70
     1
102
RTVSPropertyOp32
 70
     1
102
RTVSPropertyOp33
 70
     1
102
RTVSPropertyOp34
 70
     1
102
RTVSPropertyOp35
 70
     1
102
RTVSPropertyOp36
 70
     1
102
RTVSPropertyOp37
 70
     1
102
RTVSPropertyOp38
 70
     1
102
RTVSPropertyOp39
 70
     1
102
RTVSPropertyOp40
 70
     1
102
RTVSPropertyOp41
 70
     1
102
RTVSPropertyOp42
 70
     1
102
RTVSPropertyOp43
 70
     1
102
RTVSPropertyOp44
 70
     1
102
RTVSPropertyOp45
 70
     1
102
RTVSPropertyOp46
 70
     1
102
RTVSPropertyOp47
 70
     1
102
RTVSPropertyOp48
 70
     1
102
RTVSPropertyOp49
 70
     1
102
RTVSPropertyOp50
 70
     1
102
RTVSPropertyOp51
 70
     0
102
RTVSPropertyOp52
 70
     0
102
RTVSPropertyOp53
 70
     1
102
RTVSPropertyOp54
 70
     1
102
RTVSPropertyOp55
 70
     1
102
RTVSPropertyOp56
 70
     1
102
RTVSPropertyOp57
 70
     1
102
RTVSPropertyOp58
 70
     1
102
RTVSPropertyOp59
 70
     1
102
RTVSPropertyOp60
 70
     1
102
RTVSPropertyOp61
 70
     1
102
RTVSPropertyOp62
 70
     1
  0
XRECORD
  5
3319
102
{ACAD_REACTORS
330
3318
102
}
330
3318
100
AcDbXrecord
280
     1
102
RTVSPost2010Prop28
280
     0
102
RTVSPost2010PropOp28
 70
     1
102
RTVSPost2010Prop29
280
     1
102
RTVSPost2010PropOp29
 70
     1
102
RTVSPost2010Prop30
280
     1
102
RTVSPost2010PropOp30
 70
     1
102
RTVSPost2010Prop31
280
     0
102
RTVSPost2010PropOp31
 70
     1
102
RTVSPost2010Prop32
280
     0
102
RTVSPost2010PropOp32
 70
     1
102
RTVSPost2010Prop33
280
     0
102
RTVSPost2010PropOp33
 70
     1
102
RTVSPost2010Prop34
280
     0
102
RTVSPost2010PropOp34
 70
     1
102
RTVSPost2010Prop35
280
     0
102
RTVSPost2010PropOp35
 70
     1
102
RTVSPost2010Prop36
280
     0
102
RTVSPost2010PropOp36
 70
     1
102
RTVSPost2010Prop37
 90
       50
102
RTVSPost2010PropOp37
 70
     1
102
RTVSPost2010Prop38
140
0.0
102
RTVSPost2010PropOp38
 70
     1
102
RTVSPost2010Prop39
140
1.0
102
RTVSPost2010PropOp39
 70
     1
102
RTVSPost2010Prop40
 90
        0
102
RTVSPost2010PropOp40
 70
     1
102
RTVSPost2010Prop41ColorIndex
 90
       18
102
RTVSPost2010Prop41ColorRGB
 90
        0
102
RTVSPost2010PropOp41
 70
     1
102
RTVSPost2010Prop42
 90
       50
102
RTVSPost2010PropOp42
 70
     1
102
RTVSPost2010Prop43
 90
        3
102
RTVSPost2010PropOp43
 70
     1
102
RTVSPost2010Prop44ColorIndex
 90
        5
102
RTVSPost2010Prop44ColorRGB
 90
      255
102
RTVSPost2010PropOp44
 70
     1
102
RTVSPost2010Prop45
280
     0
102
RTVSPost2010PropOp45
 70
     1
102
RTVSPost2010Prop46
 90
       50
102
RTVSPost2010PropOp46
 70
     1
102
RTVSPost2010Prop47
 90
       50
102
RTVSPost2010PropOp47
 70
     1
102
RTVSPost2010Prop48
 90
       50
102
RTVSPost2010PropOp48
 70
     1
102
RTVSPost2010Prop49
280
     0
102
RTVSPost2010PropOp49
 70
     1
102
RTVSPost2010Prop50
 90
       50
102
RTVSPost2010PropOp50
 70
     1
102
RTVSPost2010Prop51ColorIndex
 90
      256
102
RTVSPost2010Prop51ColorRGB
 90
-16777216
102
RTVSPost2010PropOp51
 70
     0
102
RTVSPost2010Prop52
140
1.0
102
RTVSPost2010PropOp52
 70
     0
102
RTVSPost2010Prop53
 90
        2
102
RTVSPost2010PropOp53
 70
     1
102
RTVSPost2010Prop54
  1
strokes_ogs.tif
102
RTVSPost2010PropOp54
 70
     1
102
RTVSPost2010Prop55
280
     0
102
RTVSPost2010PropOp55
 70
     1
102
RTVSPost2010Prop56
140
1.0
102
RTVSPost2010PropOp56
 70
     1
102
RTVSPost2010Prop57
140
1.0
102
RTVSPost2010PropOp57
 70
     1
102
RTVSPropertyOp0
 70
     1
102
RTVSPropertyOp1
 70
     1
102
RTVSPropertyOp2
 70
     1
102
RTVSPropertyOp3
 70
     1
102
RTVSPropertyOp4
 70
     1
102
RTVSPropertyOp5
 70
     1
102
RTVSPropertyOp6
 70
     1
102
RTVSPropertyOp7
 70
     1
102
RTVSPropertyOp8
 70
     1
102
RTVSPropertyOp9
 70
     1
102
RTVSPropertyOp10
 70
     1
102
RTVSPropertyOp11
 70
     1
102
RTVSPropertyOp12
 70
     1
102
RTVSPropertyOp13
 70
     1
102
RTVSPropertyOp14
 70
     1
102
RTVSPropertyOp15
 70
     1
102
RTVSPropertyOp16
 70
     1
102
RTVSPropertyOp17
 70
     1
102
RTVSPropertyOp18
 70
     1
102
RTVSPropertyOp19
 70
     1
102
RTVSPropertyOp20
 70
     1
102
RTVSPropertyOp21
 70
     1
102
RTVSPropertyOp22
 70
     1
102
RTVSPropertyOp23
 70
     1
102
RTVSPropertyOp24
 70
     1
102
RTVSPropertyOp25
 70
     1
102
RTVSPropertyOp26
 70
     1
102
RTVSPropertyOp27
 70
     1
102
RTVSPropertyOp28
 70
     1
102
RTVSPropertyOp29
 70
     1
102
RTVSPropertyOp30
 70
     1
102
RTVSPropertyOp31
 70
     1
102
RTVSPropertyOp32
 70
     1
102
RTVSPropertyOp33
 70
     1
102
RTVSPropertyOp34
 70
     1
102
RTVSPropertyOp35
 70
     1
102
RTVSPropertyOp36
 70
     1
102
RTVSPropertyOp37
 70
     1
102
RTVSPropertyOp38
 70
     1
102
RTVSPropertyOp39
 70
     1
102
RTVSPropertyOp40
 70
     1
102
RTVSPropertyOp41
 70
     1
102
RTVSPropertyOp42
 70
     1
102
RTVSPropertyOp43
 70
     1
102
RTVSPropertyOp44
 70
     1
102
RTVSPropertyOp45
 70
     1
102
RTVSPropertyOp46
 70
     1
102
RTVSPropertyOp47
 70
     1
102
RTVSPropertyOp48
 70
     1
102
RTVSPropertyOp49
 70
     1
102
RTVSPropertyOp50
 70
     1
102
RTVSPropertyOp51
 70
     0
102
RTVSPropertyOp52
 70
     0
102
RTVSPropertyOp53
 70
     1
102
RTVSPropertyOp54
 70
     1
102
RTVSPropertyOp55
 70
     1
102
RTVSPropertyOp56
 70
     1
102
RTVSPropertyOp57
 70
     1
102
RTVSPropertyOp58
 70
     1
102
RTVSPropertyOp59
 70
     1
102
RTVSPropertyOp60
 70
     1
102
RTVSPropertyOp61
 70
     1
102
RTVSPropertyOp62
 70
     1
  0
XRECORD
  5
330B
102
{ACAD_REACTORS
330
330A
102
}
330
330A
100
AcDbXrecord
280
     1
102
RTVSPost2010Prop28
280
     0
102
RTVSPost2010PropOp28
 70
     1
102
RTVSPost2010Prop29
280
     1
102
RTVSPost2010PropOp29
 70
     1
102
RTVSPost2010Prop30
280
     1
102
RTVSPost2010PropOp30
 70
     1
102
RTVSPost2010Prop31
280
     0
102
RTVSPost2010PropOp31
 70
     1
102
RTVSPost2010Prop32
280
     0
102
RTVSPost2010PropOp32
 70
     1
102
RTVSPost2010Prop33
280
     0
102
RTVSPost2010PropOp33
 70
     1
102
RTVSPost2010Prop34
280
     0
102
RTVSPost2010PropOp34
 70
     1
102
RTVSPost2010Prop35
280
     0
102
RTVSPost2010PropOp35
 70
     1
102
RTVSPost2010Prop36
280
     0
102
RTVSPost2010PropOp36
 70
     1
102
RTVSPost2010Prop37
 90
       50
102
RTVSPost2010PropOp37
 70
     1
102
RTVSPost2010Prop38
140
0.0
102
RTVSPost2010PropOp38
 70
     1
102
RTVSPost2010Prop39
140
1.0
102
RTVSPost2010PropOp39
 70
     1
102
RTVSPost2010Prop40
 90
        0
102
RTVSPost2010PropOp40
 70
     1
102
RTVSPost2010Prop41ColorIndex
 90
       18
102
RTVSPost2010Prop41ColorRGB
 90
        0
102
RTVSPost2010PropOp41
 70
     1
102
RTVSPost2010Prop42
 90
       50
102
RTVSPost2010PropOp42
 70
     1
102
RTVSPost2010Prop43
 90
        3
102
RTVSPost2010PropOp43
 70
     1
102
RTVSPost2010Prop44ColorIndex
 90
        5
102
RTVSPost2010Prop44ColorRGB
 90
      255
102
RTVSPost2010PropOp44
 70
     1
102
RTVSPost2010Prop45
280
     0
102
RTVSPost2010PropOp45
 70
     1
102
RTVSPost2010Prop46
 90
       50
102
RTVSPost2010PropOp46
 70
     1
102
RTVSPost2010Prop47
 90
       50
102
RTVSPost2010PropOp47
 70
     1
102
RTVSPost2010Prop48
 90
       50
102
RTVSPost2010PropOp48
 70
     1
102
RTVSPost2010Prop49
280
     0
102
RTVSPost2010PropOp49
 70
     1
102
RTVSPost2010Prop50
 90
       50
102
RTVSPost2010PropOp50
 70
     1
102
RTVSPost2010Prop51ColorIndex
 90
      256
102
RTVSPost2010Prop51ColorRGB
 90
-16777216
102
RTVSPost2010PropOp51
 70
     0
102
RTVSPost2010Prop52
140
1.0
102
RTVSPost2010PropOp52
 70
     0
102
RTVSPost2010Prop53
 90
        2
102
RTVSPost2010PropOp53
 70
     1
102
RTVSPost2010Prop54
  1
strokes_ogs.tif
102
RTVSPost2010PropOp54
 70
     1
102
RTVSPost2010Prop55
280
     0
102
RTVSPost2010PropOp55
 70
     1
102
RTVSPost2010Prop56
140
1.0
102
RTVSPost2010PropOp56
 70
     1
102
RTVSPost2010Prop57
140
1.0
102
RTVSPost2010PropOp57
 70
     1
102
RTVSPropertyOp0
 70
     1
102
RTVSPropertyOp1
 70
     1
102
RTVSPropertyOp2
 70
     1
102
RTVSPropertyOp3
 70
     1
102
RTVSPropertyOp4
 70
     1
102
RTVSPropertyOp5
 70
     1
102
RTVSPropertyOp6
 70
     1
102
RTVSPropertyOp7
 70
     1
102
RTVSPropertyOp8
 70
     1
102
RTVSPropertyOp9
 70
     1
102
RTVSPropertyOp10
 70
     1
102
RTVSPropertyOp11
 70
     1
102
RTVSPropertyOp12
 70
     1
102
RTVSPropertyOp13
 70
     1
102
RTVSPropertyOp14
 70
     1
102
RTVSPropertyOp15
 70
     1
102
RTVSPropertyOp16
 70
     1
102
RTVSPropertyOp17
 70
     1
102
RTVSPropertyOp18
 70
     1
102
RTVSPropertyOp19
 70
     1
102
RTVSPropertyOp20
 70
     1
102
RTVSPropertyOp21
 70
     1
102
RTVSPropertyOp22
 70
     1
102
RTVSPropertyOp23
 70
     1
102
RTVSPropertyOp24
 70
     1
102
RTVSPropertyOp25
 70
     1
102
RTVSPropertyOp26
 70
     1
102
RTVSPropertyOp27
 70
     1
102
RTVSPropertyOp28
 70
     1
102
RTVSPropertyOp29
 70
     1
102
RTVSPropertyOp30
 70
     1
102
RTVSPropertyOp31
 70
     1
102
RTVSPropertyOp32
 70
     1
102
RTVSPropertyOp33
 70
     1
102
RTVSPropertyOp34
 70
     1
102
RTVSPropertyOp35
 70
     1
102
RTVSPropertyOp36
 70
     1
102
RTVSPropertyOp37
 70
     1
102
RTVSPropertyOp38
 70
     1
102
RTVSPropertyOp39
 70
     1
102
RTVSPropertyOp40
 70
     1
102
RTVSPropertyOp41
 70
     1
102
RTVSPropertyOp42
 70
     1
102
RTVSPropertyOp43
 70
     1
102
RTVSPropertyOp44
 70
     1
102
RTVSPropertyOp45
 70
     1
102
RTVSPropertyOp46
 70
     1
102
RTVSPropertyOp47
 70
     1
102
RTVSPropertyOp48
 70
     1
102
RTVSPropertyOp49
 70
     1
102
RTVSPropertyOp50
 70
     1
102
RTVSPropertyOp51
 70
     0
102
RTVSPropertyOp52
 70
     0
102
RTVSPropertyOp53
 70
     1
102
RTVSPropertyOp54
 70
     1
102
RTVSPropertyOp55
 70
     1
102
RTVSPropertyOp56
 70
     1
102
RTVSPropertyOp57
 70
     1
102
RTVSPropertyOp58
 70
     1
102
RTVSPropertyOp59
 70
     1
102
RTVSPropertyOp60
 70
     1
102
RTVSPropertyOp61
 70
     1
102
RTVSPropertyOp62
 70
     1
  0
XRECORD
  5
330F
102
{ACAD_REACTORS
330
330E
102
}
330
330E
100
AcDbXrecord
280
     1
102
RTVSPost2010Prop28
280
     0
102
RTVSPost2010PropOp28
 70
     1
102
RTVSPost2010Prop29
280
     1
102
RTVSPost2010PropOp29
 70
     1
102
RTVSPost2010Prop30
280
     1
102
RTVSPost2010PropOp30
 70
     1
102
RTVSPost2010Prop31
280
     0
102
RTVSPost2010PropOp31
 70
     1
102
RTVSPost2010Prop32
280
     0
102
RTVSPost2010PropOp32
 70
     1
102
RTVSPost2010Prop33
280
     0
102
RTVSPost2010PropOp33
 70
     1
102
RTVSPost2010Prop34
280
     0
102
RTVSPost2010PropOp34
 70
     1
102
RTVSPost2010Prop35
280
     0
102
RTVSPost2010PropOp35
 70
     1
102
RTVSPost2010Prop36
280
     0
102
RTVSPost2010PropOp36
 70
     1
102
RTVSPost2010Prop37
 90
       50
102
RTVSPost2010PropOp37
 70
     1
102
RTVSPost2010Prop38
140
0.0
102
RTVSPost2010PropOp38
 70
     1
102
RTVSPost2010Prop39
140
1.0
102
RTVSPost2010PropOp39
 70
     1
102
RTVSPost2010Prop40
 90
        0
102
RTVSPost2010PropOp40
 70
     1
102
RTVSPost2010Prop41ColorIndex
 90
       18
102
RTVSPost2010Prop41ColorRGB
 90
        0
102
RTVSPost2010PropOp41
 70
     1
102
RTVSPost2010Prop42
 90
       50
102
RTVSPost2010PropOp42
 70
     1
102
RTVSPost2010Prop43
 90
        3
102
RTVSPost2010PropOp43
 70
     1
102
RTVSPost2010Prop44ColorIndex
 90
        5
102
RTVSPost2010Prop44ColorRGB
 90
      255
102
RTVSPost2010PropOp44
 70
     1
102
RTVSPost2010Prop45
280
     0
102
RTVSPost2010PropOp45
 70
     1
102
RTVSPost2010Prop46
 90
       50
102
RTVSPost2010PropOp46
 70
     1
102
RTVSPost2010Prop47
 90
       50
102
RTVSPost2010PropOp47
 70
     1
102
RTVSPost2010Prop48
 90
       50
102
RTVSPost2010PropOp48
 70
     1
102
RTVSPost2010Prop49
280
     0
102
RTVSPost2010PropOp49
 70
     1
102
RTVSPost2010Prop50
 90
       50
102
RTVSPost2010PropOp50
 70
     1
102
RTVSPost2010Prop51ColorIndex
 90
      256
102
RTVSPost2010Prop51ColorRGB
 90
-16777216
102
RTVSPost2010PropOp51
 70
     0
102
RTVSPost2010Prop52
140
1.0
102
RTVSPost2010PropOp52
 70
     0
102
RTVSPost2010Prop53
 90
        2
102
RTVSPost2010PropOp53
 70
     1
102
RTVSPost2010Prop54
  1
strokes_ogs.tif
102
RTVSPost2010PropOp54
 70
     1
102
RTVSPost2010Prop55
280
     0
102
RTVSPost2010PropOp55
 70
     1
102
RTVSPost2010Prop56
140
1.0
102
RTVSPost2010PropOp56
 70
     1
102
RTVSPost2010Prop57
140
1.0
102
RTVSPost2010PropOp57
 70
     1
102
RTVSPropertyOp0
 70
     1
102
RTVSPropertyOp1
 70
     1
102
RTVSPropertyOp2
 70
     1
102
RTVSPropertyOp3
 70
     1
102
RTVSPropertyOp4
 70
     1
102
RTVSPropertyOp5
 70
     1
102
RTVSPropertyOp6
 70
     1
102
RTVSPropertyOp7
 70
     1
102
RTVSPropertyOp8
 70
     1
102
RTVSPropertyOp9
 70
     1
102
RTVSPropertyOp10
 70
     1
102
RTVSPropertyOp11
 70
     1
102
RTVSPropertyOp12
 70
     1
102
RTVSPropertyOp13
 70
     1
102
RTVSPropertyOp14
 70
     1
102
RTVSPropertyOp15
 70
     1
102
RTVSPropertyOp16
 70
     1
102
RTVSPropertyOp17
 70
     1
102
RTVSPropertyOp18
 70
     1
102
RTVSPropertyOp19
 70
     1
102
RTVSPropertyOp20
 70
     1
102
RTVSPropertyOp21
 70
     1
102
RTVSPropertyOp22
 70
     1
102
RTVSPropertyOp23
 70
     1
102
RTVSPropertyOp24
 70
     1
102
RTVSPropertyOp25
 70
     1
102
RTVSPropertyOp26
 70
     1
102
RTVSPropertyOp27
 70
     1
102
RTVSPropertyOp28
 70
     1
102
RTVSPropertyOp29
 70
     1
102
RTVSPropertyOp30
 70
     1
102
RTVSPropertyOp31
 70
     1
102
RTVSPropertyOp32
 70
     1
102
RTVSPropertyOp33
 70
     1
102
RTVSPropertyOp34
 70
     1
102
RTVSPropertyOp35
 70
     1
102
RTVSPropertyOp36
 70
     1
102
RTVSPropertyOp37
 70
     1
102
RTVSPropertyOp38
 70
     1
102
RTVSPropertyOp39
 70
     1
102
RTVSPropertyOp40
 70
     1
102
RTVSPropertyOp41
 70
     1
102
RTVSPropertyOp42
 70
     1
102
RTVSPropertyOp43
 70
     1
102
RTVSPropertyOp44
 70
     1
102
RTVSPropertyOp45
 70
     1
102
RTVSPropertyOp46
 70
     1
102
RTVSPropertyOp47
 70
     1
102
RTVSPropertyOp48
 70
     1
102
RTVSPropertyOp49
 70
     1
102
RTVSPropertyOp50
 70
     1
102
RTVSPropertyOp51
 70
     0
102
RTVSPropertyOp52
 70
     0
102
RTVSPropertyOp53
 70
     1
102
RTVSPropertyOp54
 70
     1
102
RTVSPropertyOp55
 70
     1
102
RTVSPropertyOp56
 70
     1
102
RTVSPropertyOp57
 70
     1
102
RTVSPropertyOp58
 70
     1
102
RTVSPropertyOp59
 70
     1
102
RTVSPropertyOp60
 70
     1
102
RTVSPropertyOp61
 70
     1
102
RTVSPropertyOp62
 70
     1
  0
XRECORD
  5
3329
102
{ACAD_REACTORS
330
3328
102
}
330
3328
100
AcDbXrecord
280
     1
102
RTVSPost2010Prop28
280
     0
102
RTVSPost2010PropOp28
 70
     1
102
RTVSPost2010Prop29
280
     1
102
RTVSPost2010PropOp29
 70
     1
102
RTVSPost2010Prop30
280
     1
102
RTVSPost2010PropOp30
 70
     1
102
RTVSPost2010Prop31
280
     0
102
RTVSPost2010PropOp31
 70
     1
102
RTVSPost2010Prop32
280
     0
102
RTVSPost2010PropOp32
 70
     1
102
RTVSPost2010Prop33
280
     0
102
RTVSPost2010PropOp33
 70
     1
102
RTVSPost2010Prop34
280
     0
102
RTVSPost2010PropOp34
 70
     1
102
RTVSPost2010Prop35
280
     0
102
RTVSPost2010PropOp35
 70
     1
102
RTVSPost2010Prop36
280
     0
102
RTVSPost2010PropOp36
 70
     1
102
RTVSPost2010Prop37
 90
       50
102
RTVSPost2010PropOp37
 70
     0
102
RTVSPost2010Prop38
140
0.0
102
RTVSPost2010PropOp38
 70
     0
102
RTVSPost2010Prop39
140
1.0
102
RTVSPost2010PropOp39
 70
     0
102
RTVSPost2010Prop40
 90
        0
102
RTVSPost2010PropOp40
 70
     0
102
RTVSPost2010Prop41ColorIndex
 90
       18
102
RTVSPost2010Prop41ColorRGB
 90
        0
102
RTVSPost2010PropOp41
 70
     0
102
RTVSPost2010Prop42
 90
       50
102
RTVSPost2010PropOp42
 70
     0
102
RTVSPost2010Prop43
 90
        3
102
RTVSPost2010PropOp43
 70
     0
102
RTVSPost2010Prop44ColorIndex
 90
        5
102
RTVSPost2010Prop44ColorRGB
 90
      255
102
RTVSPost2010PropOp44
 70
     0
102
RTVSPost2010Prop45
280
     0
102
RTVSPost2010PropOp45
 70
     1
102
RTVSPost2010Prop46
 90
       50
102
RTVSPost2010PropOp46
 70
     0
102
RTVSPost2010Prop47
 90
       50
102
RTVSPost2010PropOp47
 70
     0
102
RTVSPost2010Prop48
 90
       50
102
RTVSPost2010PropOp48
 70
     0
102
RTVSPost2010Prop49
280
     0
102
RTVSPost2010PropOp49
 70
     1
102
RTVSPost2010Prop50
 90
       50
102
RTVSPost2010PropOp50
 70
     0
102
RTVSPost2010Prop51ColorIndex
 90
      256
102
RTVSPost2010Prop51ColorRGB
 90
-16777216
102
RTVSPost2010PropOp51
 70
     0
102
RTVSPost2010Prop52
140
1.0
102
RTVSPost2010PropOp52
 70
     0
102
RTVSPost2010Prop53
 90
        2
102
RTVSPost2010PropOp53
 70
     0
102
RTVSPost2010Prop54
  1
strokes_ogs.tif
102
RTVSPost2010PropOp54
 70
     0
102
RTVSPost2010Prop55
280
     0
102
RTVSPost2010PropOp55
 70
     1
102
RTVSPost2010Prop56
140
1.0
102
RTVSPost2010PropOp56
 70
     0
102
RTVSPost2010Prop57
140
1.0
102
RTVSPost2010PropOp57
 70
     0
102
RTVSPropertyOp0
 70
     0
102
RTVSPropertyOp1
 70
     0
102
RTVSPropertyOp2
 70
     0
102
RTVSPropertyOp3
 70
     0
102
RTVSPropertyOp4
 70
     0
102
RTVSPropertyOp5
 70
     0
102
RTVSPropertyOp6
 70
     0
102
RTVSPropertyOp7
 70
     0
102
RTVSPropertyOp8
 70
     0
102
RTVSPropertyOp9
 70
     0
102
RTVSPropertyOp10
 70
     0
102
RTVSPropertyOp11
 70
     0
102
RTVSPropertyOp12
 70
     0
102
RTVSPropertyOp13
 70
     0
102
RTVSPropertyOp14
 70
     2
102
RTVSPropertyOp15
 70
     0
102
RTVSPropertyOp16
 70
     0
102
RTVSPropertyOp17
 70
     0
102
RTVSPropertyOp18
 70
     0
102
RTVSPropertyOp19
 70
     0
102
RTVSPropertyOp20
 70
     0
102
RTVSPropertyOp21
 70
     0
102
RTVSPropertyOp22
 70
     0
102
RTVSPropertyOp23
 70
     0
102
RTVSPropertyOp24
 70
     0
102
RTVSPropertyOp25
 70
     0
102
RTVSPropertyOp26
 70
     0
102
RTVSPropertyOp27
 70
     0
102
RTVSPropertyOp28
 70
     1
102
RTVSPropertyOp29
 70
     1
102
RTVSPropertyOp30
 70
     1
102
RTVSPropertyOp31
 70
     1
102
RTVSPropertyOp32
 70
     1
102
RTVSPropertyOp33
 70
     1
102
RTVSPropertyOp34
 70
     1
102
RTVSPropertyOp35
 70
     1
102
RTVSPropertyOp36
 70
     1
102
RTVSPropertyOp37
 70
     0
102
RTVSPropertyOp38
 70
     0
102
RTVSPropertyOp39
 70
     0
102
RTVSPropertyOp40
 70
     0
102
RTVSPropertyOp41
 70
     0
102
RTVSPropertyOp42
 70
     0
102
RTVSPropertyOp43
 70
     0
102
RTVSPropertyOp44
 70
     0
102
RTVSPropertyOp45
 70
     1
102
RTVSPropertyOp46
 70
     0
102
RTVSPropertyOp47
 70
     0
102
RTVSPropertyOp48
 70
     0
102
RTVSPropertyOp49
 70
     1
102
RTVSPropertyOp50
 70
     0
102
RTVSPropertyOp51
 70
     0
102
RTVSPropertyOp52
 70
     0
102
RTVSPropertyOp53
 70
     0
102
RTVSPropertyOp54
 70
     0
102
RTVSPropertyOp55
 70
     1
102
RTVSPropertyOp56
 70
     0
102
RTVSPropertyOp57
 70
     0
102
RTVSPropertyOp58
 70
     1
102
RTVSPropertyOp59
 70
     1
102
RTVSPropertyOp60
 70
     1
102
RTVSPropertyOp61
 70
     1
102
RTVSPropertyOp62
 70
     1
  0
XRECORD
  5
3317
102
{ACAD_REACTORS
330
3316
102
}
330
3316
100
AcDbXrecord
280
     1
102
RTVSPost2010Prop28
280
     0
102
RTVSPost2010PropOp28
 70
     1
102
RTVSPost2010Prop29
280
     1
102
RTVSPost2010PropOp29
 70
     1
102
RTVSPost2010Prop30
280
     1
102
RTVSPost2010PropOp30
 70
     1
102
RTVSPost2010Prop31
280
     0
102
RTVSPost2010PropOp31
 70
     1
102
RTVSPost2010Prop32
280
     0
102
RTVSPost2010PropOp32
 70
     1
102
RTVSPost2010Prop33
280
     0
102
RTVSPost2010PropOp33
 70
     1
102
RTVSPost2010Prop34
280
     0
102
RTVSPost2010PropOp34
 70
     1
102
RTVSPost2010Prop35
280
     0
102
RTVSPost2010PropOp35
 70
     1
102
RTVSPost2010Prop36
280
     0
102
RTVSPost2010PropOp36
 70
     1
102
RTVSPost2010Prop37
 90
       50
102
RTVSPost2010PropOp37
 70
     1
102
RTVSPost2010Prop38
140
0.0
102
RTVSPost2010PropOp38
 70
     1
102
RTVSPost2010Prop39
140
1.0
102
RTVSPost2010PropOp39
 70
     1
102
RTVSPost2010Prop40
 90
        0
102
RTVSPost2010PropOp40
 70
     1
102
RTVSPost2010Prop41ColorIndex
 90
       18
102
RTVSPost2010Prop41ColorRGB
 90
        0
102
RTVSPost2010PropOp41
 70
     1
102
RTVSPost2010Prop42
 90
       50
102
RTVSPost2010PropOp42
 70
     1
102
RTVSPost2010Prop43
 90
        3
102
RTVSPost2010PropOp43
 70
     1
102
RTVSPost2010Prop44ColorIndex
 90
        5
102
RTVSPost2010Prop44ColorRGB
 90
      255
102
RTVSPost2010PropOp44
 70
     1
102
RTVSPost2010Prop45
280
     0
102
RTVSPost2010PropOp45
 70
     1
102
RTVSPost2010Prop46
 90
       50
102
RTVSPost2010PropOp46
 70
     1
102
RTVSPost2010Prop47
 90
       50
102
RTVSPost2010PropOp47
 70
     1
102
RTVSPost2010Prop48
 90
       50
102
RTVSPost2010PropOp48
 70
     1
102
RTVSPost2010Prop49
280
     0
102
RTVSPost2010PropOp49
 70
     1
102
RTVSPost2010Prop50
 90
       50
102
RTVSPost2010PropOp50
 70
     1
102
RTVSPost2010Prop51ColorIndex
 90
      256
102
RTVSPost2010Prop51ColorRGB
 90
-16777216
102
RTVSPost2010PropOp51
 70
     0
102
RTVSPost2010Prop52
140
1.0
102
RTVSPost2010PropOp52
 70
     0
102
RTVSPost2010Prop53
 90
        2
102
RTVSPost2010PropOp53
 70
     1
102
RTVSPost2010Prop54
  1
strokes_ogs.tif
102
RTVSPost2010PropOp54
 70
     1
102
RTVSPost2010Prop55
280
     0
102
RTVSPost2010PropOp55
 70
     1
102
RTVSPost2010Prop56
140
1.0
102
RTVSPost2010PropOp56
 70
     1
102
RTVSPost2010Prop57
140
1.0
102
RTVSPost2010PropOp57
 70
     1
102
RTVSPropertyOp0
 70
     1
102
RTVSPropertyOp1
 70
     1
102
RTVSPropertyOp2
 70
     1
102
RTVSPropertyOp3
 70
     1
102
RTVSPropertyOp4
 70
     1
102
RTVSPropertyOp5
 70
     1
102
RTVSPropertyOp6
 70
     1
102
RTVSPropertyOp7
 70
     1
102
RTVSPropertyOp8
 70
     1
102
RTVSPropertyOp9
 70
     1
102
RTVSPropertyOp10
 70
     1
102
RTVSPropertyOp11
 70
     1
102
RTVSPropertyOp12
 70
     1
102
RTVSPropertyOp13
 70
     1
102
RTVSPropertyOp14
 70
     1
102
RTVSPropertyOp15
 70
     1
102
RTVSPropertyOp16
 70
     1
102
RTVSPropertyOp17
 70
     1
102
RTVSPropertyOp18
 70
     1
102
RTVSPropertyOp19
 70
     1
102
RTVSPropertyOp20
 70
     1
102
RTVSPropertyOp21
 70
     1
102
RTVSPropertyOp22
 70
     1
102
RTVSPropertyOp23
 70
     1
102
RTVSPropertyOp24
 70
     1
102
RTVSPropertyOp25
 70
     1
102
RTVSPropertyOp26
 70
     1
102
RTVSPropertyOp27
 70
     1
102
RTVSPropertyOp28
 70
     1
102
RTVSPropertyOp29
 70
     1
102
RTVSPropertyOp30
 70
     1
102
RTVSPropertyOp31
 70
     1
102
RTVSPropertyOp32
 70
     1
102
RTVSPropertyOp33
 70
     1
102
RTVSPropertyOp34
 70
     1
102
RTVSPropertyOp35
 70
     1
102
RTVSPropertyOp36
 70
     1
102
RTVSPropertyOp37
 70
     1
102
RTVSPropertyOp38
 70
     1
102
RTVSPropertyOp39
 70
     1
102
RTVSPropertyOp40
 70
     1
102
RTVSPropertyOp41
 70
     1
102
RTVSPropertyOp42
 70
     1
102
RTVSPropertyOp43
 70
     1
102
RTVSPropertyOp44
 70
     1
102
RTVSPropertyOp45
 70
     1
102
RTVSPropertyOp46
 70
     1
102
RTVSPropertyOp47
 70
     1
102
RTVSPropertyOp48
 70
     1
102
RTVSPropertyOp49
 70
     1
102
RTVSPropertyOp50
 70
     1
102
RTVSPropertyOp51
 70
     0
102
RTVSPropertyOp52
 70
     0
102
RTVSPropertyOp53
 70
     1
102
RTVSPropertyOp54
 70
     1
102
RTVSPropertyOp55
 70
     1
102
RTVSPropertyOp56
 70
     1
102
RTVSPropertyOp57
 70
     1
102
RTVSPropertyOp58
 70
     1
102
RTVSPropertyOp59
 70
     1
102
RTVSPropertyOp60
 70
     1
102
RTVSPropertyOp61
 70
     1
102
RTVSPropertyOp62
 70
     1
  0
XRECORD
  5
32FB
102
{ACAD_REACTORS
330
32FA
102
}
330
32FA
100
AcDbXrecord
280
     1
102
RTVSPost2010Prop28
280
     0
102
RTVSPost2010PropOp28
 70
     1
102
RTVSPost2010Prop29
280
     1
102
RTVSPost2010PropOp29
 70
     1
102
RTVSPost2010Prop30
280
     1
102
RTVSPost2010PropOp30
 70
     1
102
RTVSPost2010Prop31
280
     0
102
RTVSPost2010PropOp31
 70
     1
102
RTVSPost2010Prop32
280
     0
102
RTVSPost2010PropOp32
 70
     1
102
RTVSPost2010Prop33
280
     0
102
RTVSPost2010PropOp33
 70
     1
102
RTVSPost2010Prop34
280
     0
102
RTVSPost2010PropOp34
 70
     1
102
RTVSPost2010Prop35
280
     0
102
RTVSPost2010PropOp35
 70
     1
102
RTVSPost2010Prop36
280
     0
102
RTVSPost2010PropOp36
 70
     1
102
RTVSPost2010Prop37
 90
       50
102
RTVSPost2010PropOp37
 70
     1
102
RTVSPost2010Prop38
140
0.0
102
RTVSPost2010PropOp38
 70
     1
102
RTVSPost2010Prop39
140
1.0
102
RTVSPost2010PropOp39
 70
     1
102
RTVSPost2010Prop40
 90
        0
102
RTVSPost2010PropOp40
 70
     1
102
RTVSPost2010Prop41ColorIndex
 90
       18
102
RTVSPost2010Prop41ColorRGB
 90
        0
102
RTVSPost2010PropOp41
 70
     1
102
RTVSPost2010Prop42
 90
       50
102
RTVSPost2010PropOp42
 70
     1
102
RTVSPost2010Prop43
 90
        3
102
RTVSPost2010PropOp43
 70
     1
102
RTVSPost2010Prop44ColorIndex
 90
        5
102
RTVSPost2010Prop44ColorRGB
 90
      255
102
RTVSPost2010PropOp44
 70
     1
102
RTVSPost2010Prop45
280
     0
102
RTVSPost2010PropOp45
 70
     1
102
RTVSPost2010Prop46
 90
       50
102
RTVSPost2010PropOp46
 70
     1
102
RTVSPost2010Prop47
 90
       50
102
RTVSPost2010PropOp47
 70
     1
102
RTVSPost2010Prop48
 90
       50
102
RTVSPost2010PropOp48
 70
     1
102
RTVSPost2010Prop49
280
     0
102
RTVSPost2010PropOp49
 70
     1
102
RTVSPost2010Prop50
 90
       50
102
RTVSPost2010PropOp50
 70
     1
102
RTVSPost2010Prop51ColorIndex
 90
      256
102
RTVSPost2010Prop51ColorRGB
 90
-16777216
102
RTVSPost2010PropOp51
 70
     0
102
RTVSPost2010Prop52
140
1.0
102
RTVSPost2010PropOp52
 70
     0
102
RTVSPost2010Prop53
 90
        2
102
RTVSPost2010PropOp53
 70
     1
102
RTVSPost2010Prop54
  1
strokes_ogs.tif
102
RTVSPost2010PropOp54
 70
     1
102
RTVSPost2010Prop55
280
     0
102
RTVSPost2010PropOp55
 70
     1
102
RTVSPost2010Prop56
140
1.0
102
RTVSPost2010PropOp56
 70
     1
102
RTVSPost2010Prop57
140
1.0
102
RTVSPost2010PropOp57
 70
     1
102
RTVSPropertyOp0
 70
     1
102
RTVSPropertyOp1
 70
     1
102
RTVSPropertyOp2
 70
     1
102
RTVSPropertyOp3
 70
     1
102
RTVSPropertyOp4
 70
     1
102
RTVSPropertyOp5
 70
     1
102
RTVSPropertyOp6
 70
     1
102
RTVSPropertyOp7
 70
     1
102
RTVSPropertyOp8
 70
     1
102
RTVSPropertyOp9
 70
     1
102
RTVSPropertyOp10
 70
     1
102
RTVSPropertyOp11
 70
     1
102
RTVSPropertyOp12
 70
     1
102
RTVSPropertyOp13
 70
     1
102
RTVSPropertyOp14
 70
     1
102
RTVSPropertyOp15
 70
     1
102
RTVSPropertyOp16
 70
     1
102
RTVSPropertyOp17
 70
     1
102
RTVSPropertyOp18
 70
     1
102
RTVSPropertyOp19
 70
     1
102
RTVSPropertyOp20
 70
     1
102
RTVSPropertyOp21
 70
     1
102
RTVSPropertyOp22
 70
     1
102
RTVSPropertyOp23
 70
     1
102
RTVSPropertyOp24
 70
     1
102
RTVSPropertyOp25
 70
     1
102
RTVSPropertyOp26
 70
     1
102
RTVSPropertyOp27
 70
     1
102
RTVSPropertyOp28
 70
     1
102
RTVSPropertyOp29
 70
     1
102
RTVSPropertyOp30
 70
     1
102
RTVSPropertyOp31
 70
     1
102
RTVSPropertyOp32
 70
     1
102
RTVSPropertyOp33
 70
     1
102
RTVSPropertyOp34
 70
     1
102
RTVSPropertyOp35
 70
     1
102
RTVSPropertyOp36
 70
     1
102
RTVSPropertyOp37
 70
     1
102
RTVSPropertyOp38
 70
     1
102
RTVSPropertyOp39
 70
     1
102
RTVSPropertyOp40
 70
     1
102
RTVSPropertyOp41
 70
     1
102
RTVSPropertyOp42
 70
     1
102
RTVSPropertyOp43
 70
     1
102
RTVSPropertyOp44
 70
     1
102
RTVSPropertyOp45
 70
     1
102
RTVSPropertyOp46
 70
     1
102
RTVSPropertyOp47
 70
     1
102
RTVSPropertyOp48
 70
     1
102
RTVSPropertyOp49
 70
     1
102
RTVSPropertyOp50
 70
     1
102
RTVSPropertyOp51
 70
     0
102
RTVSPropertyOp52
 70
     0
102
RTVSPropertyOp53
 70
     1
102
RTVSPropertyOp54
 70
     1
102
RTVSPropertyOp55
 70
     1
102
RTVSPropertyOp56
 70
     1
102
RTVSPropertyOp57
 70
     1
102
RTVSPropertyOp58
 70
     1
102
RTVSPropertyOp59
 70
     1
102
RTVSPropertyOp60
 70
     1
102
RTVSPropertyOp61
 70
     1
102
RTVSPropertyOp62
 70
     1
  0
XRECORD
  5
32FD
102
{ACAD_REACTORS
330
32FC
102
}
330
32FC
100
AcDbXrecord
280
     1
102
RTVSPost2010Prop28
280
     0
102
RTVSPost2010PropOp28
 70
     1
102
RTVSPost2010Prop29
280
     1
102
RTVSPost2010PropOp29
 70
     1
102
RTVSPost2010Prop30
280
     1
102
RTVSPost2010PropOp30
 70
     1
102
RTVSPost2010Prop31
280
     0
102
RTVSPost2010PropOp31
 70
     1
102
RTVSPost2010Prop32
280
     0
102
RTVSPost2010PropOp32
 70
     1
102
RTVSPost2010Prop33
280
     0
102
RTVSPost2010PropOp33
 70
     1
102
RTVSPost2010Prop34
280
     0
102
RTVSPost2010PropOp34
 70
     1
102
RTVSPost2010Prop35
280
     0
102
RTVSPost2010PropOp35
 70
     1
102
RTVSPost2010Prop36
280
     0
102
RTVSPost2010PropOp36
 70
     1
102
RTVSPost2010Prop37
 90
       50
102
RTVSPost2010PropOp37
 70
     1
102
RTVSPost2010Prop38
140
0.0
102
RTVSPost2010PropOp38
 70
     1
102
RTVSPost2010Prop39
140
1.0
102
RTVSPost2010PropOp39
 70
     1
102
RTVSPost2010Prop40
 90
        0
102
RTVSPost2010PropOp40
 70
     1
102
RTVSPost2010Prop41ColorIndex
 90
       18
102
RTVSPost2010Prop41ColorRGB
 90
        0
102
RTVSPost2010PropOp41
 70
     1
102
RTVSPost2010Prop42
 90
       50
102
RTVSPost2010PropOp42
 70
     1
102
RTVSPost2010Prop43
 90
        3
102
RTVSPost2010PropOp43
 70
     1
102
RTVSPost2010Prop44ColorIndex
 90
        5
102
RTVSPost2010Prop44ColorRGB
 90
      255
102
RTVSPost2010PropOp44
 70
     1
102
RTVSPost2010Prop45
280
     0
102
RTVSPost2010PropOp45
 70
     1
102
RTVSPost2010Prop46
 90
       50
102
RTVSPost2010PropOp46
 70
     1
102
RTVSPost2010Prop47
 90
       50
102
RTVSPost2010PropOp47
 70
     1
102
RTVSPost2010Prop48
 90
       50
102
RTVSPost2010PropOp48
 70
     1
102
RTVSPost2010Prop49
280
     0
102
RTVSPost2010PropOp49
 70
     1
102
RTVSPost2010Prop50
 90
       50
102
RTVSPost2010PropOp50
 70
     1
102
RTVSPost2010Prop51ColorIndex
 90
      256
102
RTVSPost2010Prop51ColorRGB
 90
-16777216
102
RTVSPost2010PropOp51
 70
     0
102
RTVSPost2010Prop52
140
1.0
102
RTVSPost2010PropOp52
 70
     0
102
RTVSPost2010Prop53
 90
        2
102
RTVSPost2010PropOp53
 70
     1
102
RTVSPost2010Prop54
  1
strokes_ogs.tif
102
RTVSPost2010PropOp54
 70
     1
102
RTVSPost2010Prop55
280
     0
102
RTVSPost2010PropOp55
 70
     1
102
RTVSPost2010Prop56
140
1.0
102
RTVSPost2010PropOp56
 70
     1
102
RTVSPost2010Prop57
140
1.0
102
RTVSPost2010PropOp57
 70
     1
102
RTVSPropertyOp0
 70
     1
102
RTVSPropertyOp1
 70
     1
102
RTVSPropertyOp2
 70
     1
102
RTVSPropertyOp3
 70
     1
102
RTVSPropertyOp4
 70
     1
102
RTVSPropertyOp5
 70
     1
102
RTVSPropertyOp6
 70
     1
102
RTVSPropertyOp7
 70
     1
102
RTVSPropertyOp8
 70
     1
102
RTVSPropertyOp9
 70
     1
102
RTVSPropertyOp10
 70
     1
102
RTVSPropertyOp11
 70
     1
102
RTVSPropertyOp12
 70
     1
102
RTVSPropertyOp13
 70
     1
102
RTVSPropertyOp14
 70
     1
102
RTVSPropertyOp15
 70
     1
102
RTVSPropertyOp16
 70
     1
102
RTVSPropertyOp17
 70
     1
102
RTVSPropertyOp18
 70
     1
102
RTVSPropertyOp19
 70
     1
102
RTVSPropertyOp20
 70
     1
102
RTVSPropertyOp21
 70
     1
102
RTVSPropertyOp22
 70
     1
102
RTVSPropertyOp23
 70
     1
102
RTVSPropertyOp24
 70
     1
102
RTVSPropertyOp25
 70
     1
102
RTVSPropertyOp26
 70
     1
102
RTVSPropertyOp27
 70
     1
102
RTVSPropertyOp28
 70
     1
102
RTVSPropertyOp29
 70
     1
102
RTVSPropertyOp30
 70
     1
102
RTVSPropertyOp31
 70
     1
102
RTVSPropertyOp32
 70
     1
102
RTVSPropertyOp33
 70
     1
102
RTVSPropertyOp34
 70
     1
102
RTVSPropertyOp35
 70
     1
102
RTVSPropertyOp36
 70
     1
102
RTVSPropertyOp37
 70
     1
102
RTVSPropertyOp38
 70
     1
102
RTVSPropertyOp39
 70
     1
102
RTVSPropertyOp40
 70
     1
102
RTVSPropertyOp41
 70
     1
102
RTVSPropertyOp42
 70
     1
102
RTVSPropertyOp43
 70
     1
102
RTVSPropertyOp44
 70
     1
102
RTVSPropertyOp45
 70
     1
102
RTVSPropertyOp46
 70
     1
102
RTVSPropertyOp47
 70
     1
102
RTVSPropertyOp48
 70
     1
102
RTVSPropertyOp49
 70
     1
102
RTVSPropertyOp50
 70
     1
102
RTVSPropertyOp51
 70
     0
102
RTVSPropertyOp52
 70
     0
102
RTVSPropertyOp53
 70
     1
102
RTVSPropertyOp54
 70
     1
102
RTVSPropertyOp55
 70
     1
102
RTVSPropertyOp56
 70
     1
102
RTVSPropertyOp57
 70
     1
102
RTVSPropertyOp58
 70
     1
102
RTVSPropertyOp59
 70
     1
102
RTVSPropertyOp60
 70
     1
102
RTVSPropertyOp61
 70
     1
102
RTVSPropertyOp62
 70
     1
  0
XRECORD
  5
32FF
102
{ACAD_REACTORS
330
32FE
102
}
330
32FE
100
AcDbXrecord
280
     1
102
RTVSPost2010Prop28
280
     0
102
RTVSPost2010PropOp28
 70
     1
102
RTVSPost2010Prop29
280
     1
102
RTVSPost2010PropOp29
 70
     1
102
RTVSPost2010Prop30
280
     1
102
RTVSPost2010PropOp30
 70
     1
102
RTVSPost2010Prop31
280
     0
102
RTVSPost2010PropOp31
 70
     1
102
RTVSPost2010Prop32
280
     0
102
RTVSPost2010PropOp32
 70
     1
102
RTVSPost2010Prop33
280
     0
102
RTVSPost2010PropOp33
 70
     1
102
RTVSPost2010Prop34
280
     0
102
RTVSPost2010PropOp34
 70
     1
102
RTVSPost2010Prop35
280
     0
102
RTVSPost2010PropOp35
 70
     1
102
RTVSPost2010Prop36
280
     0
102
RTVSPost2010PropOp36
 70
     1
102
RTVSPost2010Prop37
 90
       50
102
RTVSPost2010PropOp37
 70
     1
102
RTVSPost2010Prop38
140
0.0
102
RTVSPost2010PropOp38
 70
     1
102
RTVSPost2010Prop39
140
1.0
102
RTVSPost2010PropOp39
 70
     1
102
RTVSPost2010Prop40
 90
        0
102
RTVSPost2010PropOp40
 70
     1
102
RTVSPost2010Prop41ColorIndex
 90
       18
102
RTVSPost2010Prop41ColorRGB
 90
        0
102
RTVSPost2010PropOp41
 70
     1
102
RTVSPost2010Prop42
 90
       50
102
RTVSPost2010PropOp42
 70
     1
102
RTVSPost2010Prop43
 90
        3
102
RTVSPost2010PropOp43
 70
     1
102
RTVSPost2010Prop44ColorIndex
 90
        5
102
RTVSPost2010Prop44ColorRGB
 90
      255
102
RTVSPost2010PropOp44
 70
     1
102
RTVSPost2010Prop45
280
     0
102
RTVSPost2010PropOp45
 70
     1
102
RTVSPost2010Prop46
 90
       50
102
RTVSPost2010PropOp46
 70
     1
102
RTVSPost2010Prop47
 90
       50
102
RTVSPost2010PropOp47
 70
     1
102
RTVSPost2010Prop48
 90
       50
102
RTVSPost2010PropOp48
 70
     1
102
RTVSPost2010Prop49
280
     0
102
RTVSPost2010PropOp49
 70
     1
102
RTVSPost2010Prop50
 90
       50
102
RTVSPost2010PropOp50
 70
     1
102
RTVSPost2010Prop51ColorIndex
 90
      256
102
RTVSPost2010Prop51ColorRGB
 90
-16777216
102
RTVSPost2010PropOp51
 70
     0
102
RTVSPost2010Prop52
140
1.0
102
RTVSPost2010PropOp52
 70
     0
102
RTVSPost2010Prop53
 90
        2
102
RTVSPost2010PropOp53
 70
     1
102
RTVSPost2010Prop54
  1
strokes_ogs.tif
102
RTVSPost2010PropOp54
 70
     1
102
RTVSPost2010Prop55
280
     0
102
RTVSPost2010PropOp55
 70
     1
102
RTVSPost2010Prop56
140
1.0
102
RTVSPost2010PropOp56
 70
     1
102
RTVSPost2010Prop57
140
1.0
102
RTVSPost2010PropOp57
 70
     1
102
RTVSPropertyOp0
 70
     1
102
RTVSPropertyOp1
 70
     1
102
RTVSPropertyOp2
 70
     1
102
RTVSPropertyOp3
 70
     1
102
RTVSPropertyOp4
 70
     1
102
RTVSPropertyOp5
 70
     1
102
RTVSPropertyOp6
 70
     1
102
RTVSPropertyOp7
 70
     1
102
RTVSPropertyOp8
 70
     1
102
RTVSPropertyOp9
 70
     1
102
RTVSPropertyOp10
 70
     1
102
RTVSPropertyOp11
 70
     1
102
RTVSPropertyOp12
 70
     1
102
RTVSPropertyOp13
 70
     1
102
RTVSPropertyOp14
 70
     1
102
RTVSPropertyOp15
 70
     1
102
RTVSPropertyOp16
 70
     1
102
RTVSPropertyOp17
 70
     1
102
RTVSPropertyOp18
 70
     1
102
RTVSPropertyOp19
 70
     1
102
RTVSPropertyOp20
 70
     1
102
RTVSPropertyOp21
 70
     1
102
RTVSPropertyOp22
 70
     1
102
RTVSPropertyOp23
 70
     1
102
RTVSPropertyOp24
 70
     1
102
RTVSPropertyOp25
 70
     1
102
RTVSPropertyOp26
 70
     1
102
RTVSPropertyOp27
 70
     1
102
RTVSPropertyOp28
 70
     1
102
RTVSPropertyOp29
 70
     1
102
RTVSPropertyOp30
 70
     1
102
RTVSPropertyOp31
 70
     1
102
RTVSPropertyOp32
 70
     1
102
RTVSPropertyOp33
 70
     1
102
RTVSPropertyOp34
 70
     1
102
RTVSPropertyOp35
 70
     1
102
RTVSPropertyOp36
 70
     1
102
RTVSPropertyOp37
 70
     1
102
RTVSPropertyOp38
 70
     1
102
RTVSPropertyOp39
 70
     1
102
RTVSPropertyOp40
 70
     1
102
RTVSPropertyOp41
 70
     1
102
RTVSPropertyOp42
 70
     1
102
RTVSPropertyOp43
 70
     1
102
RTVSPropertyOp44
 70
     1
102
RTVSPropertyOp45
 70
     1
102
RTVSPropertyOp46
 70
     1
102
RTVSPropertyOp47
 70
     1
102
RTVSPropertyOp48
 70
     1
102
RTVSPropertyOp49
 70
     1
102
RTVSPropertyOp50
 70
     1
102
RTVSPropertyOp51
 70
     0
102
RTVSPropertyOp52
 70
     0
102
RTVSPropertyOp53
 70
     1
102
RTVSPropertyOp54
 70
     1
102
RTVSPropertyOp55
 70
     1
102
RTVSPropertyOp56
 70
     1
102
RTVSPropertyOp57
 70
     1
102
RTVSPropertyOp58
 70
     1
102
RTVSPropertyOp59
 70
     1
102
RTVSPropertyOp60
 70
     1
102
RTVSPropertyOp61
 70
     1
102
RTVSPropertyOp62
 70
     1
  0
XRECORD
  5
3301
102
{ACAD_REACTORS
330
3300
102
}
330
3300
100
AcDbXrecord
280
     1
102
RTVSPost2010Prop28
280
     0
102
RTVSPost2010PropOp28
 70
     1
102
RTVSPost2010Prop29
280
     1
102
RTVSPost2010PropOp29
 70
     1
102
RTVSPost2010Prop30
280
     1
102
RTVSPost2010PropOp30
 70
     1
102
RTVSPost2010Prop31
280
     0
102
RTVSPost2010PropOp31
 70
     1
102
RTVSPost2010Prop32
280
     0
102
RTVSPost2010PropOp32
 70
     1
102
RTVSPost2010Prop33
280
     0
102
RTVSPost2010PropOp33
 70
     1
102
RTVSPost2010Prop34
280
     0
102
RTVSPost2010PropOp34
 70
     1
102
RTVSPost2010Prop35
280
     0
102
RTVSPost2010PropOp35
 70
     1
102
RTVSPost2010Prop36
280
     0
102
RTVSPost2010PropOp36
 70
     1
102
RTVSPost2010Prop37
 90
       50
102
RTVSPost2010PropOp37
 70
     1
102
RTVSPost2010Prop38
140
0.0
102
RTVSPost2010PropOp38
 70
     1
102
RTVSPost2010Prop39
140
1.0
102
RTVSPost2010PropOp39
 70
     1
102
RTVSPost2010Prop40
 90
        0
102
RTVSPost2010PropOp40
 70
     1
102
RTVSPost2010Prop41ColorIndex
 90
       18
102
RTVSPost2010Prop41ColorRGB
 90
        0
102
RTVSPost2010PropOp41
 70
     1
102
RTVSPost2010Prop42
 90
       50
102
RTVSPost2010PropOp42
 70
     1
102
RTVSPost2010Prop43
 90
        3
102
RTVSPost2010PropOp43
 70
     1
102
RTVSPost2010Prop44ColorIndex
 90
        5
102
RTVSPost2010Prop44ColorRGB
 90
      255
102
RTVSPost2010PropOp44
 70
     1
102
RTVSPost2010Prop45
280
     0
102
RTVSPost2010PropOp45
 70
     1
102
RTVSPost2010Prop46
 90
       50
102
RTVSPost2010PropOp46
 70
     1
102
RTVSPost2010Prop47
 90
       50
102
RTVSPost2010PropOp47
 70
     1
102
RTVSPost2010Prop48
 90
       50
102
RTVSPost2010PropOp48
 70
     1
102
RTVSPost2010Prop49
280
     0
102
RTVSPost2010PropOp49
 70
     1
102
RTVSPost2010Prop50
 90
       50
102
RTVSPost2010PropOp50
 70
     1
102
RTVSPost2010Prop51ColorIndex
 90
      256
102
RTVSPost2010Prop51ColorRGB
 90
-16777216
102
RTVSPost2010PropOp51
 70
     0
102
RTVSPost2010Prop52
140
1.0
102
RTVSPost2010PropOp52
 70
     0
102
RTVSPost2010Prop53
 90
        2
102
RTVSPost2010PropOp53
 70
     1
102
RTVSPost2010Prop54
  1
strokes_ogs.tif
102
RTVSPost2010PropOp54
 70
     1
102
RTVSPost2010Prop55
280
     0
102
RTVSPost2010PropOp55
 70
     1
102
RTVSPost2010Prop56
140
1.0
102
RTVSPost2010PropOp56
 70
     1
102
RTVSPost2010Prop57
140
1.0
102
RTVSPost2010PropOp57
 70
     1
102
RTVSPropertyOp0
 70
     1
102
RTVSPropertyOp1
 70
     1
102
RTVSPropertyOp2
 70
     1
102
RTVSPropertyOp3
 70
     1
102
RTVSPropertyOp4
 70
     1
102
RTVSPropertyOp5
 70
     1
102
RTVSPropertyOp6
 70
     1
102
RTVSPropertyOp7
 70
     1
102
RTVSPropertyOp8
 70
     1
102
RTVSPropertyOp9
 70
     1
102
RTVSPropertyOp10
 70
     1
102
RTVSPropertyOp11
 70
     1
102
RTVSPropertyOp12
 70
     1
102
RTVSPropertyOp13
 70
     1
102
RTVSPropertyOp14
 70
     1
102
RTVSPropertyOp15
 70
     1
102
RTVSPropertyOp16
 70
     1
102
RTVSPropertyOp17
 70
     1
102
RTVSPropertyOp18
 70
     1
102
RTVSPropertyOp19
 70
     1
102
RTVSPropertyOp20
 70
     1
102
RTVSPropertyOp21
 70
     1
102
RTVSPropertyOp22
 70
     1
102
RTVSPropertyOp23
 70
     1
102
RTVSPropertyOp24
 70
     1
102
RTVSPropertyOp25
 70
     1
102
RTVSPropertyOp26
 70
     1
102
RTVSPropertyOp27
 70
     1
102
RTVSPropertyOp28
 70
     1
102
RTVSPropertyOp29
 70
     1
102
RTVSPropertyOp30
 70
     1
102
RTVSPropertyOp31
 70
     1
102
RTVSPropertyOp32
 70
     1
102
RTVSPropertyOp33
 70
     1
102
RTVSPropertyOp34
 70
     1
102
RTVSPropertyOp35
 70
     1
102
RTVSPropertyOp36
 70
     1
102
RTVSPropertyOp37
 70
     1
102
RTVSPropertyOp38
 70
     1
102
RTVSPropertyOp39
 70
     1
102
RTVSPropertyOp40
 70
     1
102
RTVSPropertyOp41
 70
     1
102
RTVSPropertyOp42
 70
     1
102
RTVSPropertyOp43
 70
     1
102
RTVSPropertyOp44
 70
     1
102
RTVSPropertyOp45
 70
     1
102
RTVSPropertyOp46
 70
     1
102
RTVSPropertyOp47
 70
     1
102
RTVSPropertyOp48
 70
     1
102
RTVSPropertyOp49
 70
     1
102
RTVSPropertyOp50
 70
     1
102
RTVSPropertyOp51
 70
     0
102
RTVSPropertyOp52
 70
     0
102
RTVSPropertyOp53
 70
     1
102
RTVSPropertyOp54
 70
     1
102
RTVSPropertyOp55
 70
     1
102
RTVSPropertyOp56
 70
     1
102
RTVSPropertyOp57
 70
     1
102
RTVSPropertyOp58
 70
     1
102
RTVSPropertyOp59
 70
     1
102
RTVSPropertyOp60
 70
     1
102
RTVSPropertyOp61
 70
     1
102
RTVSPropertyOp62
 70
     1
  0
XRECORD
  5
3309
102
{ACAD_REACTORS
330
3308
102
}
330
3308
100
AcDbXrecord
280
     1
102
RTVSPost2010Prop28
280
     0
102
RTVSPost2010PropOp28
 70
     1
102
RTVSPost2010Prop29
280
     1
102
RTVSPost2010PropOp29
 70
     1
102
RTVSPost2010Prop30
280
     1
102
RTVSPost2010PropOp30
 70
     1
102
RTVSPost2010Prop31
280
     0
102
RTVSPost2010PropOp31
 70
     1
102
RTVSPost2010Prop32
280
     0
102
RTVSPost2010PropOp32
 70
     1
102
RTVSPost2010Prop33
280
     0
102
RTVSPost2010PropOp33
 70
     1
102
RTVSPost2010Prop34
280
     0
102
RTVSPost2010PropOp34
 70
     1
102
RTVSPost2010Prop35
280
     0
102
RTVSPost2010PropOp35
 70
     1
102
RTVSPost2010Prop36
280
     0
102
RTVSPost2010PropOp36
 70
     1
102
RTVSPost2010Prop37
 90
       50
102
RTVSPost2010PropOp37
 70
     1
102
RTVSPost2010Prop38
140
0.0
102
RTVSPost2010PropOp38
 70
     1
102
RTVSPost2010Prop39
140
1.0
102
RTVSPost2010PropOp39
 70
     1
102
RTVSPost2010Prop40
 90
        0
102
RTVSPost2010PropOp40
 70
     1
102
RTVSPost2010Prop41ColorIndex
 90
       18
102
RTVSPost2010Prop41ColorRGB
 90
        0
102
RTVSPost2010PropOp41
 70
     1
102
RTVSPost2010Prop42
 90
       50
102
RTVSPost2010PropOp42
 70
     1
102
RTVSPost2010Prop43
 90
        3
102
RTVSPost2010PropOp43
 70
     1
102
RTVSPost2010Prop44ColorIndex
 90
        5
102
RTVSPost2010Prop44ColorRGB
 90
      255
102
RTVSPost2010PropOp44
 70
     1
102
RTVSPost2010Prop45
280
     0
102
RTVSPost2010PropOp45
 70
     1
102
RTVSPost2010Prop46
 90
       50
102
RTVSPost2010PropOp46
 70
     1
102
RTVSPost2010Prop47
 90
       50
102
RTVSPost2010PropOp47
 70
     1
102
RTVSPost2010Prop48
 90
       50
102
RTVSPost2010PropOp48
 70
     1
102
RTVSPost2010Prop49
280
     0
102
RTVSPost2010PropOp49
 70
     1
102
RTVSPost2010Prop50
 90
       50
102
RTVSPost2010PropOp50
 70
     1
102
RTVSPost2010Prop51ColorIndex
 90
      256
102
RTVSPost2010Prop51ColorRGB
 90
-16777216
102
RTVSPost2010PropOp51
 70
     0
102
RTVSPost2010Prop52
140
1.0
102
RTVSPost2010PropOp52
 70
     0
102
RTVSPost2010Prop53
 90
        2
102
RTVSPost2010PropOp53
 70
     1
102
RTVSPost2010Prop54
  1
strokes_ogs.tif
102
RTVSPost2010PropOp54
 70
     1
102
RTVSPost2010Prop55
280
     0
102
RTVSPost2010PropOp55
 70
     1
102
RTVSPost2010Prop56
140
1.0
102
RTVSPost2010PropOp56
 70
     1
102
RTVSPost2010Prop57
140
1.0
102
RTVSPost2010PropOp57
 70
     1
102
RTVSPropertyOp0
 70
     1
102
RTVSPropertyOp1
 70
     1
102
RTVSPropertyOp2
 70
     1
102
RTVSPropertyOp3
 70
     1
102
RTVSPropertyOp4
 70
     1
102
RTVSPropertyOp5
 70
     1
102
RTVSPropertyOp6
 70
     1
102
RTVSPropertyOp7
 70
     1
102
RTVSPropertyOp8
 70
     1
102
RTVSPropertyOp9
 70
     1
102
RTVSPropertyOp10
 70
     1
102
RTVSPropertyOp11
 70
     1
102
RTVSPropertyOp12
 70
     1
102
RTVSPropertyOp13
 70
     1
102
RTVSPropertyOp14
 70
     1
102
RTVSPropertyOp15
 70
     1
102
RTVSPropertyOp16
 70
     1
102
RTVSPropertyOp17
 70
     1
102
RTVSPropertyOp18
 70
     1
102
RTVSPropertyOp19
 70
     1
102
RTVSPropertyOp20
 70
     1
102
RTVSPropertyOp21
 70
     1
102
RTVSPropertyOp22
 70
     1
102
RTVSPropertyOp23
 70
     1
102
RTVSPropertyOp24
 70
     1
102
RTVSPropertyOp25
 70
     1
102
RTVSPropertyOp26
 70
     1
102
RTVSPropertyOp27
 70
     1
102
RTVSPropertyOp28
 70
     1
102
RTVSPropertyOp29
 70
     1
102
RTVSPropertyOp30
 70
     1
102
RTVSPropertyOp31
 70
     1
102
RTVSPropertyOp32
 70
     1
102
RTVSPropertyOp33
 70
     1
102
RTVSPropertyOp34
 70
     1
102
RTVSPropertyOp35
 70
     1
102
RTVSPropertyOp36
 70
     1
102
RTVSPropertyOp37
 70
     1
102
RTVSPropertyOp38
 70
     1
102
RTVSPropertyOp39
 70
     1
102
RTVSPropertyOp40
 70
     1
102
RTVSPropertyOp41
 70
     1
102
RTVSPropertyOp42
 70
     1
102
RTVSPropertyOp43
 70
     1
102
RTVSPropertyOp44
 70
     1
102
RTVSPropertyOp45
 70
     1
102
RTVSPropertyOp46
 70
     1
102
RTVSPropertyOp47
 70
     1
102
RTVSPropertyOp48
 70
     1
102
RTVSPropertyOp49
 70
     1
102
RTVSPropertyOp50
 70
     1
102
RTVSPropertyOp51
 70
     0
102
RTVSPropertyOp52
 70
     0
102
RTVSPropertyOp53
 70
     1
102
RTVSPropertyOp54
 70
     1
102
RTVSPropertyOp55
 70
     1
102
RTVSPropertyOp56
 70
     1
102
RTVSPropertyOp57
 70
     1
102
RTVSPropertyOp58
 70
     1
102
RTVSPropertyOp59
 70
     1
102
RTVSPropertyOp60
 70
     1
102
RTVSPropertyOp61
 70
     1
102
RTVSPropertyOp62
 70
     1
  0
XRECORD
  5
3325
102
{ACAD_REACTORS
330
3324
102
}
330
3324
100
AcDbXrecord
280
     1
102
RTVSPost2010Prop28
280
     0
102
RTVSPost2010PropOp28
 70
     1
102
RTVSPost2010Prop29
280
     1
102
RTVSPost2010PropOp29
 70
     1
102
RTVSPost2010Prop30
280
     1
102
RTVSPost2010PropOp30
 70
     1
102
RTVSPost2010Prop31
280
     0
102
RTVSPost2010PropOp31
 70
     1
102
RTVSPost2010Prop32
280
     0
102
RTVSPost2010PropOp32
 70
     1
102
RTVSPost2010Prop33
280
     0
102
RTVSPost2010PropOp33
 70
     1
102
RTVSPost2010Prop34
280
     0
102
RTVSPost2010PropOp34
 70
     1
102
RTVSPost2010Prop35
280
     0
102
RTVSPost2010PropOp35
 70
     1
102
RTVSPost2010Prop36
280
     0
102
RTVSPost2010PropOp36
 70
     1
102
RTVSPost2010Prop37
 90
       50
102
RTVSPost2010PropOp37
 70
     0
102
RTVSPost2010Prop38
140
0.0
102
RTVSPost2010PropOp38
 70
     0
102
RTVSPost2010Prop39
140
1.0
102
RTVSPost2010PropOp39
 70
     0
102
RTVSPost2010Prop40
 90
        0
102
RTVSPost2010PropOp40
 70
     0
102
RTVSPost2010Prop41ColorIndex
 90
       18
102
RTVSPost2010Prop41ColorRGB
 90
        0
102
RTVSPost2010PropOp41
 70
     0
102
RTVSPost2010Prop42
 90
       50
102
RTVSPost2010PropOp42
 70
     0
102
RTVSPost2010Prop43
 90
        3
102
RTVSPost2010PropOp43
 70
     0
102
RTVSPost2010Prop44ColorIndex
 90
        5
102
RTVSPost2010Prop44ColorRGB
 90
      255
102
RTVSPost2010PropOp44
 70
     0
102
RTVSPost2010Prop45
280
     0
102
RTVSPost2010PropOp45
 70
     1
102
RTVSPost2010Prop46
 90
       50
102
RTVSPost2010PropOp46
 70
     0
102
RTVSPost2010Prop47
 90
       50
102
RTVSPost2010PropOp47
 70
     0
102
RTVSPost2010Prop48
 90
       50
102
RTVSPost2010PropOp48
 70
     0
102
RTVSPost2010Prop49
280
     0
102
RTVSPost2010PropOp49
 70
     1
102
RTVSPost2010Prop50
 90
       50
102
RTVSPost2010PropOp50
 70
     0
102
RTVSPost2010Prop51ColorIndex
 90
      256
102
RTVSPost2010Prop51ColorRGB
 90
-16777216
102
RTVSPost2010PropOp51
 70
     0
102
RTVSPost2010Prop52
140
1.0
102
RTVSPost2010PropOp52
 70
     0
102
RTVSPost2010Prop53
 90
        2
102
RTVSPost2010PropOp53
 70
     0
102
RTVSPost2010Prop54
  1
strokes_ogs.tif
102
RTVSPost2010PropOp54
 70
     0
102
RTVSPost2010Prop55
280
     0
102
RTVSPost2010PropOp55
 70
     1
102
RTVSPost2010Prop56
140
1.0
102
RTVSPost2010PropOp56
 70
     0
102
RTVSPost2010Prop57
140
1.0
102
RTVSPost2010PropOp57
 70
     0
102
RTVSPropertyOp0
 70
     0
102
RTVSPropertyOp1
 70
     0
102
RTVSPropertyOp2
 70
     0
102
RTVSPropertyOp3
 70
     0
102
RTVSPropertyOp4
 70
     0
102
RTVSPropertyOp5
 70
     0
102
RTVSPropertyOp6
 70
     0
102
RTVSPropertyOp7
 70
     0
102
RTVSPropertyOp8
 70
     0
102
RTVSPropertyOp9
 70
     0
102
RTVSPropertyOp10
 70
     0
102
RTVSPropertyOp11
 70
     0
102
RTVSPropertyOp12
 70
     0
102
RTVSPropertyOp13
 70
     0
102
RTVSPropertyOp14
 70
     2
102
RTVSPropertyOp15
 70
     0
102
RTVSPropertyOp16
 70
     0
102
RTVSPropertyOp17
 70
     0
102
RTVSPropertyOp18
 70
     0
102
RTVSPropertyOp19
 70
     0
102
RTVSPropertyOp20
 70
     0
102
RTVSPropertyOp21
 70
     0
102
RTVSPropertyOp22
 70
     0
102
RTVSPropertyOp23
 70
     0
102
RTVSPropertyOp24
 70
     0
102
RTVSPropertyOp25
 70
     0
102
RTVSPropertyOp26
 70
     0
102
RTVSPropertyOp27
 70
     0
102
RTVSPropertyOp28
 70
     1
102
RTVSPropertyOp29
 70
     1
102
RTVSPropertyOp30
 70
     1
102
RTVSPropertyOp31
 70
     1
102
RTVSPropertyOp32
 70
     1
102
RTVSPropertyOp33
 70
     1
102
RTVSPropertyOp34
 70
     1
102
RTVSPropertyOp35
 70
     1
102
RTVSPropertyOp36
 70
     1
102
RTVSPropertyOp37
 70
     0
102
RTVSPropertyOp38
 70
     0
102
RTVSPropertyOp39
 70
     0
102
RTVSPropertyOp40
 70
     0
102
RTVSPropertyOp41
 70
     0
102
RTVSPropertyOp42
 70
     0
102
RTVSPropertyOp43
 70
     0
102
RTVSPropertyOp44
 70
     0
102
RTVSPropertyOp45
 70
     1
102
RTVSPropertyOp46
 70
     0
102
RTVSPropertyOp47
 70
     0
102
RTVSPropertyOp48
 70
     0
102
RTVSPropertyOp49
 70
     1
102
RTVSPropertyOp50
 70
     0
102
RTVSPropertyOp51
 70
     0
102
RTVSPropertyOp52
 70
     0
102
RTVSPropertyOp53
 70
     0
102
RTVSPropertyOp54
 70
     0
102
RTVSPropertyOp55
 70
     1
102
RTVSPropertyOp56
 70
     0
102
RTVSPropertyOp57
 70
     0
102
RTVSPropertyOp58
 70
     1
102
RTVSPropertyOp59
 70
     1
102
RTVSPropertyOp60
 70
     1
102
RTVSPropertyOp61
 70
     1
102
RTVSPropertyOp62
 70
     1
  0
XRECORD
  5
3315
102
{ACAD_REACTORS
330
3314
102
}
330
3314
100
AcDbXrecord
280
     1
102
RTVSPost2010Prop28
280
     0
102
RTVSPost2010PropOp28
 70
     1
102
RTVSPost2010Prop29
280
     1
102
RTVSPost2010PropOp29
 70
     1
102
RTVSPost2010Prop30
280
     1
102
RTVSPost2010PropOp30
 70
     1
102
RTVSPost2010Prop31
280
     0
102
RTVSPost2010PropOp31
 70
     1
102
RTVSPost2010Prop32
280
     0
102
RTVSPost2010PropOp32
 70
     1
102
RTVSPost2010Prop33
280
     0
102
RTVSPost2010PropOp33
 70
     1
102
RTVSPost2010Prop34
280
     0
102
RTVSPost2010PropOp34
 70
     1
102
RTVSPost2010Prop35
280
     0
102
RTVSPost2010PropOp35
 70
     1
102
RTVSPost2010Prop36
280
     0
102
RTVSPost2010PropOp36
 70
     1
102
RTVSPost2010Prop37
 90
       50
102
RTVSPost2010PropOp37
 70
     1
102
RTVSPost2010Prop38
140
0.0
102
RTVSPost2010PropOp38
 70
     1
102
RTVSPost2010Prop39
140
1.0
102
RTVSPost2010PropOp39
 70
     1
102
RTVSPost2010Prop40
 90
        0
102
RTVSPost2010PropOp40
 70
     1
102
RTVSPost2010Prop41ColorIndex
 90
       18
102
RTVSPost2010Prop41ColorRGB
 90
        0
102
RTVSPost2010PropOp41
 70
     1
102
RTVSPost2010Prop42
 90
       50
102
RTVSPost2010PropOp42
 70
     1
102
RTVSPost2010Prop43
 90
        3
102
RTVSPost2010PropOp43
 70
     1
102
RTVSPost2010Prop44ColorIndex
 90
        5
102
RTVSPost2010Prop44ColorRGB
 90
      255
102
RTVSPost2010PropOp44
 70
     1
102
RTVSPost2010Prop45
280
     0
102
RTVSPost2010PropOp45
 70
     1
102
RTVSPost2010Prop46
 90
       50
102
RTVSPost2010PropOp46
 70
     1
102
RTVSPost2010Prop47
 90
       50
102
RTVSPost2010PropOp47
 70
     1
102
RTVSPost2010Prop48
 90
       50
102
RTVSPost2010PropOp48
 70
     1
102
RTVSPost2010Prop49
280
     0
102
RTVSPost2010PropOp49
 70
     1
102
RTVSPost2010Prop50
 90
       50
102
RTVSPost2010PropOp50
 70
     1
102
RTVSPost2010Prop51ColorIndex
 90
      256
102
RTVSPost2010Prop51ColorRGB
 90
-16777216
102
RTVSPost2010PropOp51
 70
     0
102
RTVSPost2010Prop52
140
1.0
102
RTVSPost2010PropOp52
 70
     0
102
RTVSPost2010Prop53
 90
        2
102
RTVSPost2010PropOp53
 70
     1
102
RTVSPost2010Prop54
  1
strokes_ogs.tif
102
RTVSPost2010PropOp54
 70
     1
102
RTVSPost2010Prop55
280
     0
102
RTVSPost2010PropOp55
 70
     1
102
RTVSPost2010Prop56
140
1.0
102
RTVSPost2010PropOp56
 70
     1
102
RTVSPost2010Prop57
140
1.0
102
RTVSPost2010PropOp57
 70
     1
102
RTVSPropertyOp0
 70
     1
102
RTVSPropertyOp1
 70
     1
102
RTVSPropertyOp2
 70
     1
102
RTVSPropertyOp3
 70
     1
102
RTVSPropertyOp4
 70
     1
102
RTVSPropertyOp5
 70
     1
102
RTVSPropertyOp6
 70
     1
102
RTVSPropertyOp7
 70
     1
102
RTVSPropertyOp8
 70
     1
102
RTVSPropertyOp9
 70
     1
102
RTVSPropertyOp10
 70
     1
102
RTVSPropertyOp11
 70
     1
102
RTVSPropertyOp12
 70
     1
102
RTVSPropertyOp13
 70
     1
102
RTVSPropertyOp14
 70
     1
102
RTVSPropertyOp15
 70
     1
102
RTVSPropertyOp16
 70
     1
102
RTVSPropertyOp17
 70
     1
102
RTVSPropertyOp18
 70
     1
102
RTVSPropertyOp19
 70
     1
102
RTVSPropertyOp20
 70
     1
102
RTVSPropertyOp21
 70
     1
102
RTVSPropertyOp22
 70
     1
102
RTVSPropertyOp23
 70
     1
102
RTVSPropertyOp24
 70
     1
102
RTVSPropertyOp25
 70
     1
102
RTVSPropertyOp26
 70
     1
102
RTVSPropertyOp27
 70
     1
102
RTVSPropertyOp28
 70
     1
102
RTVSPropertyOp29
 70
     1
102
RTVSPropertyOp30
 70
     1
102
RTVSPropertyOp31
 70
     1
102
RTVSPropertyOp32
 70
     1
102
RTVSPropertyOp33
 70
     1
102
RTVSPropertyOp34
 70
     1
102
RTVSPropertyOp35
 70
     1
102
RTVSPropertyOp36
 70
     1
102
RTVSPropertyOp37
 70
     1
102
RTVSPropertyOp38
 70
     1
102
RTVSPropertyOp39
 70
     1
102
RTVSPropertyOp40
 70
     1
102
RTVSPropertyOp41
 70
     1
102
RTVSPropertyOp42
 70
     1
102
RTVSPropertyOp43
 70
     1
102
RTVSPropertyOp44
 70
     1
102
RTVSPropertyOp45
 70
     1
102
RTVSPropertyOp46
 70
     1
102
RTVSPropertyOp47
 70
     1
102
RTVSPropertyOp48
 70
     1
102
RTVSPropertyOp49
 70
     1
102
RTVSPropertyOp50
 70
     1
102
RTVSPropertyOp51
 70
     0
102
RTVSPropertyOp52
 70
     0
102
RTVSPropertyOp53
 70
     1
102
RTVSPropertyOp54
 70
     1
102
RTVSPropertyOp55
 70
     1
102
RTVSPropertyOp56
 70
     1
102
RTVSPropertyOp57
 70
     1
102
RTVSPropertyOp58
 70
     1
102
RTVSPropertyOp59
 70
     1
102
RTVSPropertyOp60
 70
     1
102
RTVSPropertyOp61
 70
     1
102
RTVSPropertyOp62
 70
     1
  0
XRECORD
  5
3327
102
{ACAD_REACTORS
330
3326
102
}
330
3326
100
AcDbXrecord
280
     1
102
RTVSPost2010Prop28
280
     0
102
RTVSPost2010PropOp28
 70
     1
102
RTVSPost2010Prop29
280
     1
102
RTVSPost2010PropOp29
 70
     1
102
RTVSPost2010Prop30
280
     1
102
RTVSPost2010PropOp30
 70
     1
102
RTVSPost2010Prop31
280
     0
102
RTVSPost2010PropOp31
 70
     1
102
RTVSPost2010Prop32
280
     0
102
RTVSPost2010PropOp32
 70
     1
102
RTVSPost2010Prop33
280
     0
102
RTVSPost2010PropOp33
 70
     1
102
RTVSPost2010Prop34
280
     0
102
RTVSPost2010PropOp34
 70
     1
102
RTVSPost2010Prop35
280
     0
102
RTVSPost2010PropOp35
 70
     1
102
RTVSPost2010Prop36
280
     0
102
RTVSPost2010PropOp36
 70
     1
102
RTVSPost2010Prop37
 90
       50
102
RTVSPost2010PropOp37
 70
     0
102
RTVSPost2010Prop38
140
0.0
102
RTVSPost2010PropOp38
 70
     0
102
RTVSPost2010Prop39
140
1.0
102
RTVSPost2010PropOp39
 70
     0
102
RTVSPost2010Prop40
 90
        0
102
RTVSPost2010PropOp40
 70
     0
102
RTVSPost2010Prop41ColorIndex
 90
       18
102
RTVSPost2010Prop41ColorRGB
 90
        0
102
RTVSPost2010PropOp41
 70
     0
102
RTVSPost2010Prop42
 90
       50
102
RTVSPost2010PropOp42
 70
     0
102
RTVSPost2010Prop43
 90
        3
102
RTVSPost2010PropOp43
 70
     0
102
RTVSPost2010Prop44ColorIndex
 90
        5
102
RTVSPost2010Prop44ColorRGB
 90
      255
102
RTVSPost2010PropOp44
 70
     0
102
RTVSPost2010Prop45
280
     0
102
RTVSPost2010PropOp45
 70
     1
102
RTVSPost2010Prop46
 90
       50
102
RTVSPost2010PropOp46
 70
     0
102
RTVSPost2010Prop47
 90
       50
102
RTVSPost2010PropOp47
 70
     0
102
RTVSPost2010Prop48
 90
       50
102
RTVSPost2010PropOp48
 70
     0
102
RTVSPost2010Prop49
280
     0
102
RTVSPost2010PropOp49
 70
     1
102
RTVSPost2010Prop50
 90
       50
102
RTVSPost2010PropOp50
 70
     0
102
RTVSPost2010Prop51ColorIndex
 90
      256
102
RTVSPost2010Prop51ColorRGB
 90
-16777216
102
RTVSPost2010PropOp51
 70
     0
102
RTVSPost2010Prop52
140
1.0
102
RTVSPost2010PropOp52
 70
     0
102
RTVSPost2010Prop53
 90
        2
102
RTVSPost2010PropOp53
 70
     0
102
RTVSPost2010Prop54
  1
strokes_ogs.tif
102
RTVSPost2010PropOp54
 70
     0
102
RTVSPost2010Prop55
280
     0
102
RTVSPost2010PropOp55
 70
     1
102
RTVSPost2010Prop56
140
1.0
102
RTVSPost2010PropOp56
 70
     0
102
RTVSPost2010Prop57
140
1.0
102
RTVSPost2010PropOp57
 70
     0
102
RTVSPropertyOp0
 70
     0
102
RTVSPropertyOp1
 70
     0
102
RTVSPropertyOp2
 70
     0
102
RTVSPropertyOp3
 70
     0
102
RTVSPropertyOp4
 70
     0
102
RTVSPropertyOp5
 70
     0
102
RTVSPropertyOp6
 70
     0
102
RTVSPropertyOp7
 70
     0
102
RTVSPropertyOp8
 70
     0
102
RTVSPropertyOp9
 70
     0
102
RTVSPropertyOp10
 70
     0
102
RTVSPropertyOp11
 70
     0
102
RTVSPropertyOp12
 70
     0
102
RTVSPropertyOp13
 70
     0
102
RTVSPropertyOp14
 70
     2
102
RTVSPropertyOp15
 70
     0
102
RTVSPropertyOp16
 70
     0
102
RTVSPropertyOp17
 70
     0
102
RTVSPropertyOp18
 70
     0
102
RTVSPropertyOp19
 70
     0
102
RTVSPropertyOp20
 70
     0
102
RTVSPropertyOp21
 70
     0
102
RTVSPropertyOp22
 70
     0
102
RTVSPropertyOp23
 70
     0
102
RTVSPropertyOp24
 70
     0
102
RTVSPropertyOp25
 70
     0
102
RTVSPropertyOp26
 70
     0
102
RTVSPropertyOp27
 70
     0
102
RTVSPropertyOp28
 70
     1
102
RTVSPropertyOp29
 70
     1
102
RTVSPropertyOp30
 70
     1
102
RTVSPropertyOp31
 70
     1
102
RTVSPropertyOp32
 70
     1
102
RTVSPropertyOp33
 70
     1
102
RTVSPropertyOp34
 70
     1
102
RTVSPropertyOp35
 70
     1
102
RTVSPropertyOp36
 70
     1
102
RTVSPropertyOp37
 70
     0
102
RTVSPropertyOp38
 70
     0
102
RTVSPropertyOp39
 70
     0
102
RTVSPropertyOp40
 70
     0
102
RTVSPropertyOp41
 70
     0
102
RTVSPropertyOp42
 70
     0
102
RTVSPropertyOp43
 70
     0
102
RTVSPropertyOp44
 70
     0
102
RTVSPropertyOp45
 70
     1
102
RTVSPropertyOp46
 70
     0
102
RTVSPropertyOp47
 70
     0
102
RTVSPropertyOp48
 70
     0
102
RTVSPropertyOp49
 70
     1
102
RTVSPropertyOp50
 70
     0
102
RTVSPropertyOp51
 70
     0
102
RTVSPropertyOp52
 70
     0
102
RTVSPropertyOp53
 70
     0
102
RTVSPropertyOp54
 70
     0
102
RTVSPropertyOp55
 70
     1
102
RTVSPropertyOp56
 70
     0
102
RTVSPropertyOp57
 70
     0
102
RTVSPropertyOp58
 70
     1
102
RTVSPropertyOp59
 70
     1
102
RTVSPropertyOp60
 70
     1
102
RTVSPropertyOp61
 70
     1
102
RTVSPropertyOp62
 70
     1
  0
XRECORD
  5
330D
102
{ACAD_REACTORS
330
330C
102
}
330
330C
100
AcDbXrecord
280
     1
102
RTVSPost2010Prop28
280
     0
102
RTVSPost2010PropOp28
 70
     1
102
RTVSPost2010Prop29
280
     1
102
RTVSPost2010PropOp29
 70
     1
102
RTVSPost2010Prop30
280
     1
102
RTVSPost2010PropOp30
 70
     1
102
RTVSPost2010Prop31
280
     0
102
RTVSPost2010PropOp31
 70
     1
102
RTVSPost2010Prop32
280
     0
102
RTVSPost2010PropOp32
 70
     1
102
RTVSPost2010Prop33
280
     0
102
RTVSPost2010PropOp33
 70
     1
102
RTVSPost2010Prop34
280
     0
102
RTVSPost2010PropOp34
 70
     1
102
RTVSPost2010Prop35
280
     0
102
RTVSPost2010PropOp35
 70
     1
102
RTVSPost2010Prop36
280
     0
102
RTVSPost2010PropOp36
 70
     1
102
RTVSPost2010Prop37
 90
       50
102
RTVSPost2010PropOp37
 70
     1
102
RTVSPost2010Prop38
140
0.0
102
RTVSPost2010PropOp38
 70
     1
102
RTVSPost2010Prop39
140
1.0
102
RTVSPost2010PropOp39
 70
     1
102
RTVSPost2010Prop40
 90
        0
102
RTVSPost2010PropOp40
 70
     1
102
RTVSPost2010Prop41ColorIndex
 90
       18
102
RTVSPost2010Prop41ColorRGB
 90
        0
102
RTVSPost2010PropOp41
 70
     1
102
RTVSPost2010Prop42
 90
       50
102
RTVSPost2010PropOp42
 70
     1
102
RTVSPost2010Prop43
 90
        3
102
RTVSPost2010PropOp43
 70
     1
102
RTVSPost2010Prop44ColorIndex
 90
        5
102
RTVSPost2010Prop44ColorRGB
 90
      255
102
RTVSPost2010PropOp44
 70
     1
102
RTVSPost2010Prop45
280
     0
102
RTVSPost2010PropOp45
 70
     1
102
RTVSPost2010Prop46
 90
       50
102
RTVSPost2010PropOp46
 70
     1
102
RTVSPost2010Prop47
 90
       50
102
RTVSPost2010PropOp47
 70
     1
102
RTVSPost2010Prop48
 90
       50
102
RTVSPost2010PropOp48
 70
     1
102
RTVSPost2010Prop49
280
     0
102
RTVSPost2010PropOp49
 70
     1
102
RTVSPost2010Prop50
 90
       50
102
RTVSPost2010PropOp50
 70
     1
102
RTVSPost2010Prop51ColorIndex
 90
      256
102
RTVSPost2010Prop51ColorRGB
 90
-16777216
102
RTVSPost2010PropOp51
 70
     0
102
RTVSPost2010Prop52
140
1.0
102
RTVSPost2010PropOp52
 70
     0
102
RTVSPost2010Prop53
 90
        2
102
RTVSPost2010PropOp53
 70
     1
102
RTVSPost2010Prop54
  1
strokes_ogs.tif
102
RTVSPost2010PropOp54
 70
     1
102
RTVSPost2010Prop55
280
     0
102
RTVSPost2010PropOp55
 70
     1
102
RTVSPost2010Prop56
140
1.0
102
RTVSPost2010PropOp56
 70
     1
102
RTVSPost2010Prop57
140
1.0
102
RTVSPost2010PropOp57
 70
     1
102
RTVSPropertyOp0
 70
     1
102
RTVSPropertyOp1
 70
     1
102
RTVSPropertyOp2
 70
     1
102
RTVSPropertyOp3
 70
     1
102
RTVSPropertyOp4
 70
     1
102
RTVSPropertyOp5
 70
     1
102
RTVSPropertyOp6
 70
     1
102
RTVSPropertyOp7
 70
     1
102
RTVSPropertyOp8
 70
     1
102
RTVSPropertyOp9
 70
     1
102
RTVSPropertyOp10
 70
     1
102
RTVSPropertyOp11
 70
     1
102
RTVSPropertyOp12
 70
     1
102
RTVSPropertyOp13
 70
     1
102
RTVSPropertyOp14
 70
     1
102
RTVSPropertyOp15
 70
     1
102
RTVSPropertyOp16
 70
     1
102
RTVSPropertyOp17
 70
     1
102
RTVSPropertyOp18
 70
     1
102
RTVSPropertyOp19
 70
     1
102
RTVSPropertyOp20
 70
     1
102
RTVSPropertyOp21
 70
     1
102
RTVSPropertyOp22
 70
     1
102
RTVSPropertyOp23
 70
     1
102
RTVSPropertyOp24
 70
     1
102
RTVSPropertyOp25
 70
     1
102
RTVSPropertyOp26
 70
     1
102
RTVSPropertyOp27
 70
     1
102
RTVSPropertyOp28
 70
     1
102
RTVSPropertyOp29
 70
     1
102
RTVSPropertyOp30
 70
     1
102
RTVSPropertyOp31
 70
     1
102
RTVSPropertyOp32
 70
     1
102
RTVSPropertyOp33
 70
     1
102
RTVSPropertyOp34
 70
     1
102
RTVSPropertyOp35
 70
     1
102
RTVSPropertyOp36
 70
     1
102
RTVSPropertyOp37
 70
     1
102
RTVSPropertyOp38
 70
     1
102
RTVSPropertyOp39
 70
     1
102
RTVSPropertyOp40
 70
     1
102
RTVSPropertyOp41
 70
     1
102
RTVSPropertyOp42
 70
     1
102
RTVSPropertyOp43
 70
     1
102
RTVSPropertyOp44
 70
     1
102
RTVSPropertyOp45
 70
     1
102
RTVSPropertyOp46
 70
     1
102
RTVSPropertyOp47
 70
     1
102
RTVSPropertyOp48
 70
     1
102
RTVSPropertyOp49
 70
     1
102
RTVSPropertyOp50
 70
     1
102
RTVSPropertyOp51
 70
     0
102
RTVSPropertyOp52
 70
     0
102
RTVSPropertyOp53
 70
     1
102
RTVSPropertyOp54
 70
     1
102
RTVSPropertyOp55
 70
     1
102
RTVSPropertyOp56
 70
     1
102
RTVSPropertyOp57
 70
     1
102
RTVSPropertyOp58
 70
     1
102
RTVSPropertyOp59
 70
     1
102
RTVSPropertyOp60
 70
     1
102
RTVSPropertyOp61
 70
     1
102
RTVSPropertyOp62
 70
     1
  0
XRECORD
  5
3323
102
{ACAD_REACTORS
330
3322
102
}
330
3322
100
AcDbXrecord
280
     1
102
RTVSPost2010Prop28
280
     0
102
RTVSPost2010PropOp28
 70
     1
102
RTVSPost2010Prop29
280
     1
102
RTVSPost2010PropOp29
 70
     1
102
RTVSPost2010Prop30
280
     1
102
RTVSPost2010PropOp30
 70
     1
102
RTVSPost2010Prop31
280
     0
102
RTVSPost2010PropOp31
 70
     1
102
RTVSPost2010Prop32
280
     0
102
RTVSPost2010PropOp32
 70
     1
102
RTVSPost2010Prop33
280
     0
102
RTVSPost2010PropOp33
 70
     1
102
RTVSPost2010Prop34
280
     0
102
RTVSPost2010PropOp34
 70
     1
102
RTVSPost2010Prop35
280
     0
102
RTVSPost2010PropOp35
 70
     1
102
RTVSPost2010Prop36
280
     0
102
RTVSPost2010PropOp36
 70
     1
102
RTVSPost2010Prop37
 90
       50
102
RTVSPost2010PropOp37
 70
     1
102
RTVSPost2010Prop38
140
0.0
102
RTVSPost2010PropOp38
 70
     1
102
RTVSPost2010Prop39
140
1.0
102
RTVSPost2010PropOp39
 70
     1
102
RTVSPost2010Prop40
 90
        0
102
RTVSPost2010PropOp40
 70
     1
102
RTVSPost2010Prop41ColorIndex
 90
       18
102
RTVSPost2010Prop41ColorRGB
 90
        0
102
RTVSPost2010PropOp41
 70
     1
102
RTVSPost2010Prop42
 90
       50
102
RTVSPost2010PropOp42
 70
     1
102
RTVSPost2010Prop43
 90
        3
102
RTVSPost2010PropOp43
 70
     1
102
RTVSPost2010Prop44ColorIndex
 90
        5
102
RTVSPost2010Prop44ColorRGB
 90
      255
102
RTVSPost2010PropOp44
 70
     1
102
RTVSPost2010Prop45
280
     0
102
RTVSPost2010PropOp45
 70
     1
102
RTVSPost2010Prop46
 90
       50
102
RTVSPost2010PropOp46
 70
     1
102
RTVSPost2010Prop47
 90
       50
102
RTVSPost2010PropOp47
 70
     1
102
RTVSPost2010Prop48
 90
       50
102
RTVSPost2010PropOp48
 70
     1
102
RTVSPost2010Prop49
280
     0
102
RTVSPost2010PropOp49
 70
     1
102
RTVSPost2010Prop50
 90
       50
102
RTVSPost2010PropOp50
 70
     1
102
RTVSPost2010Prop51ColorIndex
 90
      256
102
RTVSPost2010Prop51ColorRGB
 90
-16777216
102
RTVSPost2010PropOp51
 70
     0
102
RTVSPost2010Prop52
140
1.0
102
RTVSPost2010PropOp52
 70
     0
102
RTVSPost2010Prop53
 90
        2
102
RTVSPost2010PropOp53
 70
     1
102
RTVSPost2010Prop54
  1
strokes_ogs.tif
102
RTVSPost2010PropOp54
 70
     1
102
RTVSPost2010Prop55
280
     0
102
RTVSPost2010PropOp55
 70
     1
102
RTVSPost2010Prop56
140
1.0
102
RTVSPost2010PropOp56
 70
     1
102
RTVSPost2010Prop57
140
1.0
102
RTVSPost2010PropOp57
 70
     1
102
RTVSPropertyOp0
 70
     1
102
RTVSPropertyOp1
 70
     1
102
RTVSPropertyOp2
 70
     1
102
RTVSPropertyOp3
 70
     1
102
RTVSPropertyOp4
 70
     1
102
RTVSPropertyOp5
 70
     1
102
RTVSPropertyOp6
 70
     1
102
RTVSPropertyOp7
 70
     1
102
RTVSPropertyOp8
 70
     1
102
RTVSPropertyOp9
 70
     1
102
RTVSPropertyOp10
 70
     1
102
RTVSPropertyOp11
 70
     1
102
RTVSPropertyOp12
 70
     1
102
RTVSPropertyOp13
 70
     1
102
RTVSPropertyOp14
 70
     1
102
RTVSPropertyOp15
 70
     1
102
RTVSPropertyOp16
 70
     1
102
RTVSPropertyOp17
 70
     1
102
RTVSPropertyOp18
 70
     1
102
RTVSPropertyOp19
 70
     1
102
RTVSPropertyOp20
 70
     1
102
RTVSPropertyOp21
 70
     1
102
RTVSPropertyOp22
 70
     1
102
RTVSPropertyOp23
 70
     1
102
RTVSPropertyOp24
 70
     1
102
RTVSPropertyOp25
 70
     1
102
RTVSPropertyOp26
 70
     1
102
RTVSPropertyOp27
 70
     1
102
RTVSPropertyOp28
 70
     1
102
RTVSPropertyOp29
 70
     1
102
RTVSPropertyOp30
 70
     1
102
RTVSPropertyOp31
 70
     1
102
RTVSPropertyOp32
 70
     1
102
RTVSPropertyOp33
 70
     1
102
RTVSPropertyOp34
 70
     1
102
RTVSPropertyOp35
 70
     1
102
RTVSPropertyOp36
 70
     1
102
RTVSPropertyOp37
 70
     1
102
RTVSPropertyOp38
 70
     1
102
RTVSPropertyOp39
 70
     1
102
RTVSPropertyOp40
 70
     1
102
RTVSPropertyOp41
 70
     1
102
RTVSPropertyOp42
 70
     1
102
RTVSPropertyOp43
 70
     1
102
RTVSPropertyOp44
 70
     1
102
RTVSPropertyOp45
 70
     1
102
RTVSPropertyOp46
 70
     1
102
RTVSPropertyOp47
 70
     1
102
RTVSPropertyOp48
 70
     1
102
RTVSPropertyOp49
 70
     1
102
RTVSPropertyOp50
 70
     1
102
RTVSPropertyOp51
 70
     0
102
RTVSPropertyOp52
 70
     0
102
RTVSPropertyOp53
 70
     1
102
RTVSPropertyOp54
 70
     1
102
RTVSPropertyOp55
 70
     1
102
RTVSPropertyOp56
 70
     1
102
RTVSPropertyOp57
 70
     1
102
RTVSPropertyOp58
 70
     1
102
RTVSPropertyOp59
 70
     1
102
RTVSPropertyOp60
 70
     1
102
RTVSPropertyOp61
 70
     1
102
RTVSPropertyOp62
 70
     1
  0
XRECORD
  5
3321
102
{ACAD_REACTORS
330
3320
102
}
330
3320
100
AcDbXrecord
280
     1
102
RTVSPost2010Prop28
280
     0
102
RTVSPost2010PropOp28
 70
     1
102
RTVSPost2010Prop29
280
     1
102
RTVSPost2010PropOp29
 70
     1
102
RTVSPost2010Prop30
280
     1
102
RTVSPost2010PropOp30
 70
     1
102
RTVSPost2010Prop31
280
     0
102
RTVSPost2010PropOp31
 70
     1
102
RTVSPost2010Prop32
280
     0
102
RTVSPost2010PropOp32
 70
     1
102
RTVSPost2010Prop33
280
     0
102
RTVSPost2010PropOp33
 70
     1
102
RTVSPost2010Prop34
280
     0
102
RTVSPost2010PropOp34
 70
     1
102
RTVSPost2010Prop35
280
     0
102
RTVSPost2010PropOp35
 70
     1
102
RTVSPost2010Prop36
280
     0
102
RTVSPost2010PropOp36
 70
     1
102
RTVSPost2010Prop37
 90
       50
102
RTVSPost2010PropOp37
 70
     1
102
RTVSPost2010Prop38
140
0.0
102
RTVSPost2010PropOp38
 70
     1
102
RTVSPost2010Prop39
140
1.0
102
RTVSPost2010PropOp39
 70
     1
102
RTVSPost2010Prop40
 90
        0
102
RTVSPost2010PropOp40
 70
     1
102
RTVSPost2010Prop41ColorIndex
 90
       18
102
RTVSPost2010Prop41ColorRGB
 90
        0
102
RTVSPost2010PropOp41
 70
     1
102
RTVSPost2010Prop42
 90
       50
102
RTVSPost2010PropOp42
 70
     1
102
RTVSPost2010Prop43
 90
        3
102
RTVSPost2010PropOp43
 70
     1
102
RTVSPost2010Prop44ColorIndex
 90
        5
102
RTVSPost2010Prop44ColorRGB
 90
      255
102
RTVSPost2010PropOp44
 70
     1
102
RTVSPost2010Prop45
280
     0
102
RTVSPost2010PropOp45
 70
     1
102
RTVSPost2010Prop46
 90
       50
102
RTVSPost2010PropOp46
 70
     1
102
RTVSPost2010Prop47
 90
       50
102
RTVSPost2010PropOp47
 70
     1
102
RTVSPost2010Prop48
 90
       50
102
RTVSPost2010PropOp48
 70
     1
102
RTVSPost2010Prop49
280
     0
102
RTVSPost2010PropOp49
 70
     1
102
RTVSPost2010Prop50
 90
       50
102
RTVSPost2010PropOp50
 70
     1
102
RTVSPost2010Prop51ColorIndex
 90
      256
102
RTVSPost2010Prop51ColorRGB
 90
-16777216
102
RTVSPost2010PropOp51
 70
     0
102
RTVSPost2010Prop52
140
1.0
102
RTVSPost2010PropOp52
 70
     0
102
RTVSPost2010Prop53
 90
        2
102
RTVSPost2010PropOp53
 70
     1
102
RTVSPost2010Prop54
  1
strokes_ogs.tif
102
RTVSPost2010PropOp54
 70
     1
102
RTVSPost2010Prop55
280
     0
102
RTVSPost2010PropOp55
 70
     1
102
RTVSPost2010Prop56
140
1.0
102
RTVSPost2010PropOp56
 70
     1
102
RTVSPost2010Prop57
140
1.0
102
RTVSPost2010PropOp57
 70
     1
102
RTVSPropertyOp0
 70
     1
102
RTVSPropertyOp1
 70
     1
102
RTVSPropertyOp2
 70
     1
102
RTVSPropertyOp3
 70
     1
102
RTVSPropertyOp4
 70
     1
102
RTVSPropertyOp5
 70
     1
102
RTVSPropertyOp6
 70
     1
102
RTVSPropertyOp7
 70
     1
102
RTVSPropertyOp8
 70
     1
102
RTVSPropertyOp9
 70
     1
102
RTVSPropertyOp10
 70
     1
102
RTVSPropertyOp11
 70
     1
102
RTVSPropertyOp12
 70
     1
102
RTVSPropertyOp13
 70
     1
102
RTVSPropertyOp14
 70
     1
102
RTVSPropertyOp15
 70
     1
102
RTVSPropertyOp16
 70
     1
102
RTVSPropertyOp17
 70
     1
102
RTVSPropertyOp18
 70
     1
102
RTVSPropertyOp19
 70
     1
102
RTVSPropertyOp20
 70
     1
102
RTVSPropertyOp21
 70
     1
102
RTVSPropertyOp22
 70
     1
102
RTVSPropertyOp23
 70
     1
102
RTVSPropertyOp24
 70
     1
102
RTVSPropertyOp25
 70
     1
102
RTVSPropertyOp26
 70
     1
102
RTVSPropertyOp27
 70
     1
102
RTVSPropertyOp28
 70
     1
102
RTVSPropertyOp29
 70
     1
102
RTVSPropertyOp30
 70
     1
102
RTVSPropertyOp31
 70
     1
102
RTVSPropertyOp32
 70
     1
102
RTVSPropertyOp33
 70
     1
102
RTVSPropertyOp34
 70
     1
102
RTVSPropertyOp35
 70
     1
102
RTVSPropertyOp36
 70
     1
102
RTVSPropertyOp37
 70
     1
102
RTVSPropertyOp38
 70
     1
102
RTVSPropertyOp39
 70
     1
102
RTVSPropertyOp40
 70
     1
102
RTVSPropertyOp41
 70
     1
102
RTVSPropertyOp42
 70
     1
102
RTVSPropertyOp43
 70
     1
102
RTVSPropertyOp44
 70
     1
102
RTVSPropertyOp45
 70
     1
102
RTVSPropertyOp46
 70
     1
102
RTVSPropertyOp47
 70
     1
102
RTVSPropertyOp48
 70
     1
102
RTVSPropertyOp49
 70
     1
102
RTVSPropertyOp50
 70
     1
102
RTVSPropertyOp51
 70
     0
102
RTVSPropertyOp52
 70
     0
102
RTVSPropertyOp53
 70
     1
102
RTVSPropertyOp54
 70
     1
102
RTVSPropertyOp55
 70
     1
102
RTVSPropertyOp56
 70
     1
102
RTVSPropertyOp57
 70
     1
102
RTVSPropertyOp58
 70
     1
102
RTVSPropertyOp59
 70
     1
102
RTVSPropertyOp60
 70
     1
102
RTVSPropertyOp61
 70
     1
102
RTVSPropertyOp62
 70
     1
  0
XRECORD
  5
331B
102
{ACAD_REACTORS
330
331A
102
}
330
331A
100
AcDbXrecord
280
     1
102
RTVSPost2010Prop28
280
     0
102
RTVSPost2010PropOp28
 70
     1
102
RTVSPost2010Prop29
280
     1
102
RTVSPost2010PropOp29
 70
     1
102
RTVSPost2010Prop30
280
     1
102
RTVSPost2010PropOp30
 70
     1
102
RTVSPost2010Prop31
280
     0
102
RTVSPost2010PropOp31
 70
     1
102
RTVSPost2010Prop32
280
     0
102
RTVSPost2010PropOp32
 70
     1
102
RTVSPost2010Prop33
280
     0
102
RTVSPost2010PropOp33
 70
     1
102
RTVSPost2010Prop34
280
     0
102
RTVSPost2010PropOp34
 70
     1
102
RTVSPost2010Prop35
280
     0
102
RTVSPost2010PropOp35
 70
     1
102
RTVSPost2010Prop36
280
     0
102
RTVSPost2010PropOp36
 70
     1
102
RTVSPost2010Prop37
 90
       50
102
RTVSPost2010PropOp37
 70
     1
102
RTVSPost2010Prop38
140
0.0
102
RTVSPost2010PropOp38
 70
     1
102
RTVSPost2010Prop39
140
1.0
102
RTVSPost2010PropOp39
 70
     1
102
RTVSPost2010Prop40
 90
        0
102
RTVSPost2010PropOp40
 70
     1
102
RTVSPost2010Prop41ColorIndex
 90
       18
102
RTVSPost2010Prop41ColorRGB
 90
        0
102
RTVSPost2010PropOp41
 70
     1
102
RTVSPost2010Prop42
 90
       50
102
RTVSPost2010PropOp42
 70
     1
102
RTVSPost2010Prop43
 90
        3
102
RTVSPost2010PropOp43
 70
     1
102
RTVSPost2010Prop44ColorIndex
 90
        5
102
RTVSPost2010Prop44ColorRGB
 90
      255
102
RTVSPost2010PropOp44
 70
     1
102
RTVSPost2010Prop45
280
     0
102
RTVSPost2010PropOp45
 70
     1
102
RTVSPost2010Prop46
 90
       50
102
RTVSPost2010PropOp46
 70
     1
102
RTVSPost2010Prop47
 90
       50
102
RTVSPost2010PropOp47
 70
     1
102
RTVSPost2010Prop48
 90
       50
102
RTVSPost2010PropOp48
 70
     1
102
RTVSPost2010Prop49
280
     0
102
RTVSPost2010PropOp49
 70
     1
102
RTVSPost2010Prop50
 90
       50
102
RTVSPost2010PropOp50
 70
     1
102
RTVSPost2010Prop51ColorIndex
 90
      256
102
RTVSPost2010Prop51ColorRGB
 90
-16777216
102
RTVSPost2010PropOp51
 70
     0
102
RTVSPost2010Prop52
140
1.0
102
RTVSPost2010PropOp52
 70
     0
102
RTVSPost2010Prop53
 90
        2
102
RTVSPost2010PropOp53
 70
     1
102
RTVSPost2010Prop54
  1
strokes_ogs.tif
102
RTVSPost2010PropOp54
 70
     1
102
RTVSPost2010Prop55
280
     0
102
RTVSPost2010PropOp55
 70
     1
102
RTVSPost2010Prop56
140
1.0
102
RTVSPost2010PropOp56
 70
     1
102
RTVSPost2010Prop57
140
1.0
102
RTVSPost2010PropOp57
 70
     1
102
RTVSPropertyOp0
 70
     1
102
RTVSPropertyOp1
 70
     1
102
RTVSPropertyOp2
 70
     1
102
RTVSPropertyOp3
 70
     1
102
RTVSPropertyOp4
 70
     1
102
RTVSPropertyOp5
 70
     1
102
RTVSPropertyOp6
 70
     1
102
RTVSPropertyOp7
 70
     1
102
RTVSPropertyOp8
 70
     1
102
RTVSPropertyOp9
 70
     1
102
RTVSPropertyOp10
 70
     1
102
RTVSPropertyOp11
 70
     1
102
RTVSPropertyOp12
 70
     1
102
RTVSPropertyOp13
 70
     1
102
RTVSPropertyOp14
 70
     1
102
RTVSPropertyOp15
 70
     1
102
RTVSPropertyOp16
 70
     1
102
RTVSPropertyOp17
 70
     1
102
RTVSPropertyOp18
 70
     1
102
RTVSPropertyOp19
 70
     1
102
RTVSPropertyOp20
 70
     1
102
RTVSPropertyOp21
 70
     1
102
RTVSPropertyOp22
 70
     1
102
RTVSPropertyOp23
 70
     1
102
RTVSPropertyOp24
 70
     1
102
RTVSPropertyOp25
 70
     1
102
RTVSPropertyOp26
 70
     1
102
RTVSPropertyOp27
 70
     1
102
RTVSPropertyOp28
 70
     1
102
RTVSPropertyOp29
 70
     1
102
RTVSPropertyOp30
 70
     1
102
RTVSPropertyOp31
 70
     1
102
RTVSPropertyOp32
 70
     1
102
RTVSPropertyOp33
 70
     1
102
RTVSPropertyOp34
 70
     1
102
RTVSPropertyOp35
 70
     1
102
RTVSPropertyOp36
 70
     1
102
RTVSPropertyOp37
 70
     1
102
RTVSPropertyOp38
 70
     1
102
RTVSPropertyOp39
 70
     1
102
RTVSPropertyOp40
 70
     1
102
RTVSPropertyOp41
 70
     1
102
RTVSPropertyOp42
 70
     1
102
RTVSPropertyOp43
 70
     1
102
RTVSPropertyOp44
 70
     1
102
RTVSPropertyOp45
 70
     1
102
RTVSPropertyOp46
 70
     1
102
RTVSPropertyOp47
 70
     1
102
RTVSPropertyOp48
 70
     1
102
RTVSPropertyOp49
 70
     1
102
RTVSPropertyOp50
 70
     1
102
RTVSPropertyOp51
 70
     0
102
RTVSPropertyOp52
 70
     0
102
RTVSPropertyOp53
 70
     1
102
RTVSPropertyOp54
 70
     1
102
RTVSPropertyOp55
 70
     1
102
RTVSPropertyOp56
 70
     1
102
RTVSPropertyOp57
 70
     1
102
RTVSPropertyOp58
 70
     1
102
RTVSPropertyOp59
 70
     1
102
RTVSPropertyOp60
 70
     1
102
RTVSPropertyOp61
 70
     1
102
RTVSPropertyOp62
 70
     1
  0
XRECORD
  5
331D
102
{ACAD_REACTORS
330
331C
102
}
330
331C
100
AcDbXrecord
280
     1
102
RTVSPost2010Prop28
280
     0
102
RTVSPost2010PropOp28
 70
     1
102
RTVSPost2010Prop29
280
     1
102
RTVSPost2010PropOp29
 70
     1
102
RTVSPost2010Prop30
280
     1
102
RTVSPost2010PropOp30
 70
     1
102
RTVSPost2010Prop31
280
     0
102
RTVSPost2010PropOp31
 70
     1
102
RTVSPost2010Prop32
280
     0
102
RTVSPost2010PropOp32
 70
     1
102
RTVSPost2010Prop33
280
     0
102
RTVSPost2010PropOp33
 70
     1
102
RTVSPost2010Prop34
280
     0
102
RTVSPost2010PropOp34
 70
     1
102
RTVSPost2010Prop35
280
     0
102
RTVSPost2010PropOp35
 70
     1
102
RTVSPost2010Prop36
280
     0
102
RTVSPost2010PropOp36
 70
     1
102
RTVSPost2010Prop37
 90
       50
102
RTVSPost2010PropOp37
 70
     1
102
RTVSPost2010Prop38
140
0.0
102
RTVSPost2010PropOp38
 70
     1
102
RTVSPost2010Prop39
140
1.0
102
RTVSPost2010PropOp39
 70
     1
102
RTVSPost2010Prop40
 90
        0
102
RTVSPost2010PropOp40
 70
     1
102
RTVSPost2010Prop41ColorIndex
 90
       18
102
RTVSPost2010Prop41ColorRGB
 90
        0
102
RTVSPost2010PropOp41
 70
     1
102
RTVSPost2010Prop42
 90
       50
102
RTVSPost2010PropOp42
 70
     1
102
RTVSPost2010Prop43
 90
        3
102
RTVSPost2010PropOp43
 70
     1
102
RTVSPost2010Prop44ColorIndex
 90
        5
102
RTVSPost2010Prop44ColorRGB
 90
      255
102
RTVSPost2010PropOp44
 70
     1
102
RTVSPost2010Prop45
280
     0
102
RTVSPost2010PropOp45
 70
     1
102
RTVSPost2010Prop46
 90
       50
102
RTVSPost2010PropOp46
 70
     1
102
RTVSPost2010Prop47
 90
       50
102
RTVSPost2010PropOp47
 70
     1
102
RTVSPost2010Prop48
 90
       50
102
RTVSPost2010PropOp48
 70
     1
102
RTVSPost2010Prop49
280
     0
102
RTVSPost2010PropOp49
 70
     1
102
RTVSPost2010Prop50
 90
       50
102
RTVSPost2010PropOp50
 70
     1
102
RTVSPost2010Prop51ColorIndex
 90
      256
102
RTVSPost2010Prop51ColorRGB
 90
-16777216
102
RTVSPost2010PropOp51
 70
     0
102
RTVSPost2010Prop52
140
1.0
102
RTVSPost2010PropOp52
 70
     0
102
RTVSPost2010Prop53
 90
        2
102
RTVSPost2010PropOp53
 70
     1
102
RTVSPost2010Prop54
  1
strokes_ogs.tif
102
RTVSPost2010PropOp54
 70
     1
102
RTVSPost2010Prop55
280
     0
102
RTVSPost2010PropOp55
 70
     1
102
RTVSPost2010Prop56
140
1.0
102
RTVSPost2010PropOp56
 70
     1
102
RTVSPost2010Prop57
140
1.0
102
RTVSPost2010PropOp57
 70
     1
102
RTVSPropertyOp0
 70
     1
102
RTVSPropertyOp1
 70
     1
102
RTVSPropertyOp2
 70
     1
102
RTVSPropertyOp3
 70
     1
102
RTVSPropertyOp4
 70
     1
102
RTVSPropertyOp5
 70
     1
102
RTVSPropertyOp6
 70
     1
102
RTVSPropertyOp7
 70
     1
102
RTVSPropertyOp8
 70
     1
102
RTVSPropertyOp9
 70
     1
102
RTVSPropertyOp10
 70
     1
102
RTVSPropertyOp11
 70
     1
102
RTVSPropertyOp12
 70
     1
102
RTVSPropertyOp13
 70
     1
102
RTVSPropertyOp14
 70
     1
102
RTVSPropertyOp15
 70
     1
102
RTVSPropertyOp16
 70
     1
102
RTVSPropertyOp17
 70
     1
102
RTVSPropertyOp18
 70
     1
102
RTVSPropertyOp19
 70
     1
102
RTVSPropertyOp20
 70
     1
102
RTVSPropertyOp21
 70
     1
102
RTVSPropertyOp22
 70
     1
102
RTVSPropertyOp23
 70
     1
102
RTVSPropertyOp24
 70
     1
102
RTVSPropertyOp25
 70
     1
102
RTVSPropertyOp26
 70
     1
102
RTVSPropertyOp27
 70
     1
102
RTVSPropertyOp28
 70
     1
102
RTVSPropertyOp29
 70
     1
102
RTVSPropertyOp30
 70
     1
102
RTVSPropertyOp31
 70
     1
102
RTVSPropertyOp32
 70
     1
102
RTVSPropertyOp33
 70
     1
102
RTVSPropertyOp34
 70
     1
102
RTVSPropertyOp35
 70
     1
102
RTVSPropertyOp36
 70
     1
102
RTVSPropertyOp37
 70
     1
102
RTVSPropertyOp38
 70
     1
102
RTVSPropertyOp39
 70
     1
102
RTVSPropertyOp40
 70
     1
102
RTVSPropertyOp41
 70
     1
102
RTVSPropertyOp42
 70
     1
102
RTVSPropertyOp43
 70
     1
102
RTVSPropertyOp44
 70
     1
102
RTVSPropertyOp45
 70
     1
102
RTVSPropertyOp46
 70
     1
102
RTVSPropertyOp47
 70
     1
102
RTVSPropertyOp48
 70
     1
102
RTVSPropertyOp49
 70
     1
102
RTVSPropertyOp50
 70
     1
102
RTVSPropertyOp51
 70
     0
102
RTVSPropertyOp52
 70
     0
102
RTVSPropertyOp53
 70
     1
102
RTVSPropertyOp54
 70
     1
102
RTVSPropertyOp55
 70
     1
102
RTVSPropertyOp56
 70
     1
102
RTVSPropertyOp57
 70
     1
102
RTVSPropertyOp58
 70
     1
102
RTVSPropertyOp59
 70
     1
102
RTVSPropertyOp60
 70
     1
102
RTVSPropertyOp61
 70
     1
102
RTVSPropertyOp62
 70
     1
  0
XRECORD
  5
3313
102
{ACAD_REACTORS
330
3312
102
}
330
3312
100
AcDbXrecord
280
     1
102
RTVSPost2010Prop28
280
     0
102
RTVSPost2010PropOp28
 70
     1
102
RTVSPost2010Prop29
280
     1
102
RTVSPost2010PropOp29
 70
     1
102
RTVSPost2010Prop30
280
     1
102
RTVSPost2010PropOp30
 70
     1
102
RTVSPost2010Prop31
280
     0
102
RTVSPost2010PropOp31
 70
     1
102
RTVSPost2010Prop32
280
     0
102
RTVSPost2010PropOp32
 70
     1
102
RTVSPost2010Prop33
280
     0
102
RTVSPost2010PropOp33
 70
     1
102
RTVSPost2010Prop34
280
     0
102
RTVSPost2010PropOp34
 70
     1
102
RTVSPost2010Prop35
280
     0
102
RTVSPost2010PropOp35
 70
     1
102
RTVSPost2010Prop36
280
     0
102
RTVSPost2010PropOp36
 70
     1
102
RTVSPost2010Prop37
 90
       50
102
RTVSPost2010PropOp37
 70
     1
102
RTVSPost2010Prop38
140
0.0
102
RTVSPost2010PropOp38
 70
     1
102
RTVSPost2010Prop39
140
1.0
102
RTVSPost2010PropOp39
 70
     1
102
RTVSPost2010Prop40
 90
        0
102
RTVSPost2010PropOp40
 70
     1
102
RTVSPost2010Prop41ColorIndex
 90
       18
102
RTVSPost2010Prop41ColorRGB
 90
        0
102
RTVSPost2010PropOp41
 70
     1
102
RTVSPost2010Prop42
 90
       50
102
RTVSPost2010PropOp42
 70
     1
102
RTVSPost2010Prop43
 90
        3
102
RTVSPost2010PropOp43
 70
     1
102
RTVSPost2010Prop44ColorIndex
 90
        5
102
RTVSPost2010Prop44ColorRGB
 90
      255
102
RTVSPost2010PropOp44
 70
     1
102
RTVSPost2010Prop45
280
     0
102
RTVSPost2010PropOp45
 70
     1
102
RTVSPost2010Prop46
 90
       50
102
RTVSPost2010PropOp46
 70
     1
102
RTVSPost2010Prop47
 90
       50
102
RTVSPost2010PropOp47
 70
     1
102
RTVSPost2010Prop48
 90
       50
102
RTVSPost2010PropOp48
 70
     1
102
RTVSPost2010Prop49
280
     0
102
RTVSPost2010PropOp49
 70
     1
102
RTVSPost2010Prop50
 90
       50
102
RTVSPost2010PropOp50
 70
     1
102
RTVSPost2010Prop51ColorIndex
 90
      256
102
RTVSPost2010Prop51ColorRGB
 90
-16777216
102
RTVSPost2010PropOp51
 70
     0
102
RTVSPost2010Prop52
140
1.0
102
RTVSPost2010PropOp52
 70
     0
102
RTVSPost2010Prop53
 90
        2
102
RTVSPost2010PropOp53
 70
     1
102
RTVSPost2010Prop54
  1
strokes_ogs.tif
102
RTVSPost2010PropOp54
 70
     1
102
RTVSPost2010Prop55
280
     0
102
RTVSPost2010PropOp55
 70
     1
102
RTVSPost2010Prop56
140
1.0
102
RTVSPost2010PropOp56
 70
     1
102
RTVSPost2010Prop57
140
1.0
102
RTVSPost2010PropOp57
 70
     1
102
RTVSPropertyOp0
 70
     1
102
RTVSPropertyOp1
 70
     1
102
RTVSPropertyOp2
 70
     1
102
RTVSPropertyOp3
 70
     1
102
RTVSPropertyOp4
 70
     1
102
RTVSPropertyOp5
 70
     1
102
RTVSPropertyOp6
 70
     1
102
RTVSPropertyOp7
 70
     1
102
RTVSPropertyOp8
 70
     1
102
RTVSPropertyOp9
 70
     1
102
RTVSPropertyOp10
 70
     1
102
RTVSPropertyOp11
 70
     1
102
RTVSPropertyOp12
 70
     1
102
RTVSPropertyOp13
 70
     1
102
RTVSPropertyOp14
 70
     1
102
RTVSPropertyOp15
 70
     1
102
RTVSPropertyOp16
 70
     1
102
RTVSPropertyOp17
 70
     1
102
RTVSPropertyOp18
 70
     1
102
RTVSPropertyOp19
 70
     1
102
RTVSPropertyOp20
 70
     1
102
RTVSPropertyOp21
 70
     1
102
RTVSPropertyOp22
 70
     1
102
RTVSPropertyOp23
 70
     1
102
RTVSPropertyOp24
 70
     1
102
RTVSPropertyOp25
 70
     1
102
RTVSPropertyOp26
 70
     1
102
RTVSPropertyOp27
 70
     1
102
RTVSPropertyOp28
 70
     1
102
RTVSPropertyOp29
 70
     1
102
RTVSPropertyOp30
 70
     1
102
RTVSPropertyOp31
 70
     1
102
RTVSPropertyOp32
 70
     1
102
RTVSPropertyOp33
 70
     1
102
RTVSPropertyOp34
 70
     1
102
RTVSPropertyOp35
 70
     1
102
RTVSPropertyOp36
 70
     1
102
RTVSPropertyOp37
 70
     1
102
RTVSPropertyOp38
 70
     1
102
RTVSPropertyOp39
 70
     1
102
RTVSPropertyOp40
 70
     1
102
RTVSPropertyOp41
 70
     1
102
RTVSPropertyOp42
 70
     1
102
RTVSPropertyOp43
 70
     1
102
RTVSPropertyOp44
 70
     1
102
RTVSPropertyOp45
 70
     1
102
RTVSPropertyOp46
 70
     1
102
RTVSPropertyOp47
 70
     1
102
RTVSPropertyOp48
 70
     1
102
RTVSPropertyOp49
 70
     1
102
RTVSPropertyOp50
 70
     1
102
RTVSPropertyOp51
 70
     0
102
RTVSPropertyOp52
 70
     0
102
RTVSPropertyOp53
 70
     1
102
RTVSPropertyOp54
 70
     1
102
RTVSPropertyOp55
 70
     1
102
RTVSPropertyOp56
 70
     1
102
RTVSPropertyOp57
 70
     1
102
RTVSPropertyOp58
 70
     1
102
RTVSPropertyOp59
 70
     1
102
RTVSPropertyOp60
 70
     1
102
RTVSPropertyOp61
 70
     1
102
RTVSPropertyOp62
 70
     1
  0
XRECORD
  5
3307
102
{ACAD_REACTORS
330
3306
102
}
330
3306
100
AcDbXrecord
280
     1
102
RTVSPost2010Prop28
280
     0
102
RTVSPost2010PropOp28
 70
     1
102
RTVSPost2010Prop29
280
     1
102
RTVSPost2010PropOp29
 70
     1
102
RTVSPost2010Prop30
280
     1
102
RTVSPost2010PropOp30
 70
     1
102
RTVSPost2010Prop31
280
     0
102
RTVSPost2010PropOp31
 70
     1
102
RTVSPost2010Prop32
280
     0
102
RTVSPost2010PropOp32
 70
     1
102
RTVSPost2010Prop33
280
     0
102
RTVSPost2010PropOp33
 70
     1
102
RTVSPost2010Prop34
280
     0
102
RTVSPost2010PropOp34
 70
     1
102
RTVSPost2010Prop35
280
     0
102
RTVSPost2010PropOp35
 70
     1
102
RTVSPost2010Prop36
280
     0
102
RTVSPost2010PropOp36
 70
     1
102
RTVSPost2010Prop37
 90
       50
102
RTVSPost2010PropOp37
 70
     1
102
RTVSPost2010Prop38
140
0.0
102
RTVSPost2010PropOp38
 70
     1
102
RTVSPost2010Prop39
140
1.0
102
RTVSPost2010PropOp39
 70
     1
102
RTVSPost2010Prop40
 90
        0
102
RTVSPost2010PropOp40
 70
     1
102
RTVSPost2010Prop41ColorIndex
 90
       18
102
RTVSPost2010Prop41ColorRGB
 90
        0
102
RTVSPost2010PropOp41
 70
     1
102
RTVSPost2010Prop42
 90
       50
102
RTVSPost2010PropOp42
 70
     1
102
RTVSPost2010Prop43
 90
        3
102
RTVSPost2010PropOp43
 70
     1
102
RTVSPost2010Prop44ColorIndex
 90
        5
102
RTVSPost2010Prop44ColorRGB
 90
      255
102
RTVSPost2010PropOp44
 70
     1
102
RTVSPost2010Prop45
280
     0
102
RTVSPost2010PropOp45
 70
     1
102
RTVSPost2010Prop46
 90
       50
102
RTVSPost2010PropOp46
 70
     1
102
RTVSPost2010Prop47
 90
       50
102
RTVSPost2010PropOp47
 70
     1
102
RTVSPost2010Prop48
 90
       50
102
RTVSPost2010PropOp48
 70
     1
102
RTVSPost2010Prop49
280
     0
102
RTVSPost2010PropOp49
 70
     1
102
RTVSPost2010Prop50
 90
       50
102
RTVSPost2010PropOp50
 70
     1
102
RTVSPost2010Prop51ColorIndex
 90
      256
102
RTVSPost2010Prop51ColorRGB
 90
-16777216
102
RTVSPost2010PropOp51
 70
     0
102
RTVSPost2010Prop52
140
1.0
102
RTVSPost2010PropOp52
 70
     0
102
RTVSPost2010Prop53
 90
        2
102
RTVSPost2010PropOp53
 70
     1
102
RTVSPost2010Prop54
  1
strokes_ogs.tif
102
RTVSPost2010PropOp54
 70
     1
102
RTVSPost2010Prop55
280
     0
102
RTVSPost2010PropOp55
 70
     1
102
RTVSPost2010Prop56
140
1.0
102
RTVSPost2010PropOp56
 70
     1
102
RTVSPost2010Prop57
140
1.0
102
RTVSPost2010PropOp57
 70
     1
102
RTVSPropertyOp0
 70
     1
102
RTVSPropertyOp1
 70
     1
102
RTVSPropertyOp2
 70
     1
102
RTVSPropertyOp3
 70
     1
102
RTVSPropertyOp4
 70
     1
102
RTVSPropertyOp5
 70
     1
102
RTVSPropertyOp6
 70
     1
102
RTVSPropertyOp7
 70
     1
102
RTVSPropertyOp8
 70
     1
102
RTVSPropertyOp9
 70
     1
102
RTVSPropertyOp10
 70
     1
102
RTVSPropertyOp11
 70
     1
102
RTVSPropertyOp12
 70
     1
102
RTVSPropertyOp13
 70
     1
102
RTVSPropertyOp14
 70
     1
102
RTVSPropertyOp15
 70
     1
102
RTVSPropertyOp16
 70
     1
102
RTVSPropertyOp17
 70
     1
102
RTVSPropertyOp18
 70
     1
102
RTVSPropertyOp19
 70
     1
102
RTVSPropertyOp20
 70
     1
102
RTVSPropertyOp21
 70
     1
102
RTVSPropertyOp22
 70
     1
102
RTVSPropertyOp23
 70
     1
102
RTVSPropertyOp24
 70
     1
102
RTVSPropertyOp25
 70
     1
102
RTVSPropertyOp26
 70
     1
102
RTVSPropertyOp27
 70
     1
102
RTVSPropertyOp28
 70
     1
102
RTVSPropertyOp29
 70
     1
102
RTVSPropertyOp30
 70
     1
102
RTVSPropertyOp31
 70
     1
102
RTVSPropertyOp32
 70
     1
102
RTVSPropertyOp33
 70
     1
102
RTVSPropertyOp34
 70
     1
102
RTVSPropertyOp35
 70
     1
102
RTVSPropertyOp36
 70
     1
102
RTVSPropertyOp37
 70
     1
102
RTVSPropertyOp38
 70
     1
102
RTVSPropertyOp39
 70
     1
102
RTVSPropertyOp40
 70
     1
102
RTVSPropertyOp41
 70
     1
102
RTVSPropertyOp42
 70
     1
102
RTVSPropertyOp43
 70
     1
102
RTVSPropertyOp44
 70
     1
102
RTVSPropertyOp45
 70
     1
102
RTVSPropertyOp46
 70
     1
102
RTVSPropertyOp47
 70
     1
102
RTVSPropertyOp48
 70
     1
102
RTVSPropertyOp49
 70
     1
102
RTVSPropertyOp50
 70
     1
102
RTVSPropertyOp51
 70
     0
102
RTVSPropertyOp52
 70
     0
102
RTVSPropertyOp53
 70
     1
102
RTVSPropertyOp54
 70
     1
102
RTVSPropertyOp55
 70
     1
102
RTVSPropertyOp56
 70
     1
102
RTVSPropertyOp57
 70
     1
102
RTVSPropertyOp58
 70
     1
102
RTVSPropertyOp59
 70
     1
102
RTVSPropertyOp60
 70
     1
102
RTVSPropertyOp61
 70
     1
102
RTVSPropertyOp62
 70
     1
  0
XRECORD
  5
331F
102
{ACAD_REACTORS
330
331E
102
}
330
331E
100
AcDbXrecord
280
     1
102
RTVSPost2010Prop28
280
     0
102
RTVSPost2010PropOp28
 70
     1
102
RTVSPost2010Prop29
280
     1
102
RTVSPost2010PropOp29
 70
     1
102
RTVSPost2010Prop30
280
     1
102
RTVSPost2010PropOp30
 70
     1
102
RTVSPost2010Prop31
280
     0
102
RTVSPost2010PropOp31
 70
     1
102
RTVSPost2010Prop32
280
     0
102
RTVSPost2010PropOp32
 70
     1
102
RTVSPost2010Prop33
280
     0
102
RTVSPost2010PropOp33
 70
     1
102
RTVSPost2010Prop34
280
     0
102
RTVSPost2010PropOp34
 70
     1
102
RTVSPost2010Prop35
280
     0
102
RTVSPost2010PropOp35
 70
     1
102
RTVSPost2010Prop36
280
     0
102
RTVSPost2010PropOp36
 70
     1
102
RTVSPost2010Prop37
 90
       50
102
RTVSPost2010PropOp37
 70
     1
102
RTVSPost2010Prop38
140
0.0
102
RTVSPost2010PropOp38
 70
     1
102
RTVSPost2010Prop39
140
1.0
102
RTVSPost2010PropOp39
 70
     1
102
RTVSPost2010Prop40
 90
        0
102
RTVSPost2010PropOp40
 70
     1
102
RTVSPost2010Prop41ColorIndex
 90
       18
102
RTVSPost2010Prop41ColorRGB
 90
        0
102
RTVSPost2010PropOp41
 70
     1
102
RTVSPost2010Prop42
 90
       50
102
RTVSPost2010PropOp42
 70
     1
102
RTVSPost2010Prop43
 90
        3
102
RTVSPost2010PropOp43
 70
     1
102
RTVSPost2010Prop44ColorIndex
 90
        5
102
RTVSPost2010Prop44ColorRGB
 90
      255
102
RTVSPost2010PropOp44
 70
     1
102
RTVSPost2010Prop45
280
     0
102
RTVSPost2010PropOp45
 70
     1
102
RTVSPost2010Prop46
 90
       50
102
RTVSPost2010PropOp46
 70
     1
102
RTVSPost2010Prop47
 90
       50
102
RTVSPost2010PropOp47
 70
     1
102
RTVSPost2010Prop48
 90
       50
102
RTVSPost2010PropOp48
 70
     1
102
RTVSPost2010Prop49
280
     0
102
RTVSPost2010PropOp49
 70
     1
102
RTVSPost2010Prop50
 90
       50
102
RTVSPost2010PropOp50
 70
     1
102
RTVSPost2010Prop51ColorIndex
 90
      256
102
RTVSPost2010Prop51ColorRGB
 90
-16777216
102
RTVSPost2010PropOp51
 70
     0
102
RTVSPost2010Prop52
140
1.0
102
RTVSPost2010PropOp52
 70
     0
102
RTVSPost2010Prop53
 90
        2
102
RTVSPost2010PropOp53
 70
     1
102
RTVSPost2010Prop54
  1
strokes_ogs.tif
102
RTVSPost2010PropOp54
 70
     1
102
RTVSPost2010Prop55
280
     0
102
RTVSPost2010PropOp55
 70
     1
102
RTVSPost2010Prop56
140
1.0
102
RTVSPost2010PropOp56
 70
     1
102
RTVSPost2010Prop57
140
1.0
102
RTVSPost2010PropOp57
 70
     1
102
RTVSPropertyOp0
 70
     1
102
RTVSPropertyOp1
 70
     1
102
RTVSPropertyOp2
 70
     1
102
RTVSPropertyOp3
 70
     1
102
RTVSPropertyOp4
 70
     1
102
RTVSPropertyOp5
 70
     1
102
RTVSPropertyOp6
 70
     1
102
RTVSPropertyOp7
 70
     1
102
RTVSPropertyOp8
 70
     1
102
RTVSPropertyOp9
 70
     1
102
RTVSPropertyOp10
 70
     1
102
RTVSPropertyOp11
 70
     1
102
RTVSPropertyOp12
 70
     1
102
RTVSPropertyOp13
 70
     1
102
RTVSPropertyOp14
 70
     1
102
RTVSPropertyOp15
 70
     1
102
RTVSPropertyOp16
 70
     1
102
RTVSPropertyOp17
 70
     1
102
RTVSPropertyOp18
 70
     1
102
RTVSPropertyOp19
 70
     1
102
RTVSPropertyOp20
 70
     1
102
RTVSPropertyOp21
 70
     1
102
RTVSPropertyOp22
 70
     1
102
RTVSPropertyOp23
 70
     1
102
RTVSPropertyOp24
 70
     1
102
RTVSPropertyOp25
 70
     1
102
RTVSPropertyOp26
 70
     1
102
RTVSPropertyOp27
 70
     1
102
RTVSPropertyOp28
 70
     1
102
RTVSPropertyOp29
 70
     1
102
RTVSPropertyOp30
 70
     1
102
RTVSPropertyOp31
 70
     1
102
RTVSPropertyOp32
 70
     1
102
RTVSPropertyOp33
 70
     1
102
RTVSPropertyOp34
 70
     1
102
RTVSPropertyOp35
 70
     1
102
RTVSPropertyOp36
 70
     1
102
RTVSPropertyOp37
 70
     1
102
RTVSPropertyOp38
 70
     1
102
RTVSPropertyOp39
 70
     1
102
RTVSPropertyOp40
 70
     1
102
RTVSPropertyOp41
 70
     1
102
RTVSPropertyOp42
 70
     1
102
RTVSPropertyOp43
 70
     1
102
RTVSPropertyOp44
 70
     1
102
RTVSPropertyOp45
 70
     1
102
RTVSPropertyOp46
 70
     1
102
RTVSPropertyOp47
 70
     1
102
RTVSPropertyOp48
 70
     1
102
RTVSPropertyOp49
 70
     1
102
RTVSPropertyOp50
 70
     1
102
RTVSPropertyOp51
 70
     0
102
RTVSPropertyOp52
 70
     0
102
RTVSPropertyOp53
 70
     1
102
RTVSPropertyOp54
 70
     1
102
RTVSPropertyOp55
 70
     1
102
RTVSPropertyOp56
 70
     1
102
RTVSPropertyOp57
 70
     1
102
RTVSPropertyOp58
 70
     1
102
RTVSPropertyOp59
 70
     1
102
RTVSPropertyOp60
 70
     1
102
RTVSPropertyOp61
 70
     1
102
RTVSPropertyOp62
 70
     1
  0
ENDSEC
  0
EOF
