  0
SECTION
  2
HEADER
  9
$ACADVER
  1
AC1015
  9
$ACADMAINTVER
 70
    20
  9
$DWGCODEPAGE
  3
ANSI_932
  9
$INSBASE
 10
0.0
 20
0.0
 30
0.0
  9
$EXTMIN
 10
3.191529301916716
 20
2.71005318489631
 30
-0.0000000349181948
  9
$EXTMAX
 10
404.5358285966049
 20
294.199310990981
 30
0.0000000814935746
  9
$LIMMIN
 10
0.0
 20
0.0
  9
$LIMMAX
 10
420.0
 20
297.0
  9
$ORTHOMODE
 70
     1
  9
$REGENMODE
 70
     1
  9
$FILLMODE
 70
     1
  9
$QTEXTMODE
 70
     0
  9
$MIRRTEXT
 70
     1
  9
$LTSCALE
 40
12.0
  9
$ATTMODE
 70
     1
  9
$TEXTSIZE
 40
10.0
  9
$TRACEWID
 40
0.3
  9
$TEXTSTYLE
  7
0
  9
$CLAYER
  8
SB
  9
$CELTYPE
  6
ByLayer
  9
$CECOLOR
 62
   256
  9
$CELTSCALE
 40
1.0
  9
$DISPSILH
 70
     0
  9
$DIMSCALE
 40
1.0
  9
$DIMASZ
 40
5.0
  9
$DIMEXO
 40
0.0625
  9
$DIMDLI
 40
0.38
  9
$DIMRND
 40
0.0
  9
$DIMDLE
 40
0.0
  9
$DIMEXE
 40
0.18
  9
$DIMTP
 40
0.0
  9
$DIMTM
 40
0.0
  9
$DIMTXT
 40
5.0
  9
$DIMCEN
 40
0.09
  9
$DIMTSZ
 40
0.0
  9
$DIMTOL
 70
     0
  9
$DIMLIM
 70
     0
  9
$DIMTIH
 70
     0
  9
$DIMTOH
 70
     0
  9
$DIMSE1
 70
     0
  9
$DIMSE2
 70
     0
  9
$DIMTAD
 70
     0
  9
$DIMZIN
 70
     0
  9
$DIMBLK
  1

  9
$DIMASO
 70
     1
  9
$DIMSHO
 70
     0
  9
$DIMPOST
  1

  9
$DIMAPOST
  1

  9
$DIMALT
 70
     0
  9
$DIMALTD
 70
     2
  9
$DIMALTF
 40
25.4
  9
$DIMLFAC
 40
1.0
  9
$DIMTOFL
 70
     0
  9
$DIMTVP
 40
0.0
  9
$DIMTIX
 70
     0
  9
$DIMSOXD
 70
     0
  9
$DIMSAH
 70
     0
  9
$DIMBLK1
  1

  9
$DIMBLK2
  1

  9
$DIMSTYLE
  2
Standard
  9
$DIMCLRD
 70
     0
  9
$DIMCLRE
 70
     0
  9
$DIMCLRT
 70
     0
  9
$DIMTFAC
 40
1.0
  9
$DIMGAP
 40
0.09
  9
$DIMJUST
 70
     0
  9
$DIMSD1
 70
     0
  9
$DIMSD2
 70
     0
  9
$DIMTOLJ
 70
     1
  9
$DIMTZIN
 70
     0
  9
$DIMALTZ
 70
     0
  9
$DIMALTTZ
 70
     0
  9
$DIMUPT
 70
     0
  9
$DIMDEC
 70
     4
  9
$DIMTDEC
 70
     4
  9
$DIMALTU
 70
     2
  9
$DIMALTTD
 70
     2
  9
$DIMTXSTY
  7
STANDARD
  9
$DIMAUNIT
 70
     0
  9
$DIMADEC
 70
     0
  9
$DIMALTRND
 40
0.0
  9
$DIMAZIN
 70
     0
  9
$DIMDSEP
 70
    46
  9
$DIMATFIT
 70
     3
  9
$DIMFRAC
 70
     0
  9
$DIMLDRBLK
  1

  9
$DIMLUNIT
 70
     2
  9
$DIMLWD
 70
    -2
  9
$DIMLWE
 70
    -2
  9
$DIMTMOVE
 70
     0
  9
$LUNITS
 70
     2
  9
$LUPREC
 70
     4
  9
$SKETCHINC
 40
0.1
  9
$FILLETRAD
 40
0.0
  9
$AUNITS
 70
     0
  9
$AUPREC
 70
     1
  9
$MENU
  1
ACAD
  9
$ELEVATION
 40
0.0
  9
$PELEVATION
 40
0.0
  9
$THICKNESS
 40
0.0
  9
$LIMCHECK
 70
     0
  9
$CHAMFERA
 40
0.0
  9
$CHAMFERB
 40
0.0
  9
$CHAMFERC
 40
0.0
  9
$CHAMFERD
 40
0.0
  9
$SKPOLY
 70
     0
  9
$TDCREATE
 40
2450808.702418171
  9
$TDUCREATE
 40
2450808.327418172
  9
$TDUPDATE
 40
2458726.564434421
  9
$TDUUPDATE
 40
2458726.189434421
  9
$TDINDWG
 40
1.7295613310
  9
$TDUSRTIMER
 40
1.7295597106
  9
$USRTIMER
 70
     1
  9
$ANGBASE
 50
0.0
  9
$ANGDIR
 70
     0
  9
$PDMODE
 70
     0
  9
$PDSIZE
 40
0.0
  9
$PLINEWID
 40
1.0
  9
$SPLFRAME
 70
     0
  9
$SPLINETYPE
 70
     6
  9
$SPLINESEGS
 70
     8
  9
$HANDSEED
  5
219A
  9
$SURFTAB1
 70
     6
  9
$SURFTAB2
 70
     6
  9
$SURFTYPE
 70
     6
  9
$SURFU
 70
     6
  9
$SURFV
 70
     6
  9
$UCSBASE
  2

  9
$UCSNAME
  2

  9
$UCSORG
 10
0.0
 20
0.0
 30
0.0
  9
$UCSXDIR
 10
1.0
 20
0.0
 30
0.0
  9
$UCSYDIR
 10
0.0
 20
1.0
 30
0.0
  9
$UCSORTHOREF
  2

  9
$UCSORTHOVIEW
 70
     0
  9
$UCSORGTOP
 10
0.0
 20
0.0
 30
0.0
  9
$UCSORGBOTTOM
 10
0.0
 20
0.0
 30
0.0
  9
$UCSORGLEFT
 10
0.0
 20
0.0
 30
0.0
  9
$UCSORGRIGHT
 10
0.0
 20
0.0
 30
0.0
  9
$UCSORGFRONT
 10
0.0
 20
0.0
 30
0.0
  9
$UCSORGBACK
 10
0.0
 20
0.0
 30
0.0
  9
$PUCSBASE
  2

  9
$PUCSNAME
  2

  9
$PUCSORG
 10
0.0
 20
0.0
 30
0.0
  9
$PUCSXDIR
 10
1.0
 20
0.0
 30
0.0
  9
$PUCSYDIR
 10
0.0
 20
1.0
 30
0.0
  9
$PUCSORTHOREF
  2

  9
$PUCSORTHOVIEW
 70
     0
  9
$PUCSORGTOP
 10
0.0
 20
0.0
 30
0.0
  9
$PUCSORGBOTTOM
 10
0.0
 20
0.0
 30
0.0
  9
$PUCSORGLEFT
 10
0.0
 20
0.0
 30
0.0
  9
$PUCSORGRIGHT
 10
0.0
 20
0.0
 30
0.0
  9
$PUCSORGFRONT
 10
0.0
 20
0.0
 30
0.0
  9
$PUCSORGBACK
 10
0.0
 20
0.0
 30
0.0
  9
$USERI1
 70
     0
  9
$USERI2
 70
     0
  9
$USERI3
 70
     0
  9
$USERI4
 70
     0
  9
$USERI5
 70
     0
  9
$USERR1
 40
0.0
  9
$USERR2
 40
0.0
  9
$USERR3
 40
0.0
  9
$USERR4
 40
0.0
  9
$USERR5
 40
0.0
  9
$WORLDVIEW
 70
     1
  9
$SHADEDGE
 70
     3
  9
$SHADEDIF
 70
    70
  9
$TILEMODE
 70
     1
  9
$MAXACTVP
 70
    16
  9
$PINSBASE
 10
0.0
 20
0.0
 30
0.0
  9
$PLIMCHECK
 70
     0
  9
$PEXTMIN
 10
1.000000000000000E+20
 20
1.000000000000000E+20
 30
1.000000000000000E+20
  9
$PEXTMAX
 10
-1.000000000000000E+20
 20
-1.000000000000000E+20
 30
-1.000000000000000E+20
  9
$PLIMMIN
 10
0.0
 20
0.0
  9
$PLIMMAX
 10
12.0
 20
9.0
  9
$UNITMODE
 70
     0
  9
$VISRETAIN
 70
     0
  9
$PLINEGEN
 70
     0
  9
$PSLTSCALE
 70
     0
  9
$TREEDEPTH
 70
  3020
  9
$CMLSTYLE
  2
Standard
  9
$CMLJUST
 70
     0
  9
$CMLSCALE
 40
1.0
  9
$PROXYGRAPHICS
 70
     1
  9
$MEASUREMENT
 70
     0
  9
$CELWEIGHT
370
    -1
  9
$ENDCAPS
280
     0
  9
$JOINSTYLE
280
     0
  9
$LWDISPLAY
290
     0
  9
$INSUNITS
 70
     0
  9
$HYPERLINKBASE
  1

  9
$STYLESHEET
  1
monochrome.ctb
  9
$XEDIT
290
     1
  9
$CEPSNTYPE
380
     0
  9
$PSTYLEMODE
290
     1
  9
$FINGERPRINTGUID
  2
{51BC8342-4694-11D4-A1F9-0060672295C7}
  9
$VERSIONGUID
  2
{18ECB063-1F4E-45FB-94C1-C249288AE2EA}
  9
$EXTNAMES
290
     1
  9
$PSVPSCALE
 40
0.0
  9
$OLESTARTUP
290
     0
  0
ENDSEC
  0
SECTION
  2
CLASSES
  0
CLASS
  1
ACDBDICTIONARYWDFLT
  2
AcDbDictionaryWithDefault
  3
ObjectDBX Classes
 90
        0
280
     0
281
     0
  0
CLASS
  1
ACDBPLACEHOLDER
  2
AcDbPlaceHolder
  3
ObjectDBX Classes
 90
        0
280
     0
281
     0
  0
CLASS
  1
LAYOUT
  2
AcDbLayout
  3
ObjectDBX Classes
 90
        0
280
     0
281
     0
  0
CLASS
  1
TABLESTYLE
  2
AcDbTableStyle
  3
ObjectDBX Classes
 90
     4095
280
     0
281
     0
  0
CLASS
  1
DICTIONARYVAR
  2
AcDbDictionaryVar
  3
ObjectDBX Classes
 90
        0
280
     0
281
     0
  0
CLASS
  1
MATERIAL
  2
AcDbMaterial
  3
ObjectDBX Classes
 90
     1153
280
     0
281
     0
  0
CLASS
  1
VISUALSTYLE
  2
AcDbVisualStyle
  3
ObjectDBX Classes
 90
     4095
280
     0
281
     0
  0
CLASS
  1
SCALE
  2
AcDbScale
  3
ObjectDBX Classes
 90
     1153
280
     0
281
     0
  0
CLASS
  1
MLEADERSTYLE
  2
AcDbMLeaderStyle
  3
ACDB_MLEADERSTYLE_CLASS
 90
     4095
280
     0
281
     0
  0
CLASS
  1
ACDBSECTIONVIEWSTYLE
  2
AcDbSectionViewStyle
  3
ObjectDBX Classes
 90
     1025
280
     0
281
     0
  0
CLASS
  1
ACDBDETAILVIEWSTYLE
  2
AcDbDetailViewStyle
  3
ObjectDBX Classes
 90
     1025
280
     0
281
     0
  0
CLASS
  1
DIMASSOC
  2
AcDbDimAssoc
  3
"AcDbDimAssoc|Product Desc:     AcDim ARX App For Dimension|Company:          Autodesk, Inc.|WEB Address:      www.autodesk.com"
 90
        0
280
     0
281
     0
  0
CLASS
  1
SORTENTSTABLE
  2
AcDbSortentsTable
  3
ObjectDBX Classes
 90
        0
280
     0
281
     0
  0
CLASS
  1
CELLSTYLEMAP
  2
AcDbCellStyleMap
  3
ObjectDBX Classes
 90
     1152
280
     0
281
     0
  0
ENDSEC
  0
SECTION
  2
TABLES
  0
TABLE
  2
VPORT
  5
8
330
0
100
AcDbSymbolTable
 70
     1
  0
VPORT
  5
1C4B
330
8
100
AcDbSymbolTableRecord
100
AcDbViewportTableRecord
  2
*Active
 70
     0
 10
0.0
 20
0.0
 11
1.0
 21
1.0
 12
203.8636789492608
 22
148.4546820879386
 13
0.0
 23
0.0
 14
0.001
 24
0.001
 15
10.0
 25
10.0
 16
0.0
 26
0.0
 36
1.0
 17
0.0
 27
0.0
 37
0.0
 40
293.6919474116722
 41
2.090794451450189
 42
50.0
 43
0.0
 44
0.0
 50
0.0
 51
0.0
 71
     0
 72
  2000
 73
     1
 74
     0
 75
     1
 76
     1
 77
     0
 78
     2
281
     0
 65
     1
110
0.0
120
0.0
130
0.0
111
1.0
121
0.0
131
0.0
112
0.0
122
1.0
132
0.0
 79
     0
146
0.0
1001
ACAD_NAV_VCDISPLAY
1070
     3
  0
ENDTAB
  0
TABLE
  2
LTYPE
  5
5
330
0
100
AcDbSymbolTable
 70
     6
  0
LTYPE
  5
13
330
5
100
AcDbSymbolTableRecord
100
AcDbLinetypeTableRecord
  2
ByBlock
 70
     0
  3

 72
    65
 73
     0
 40
0.0
  0
LTYPE
  5
14
330
5
100
AcDbSymbolTableRecord
100
AcDbLinetypeTableRecord
  2
ByLayer
 70
     0
  3

 72
    65
 73
     0
 40
0.0
  0
LTYPE
  5
15
330
5
100
AcDbSymbolTableRecord
100
AcDbLinetypeTableRecord
  2
CONTINUOUS
 70
     0
  3
実線
 72
    65
 73
     0
 40
0.0
  0
LTYPE
  5
23
330
5
100
AcDbSymbolTableRecord
100
AcDbLinetypeTableRecord
  2
CENTER
 70
     0
  3
____ _ ____ _ ____ _ ____ _ ____ _ ____ _ ____
 72
    65
 73
     4
 40
2.0
 49
1.25
 74
     0
 49
-0.25
 74
     0
 49
0.25
 74
     0
 49
-0.25
 74
     0
  0
LTYPE
  5
24
330
5
100
AcDbSymbolTableRecord
100
AcDbLinetypeTableRecord
  2
HIDDEN
 70
     0
  3
_ _ _ _ _ _ _ _ _ _ _ _ _ _ _ _ _ _ _ _ _ _ _
 72
    65
 73
     2
 40
0.375
 49
0.25
 74
     0
 49
-0.125
 74
     0
  0
LTYPE
  5
1C0C
330
5
100
AcDbSymbolTableRecord
100
AcDbLinetypeTableRecord
  2
PHANTOM2
 70
     0
  3
Phantom (.5x) ___ _ _ ___ _ _ ___ _ _ ___ _ _
 72
    65
 73
     6
 40
1.25
 49
0.625
 74
     0
 49
-0.125
 74
     0
 49
0.125
 74
     0
 49
-0.125
 74
     0
 49
0.125
 74
     0
 49
-0.125
 74
     0
  0
LTYPE
  5
1D07
330
5
100
AcDbSymbolTableRecord
100
AcDbLinetypeTableRecord
  2
CENTER2
 70
     0
  3
Center (.5x) ___ _ ___ _ ___ _ ___ _ ___ _ ___
 72
    65
 73
     4
 40
28.575
 49
19.05
 74
     0
 49
-3.174999999999999
 74
     0
 49
3.174999999999999
 74
     0
 49
-3.174999999999999
 74
     0
  0
LTYPE
  5
1D08
330
5
100
AcDbSymbolTableRecord
100
AcDbLinetypeTableRecord
  2
HIDDEN2
 70
     0
  3
Hidden (.5x) _ _ _ _ _ _ _ _ _ _ _ _ _ _ _ _ _
 72
    65
 73
     2
 40
4.762499999999999
 49
3.174999999999999
 74
     0
 49
-1.587499999999999
 74
     0
  0
ENDTAB
  0
TABLE
  2
LAYER
  5
2
330
0
100
AcDbSymbolTable
 70
    11
  0
LAYER
  5
10
102
{ACAD_XDICTIONARY
360
1F1D
102
}
330
2
100
AcDbSymbolTableRecord
100
AcDbLayerTableRecord
  2
0
 70
     0
 62
     7
  6
CONTINUOUS
370
    -3
390
F
  0
LAYER
  5
28
102
{ACAD_XDICTIONARY
360
1F1F
102
}
330
2
100
AcDbSymbolTableRecord
100
AcDbLayerTableRecord
  2
HO
 70
     0
 62
     2
  6
CENTER
370
    13
390
F
  0
LAYER
  5
29
102
{ACAD_XDICTIONARY
360
1F21
102
}
330
2
100
AcDbSymbolTableRecord
100
AcDbLayerTableRecord
  2
HA
 70
     0
 62
     4
  6
HIDDEN
370
    13
390
F
  0
LAYER
  5
2A
102
{ACAD_XDICTIONARY
360
1F23
102
}
330
2
100
AcDbSymbolTableRecord
100
AcDbLayerTableRecord
  2
SB
 70
     0
 62
     1
  6
CONTINUOUS
370
    20
390
F
  0
LAYER
  5
2B
102
{ACAD_XDICTIONARY
360
1F25
102
}
330
2
100
AcDbSymbolTableRecord
100
AcDbLayerTableRecord
  2
SA
 70
     0
 62
     7
  6
CONTINUOUS
370
    30
390
F
  0
LAYER
  5
2C
102
{ACAD_XDICTIONARY
360
1F27
102
}
330
2
100
AcDbSymbolTableRecord
100
AcDbLayerTableRecord
  2
MO
 70
     0
 62
     3
  6
CONTINUOUS
370
    20
390
F
  0
LAYER
  5
2D
102
{ACAD_XDICTIONARY
360
1F29
102
}
330
2
100
AcDbSymbolTableRecord
100
AcDbLayerTableRecord
  2
SC
 70
     0
 62
     6
  6
CONTINUOUS
370
    13
390
F
  0
LAYER
  5
2E
330
2
100
AcDbSymbolTableRecord
100
AcDbLayerTableRecord
  2
DEFPOINTS
 70
     0
 62
     7
  6
CONTINUOUS
290
     0
370
    -3
390
F
  0
LAYER
  5
1397
102
{ACAD_XDICTIONARY
360
1F2B
102
}
330
2
100
AcDbSymbolTableRecord
100
AcDbLayerTableRecord
  2
sd
 70
     0
 62
     1
  6
CONTINUOUS
370
    20
390
F
  0
LAYER
  5
1C0D
102
{ACAD_XDICTIONARY
360
1F2D
102
}
330
2
100
AcDbSymbolTableRecord
100
AcDbLayerTableRecord
  2
SZ
 70
     0
 62
     5
  6
PHANTOM2
370
     9
390
F
  0
LAYER
  5
1D0B
102
{ACAD_XDICTIONARY
360
1F2F
102
}
330
2
100
AcDbSymbolTableRecord
100
AcDbLayerTableRecord
  2
NN
 70
     0
 62
     3
  6
CONTINUOUS
370
    18
390
F
  0
ENDTAB
  0
TABLE
  2
STYLE
  5
3
330
0
100
AcDbSymbolTable
 70
     4
  0
STYLE
  5
11
330
3
100
AcDbSymbolTableRecord
100
AcDbTextStyleTableRecord
  2
STANDARD
 70
     0
 40
0.0
 41
1.0
 50
0.0
 71
     0
 42
0.2
  3
TXT
  4

  0
STYLE
  5
22
330
3
100
AcDbSymbolTableRecord
100
AcDbTextStyleTableRecord
  2
0
 70
     0
 40
0.0
 41
1.0
 50
0.0
 71
     0
 42
10.0
  3
SIMPLEX.shx
  4
BIGFONT.shx
  0
STYLE
  5
1C0B
330
3
100
AcDbSymbolTableRecord
100
AcDbTextStyleTableRecord
  2

 70
     1
 40
0.0
 41
1.0
 50
0.0
 71
     0
 42
10.0
  3
ltypeshp.shx
  4

  0
ENDTAB
  0
TABLE
  2
VIEW
  5
6
330
0
100
AcDbSymbolTable
 70
     1
  0
VIEW
  5
25
330
6
100
AcDbSymbolTableRecord
100
AcDbViewTableRecord
  2
HYOU
 70
     0
 40
162.519
 10
329.94
 20
84.5855
 41
158.206
 11
0.0
 21
0.0
 31
1.0
 12
0.0
 22
0.0
 32
0.0
 42
50.0
 43
0.0
 44
0.0
 50
0.0
 71
     0
281
     0
 72
     0
  0
ENDTAB
  0
TABLE
  2
UCS
  5
7
330
0
100
AcDbSymbolTable
 70
     0
  0
ENDTAB
  0
TABLE
  2
APPID
  5
9
330
0
100
AcDbSymbolTable
 70
    10
  0
APPID
  5
12
330
9
100
AcDbSymbolTableRecord
100
AcDbRegAppTableRecord
  2
ACAD
 70
     0
  0
APPID
  5
17B3
330
9
100
AcDbSymbolTableRecord
100
AcDbRegAppTableRecord
  2
ACAD_PSEXT
 70
     0
  0
APPID
  5
1D0F
330
9
100
AcDbSymbolTableRecord
100
AcDbRegAppTableRecord
  2
ACAD_NAV_VCDISPLAY
 70
     0
  0
APPID
  5
1F4A
330
9
100
AcDbSymbolTableRecord
100
AcDbRegAppTableRecord
  2
ACAD_DSTYLE_DIMJAG
 70
     0
  0
APPID
  5
1F4B
330
9
100
AcDbSymbolTableRecord
100
AcDbRegAppTableRecord
  2
ACAD_DSTYLE_DIMTALN
 70
     0
  0
APPID
  5
1F84
330
9
100
AcDbSymbolTableRecord
100
AcDbRegAppTableRecord
  2
AcadAnnoMonitorAlertIconDisabled
 70
     0
  0
APPID
  5
1F85
330
9
100
AcDbSymbolTableRecord
100
AcDbRegAppTableRecord
  2
ACAD_EXEMPT_FROM_CAD_STANDARDS
 70
     0
  0
APPID
  5
1FD9
330
9
100
AcDbSymbolTableRecord
100
AcDbRegAppTableRecord
  2
AcadAnnoPO
 70
     0
  0
APPID
  5
215C
330
9
100
AcDbSymbolTableRecord
100
AcDbRegAppTableRecord
  2
ACAD_DSTYLE_DIMARC_LENGTH_SYMBOL
 70
     0
  0
APPID
  5
2191
330
9
100
AcDbSymbolTableRecord
100
AcDbRegAppTableRecord
  2
ACAD_MLEADERVER
 70
     0
  0
ENDTAB
  0
TABLE
  2
DIMSTYLE
  5
A
330
0
100
AcDbSymbolTable
 70
     3
100
AcDbDimStyleTable
 71
     2
340
3C3
340
1D0D
  0
DIMSTYLE
105
3C3
330
A
100
AcDbSymbolTableRecord
100
AcDbDimStyleTableRecord
  2
Standard
 70
     0
 41
5.0
 73
     0
 74
     0
140
5.0
340
11
1001
ACAD_DSTYLE_DIMJAG
1070
   388
1040
1.5
1001
ACAD_DSTYLE_DIMTALN
1070
   392
1070
     0
1001
ACAD_DSTYLE_DIMARC_LENGTH_SYMBOL
1070
   379
1070
     1
  0
DIMSTYLE
105
1D0D
102
{ACAD_REACTORS
330
1E2F
330
1E32
330
1E35
330
1E3F
330
1E4C
330
1E4F
102
}
330
A
100
AcDbSymbolTableRecord
100
AcDbDimStyleTableRecord
  2
ISO-25
 70
     0
 40
0.7
 41
3.0
 42
0.625
 43
3.75
 44
1.25
 73
     0
 74
     0
 77
     1
 78
     8
140
3.0
141
2.5
143
0.03937007874016
147
0.625
171
     3
172
     1
271
     2
272
     2
274
     3
283
     0
284
     8
340
11
  0
ENDTAB
  0
TABLE
  2
BLOCK_RECORD
  5
1
330
0
100
AcDbSymbolTable
 70
    12
  0
BLOCK_RECORD
  5
1E
102
{ACAD_XDICTIONARY
360
1FAB
102
}
330
1
100
AcDbSymbolTableRecord
100
AcDbBlockTableRecord
  2
*Model_Space
340
21
  0
BLOCK_RECORD
  5
1A
330
1
100
AcDbSymbolTableRecord
100
AcDbBlockTableRecord
  2
*Paper_Space
340
1D
  0
BLOCK_RECORD
  5
1BF1
330
1
100
AcDbSymbolTableRecord
100
AcDbBlockTableRecord
  2
A$C168224A4
340
0
  0
BLOCK_RECORD
  5
1E52
330
1
100
AcDbSymbolTableRecord
100
AcDbBlockTableRecord
  2
*D1
340
0
  0
BLOCK_RECORD
  5
1E60
330
1
100
AcDbSymbolTableRecord
100
AcDbBlockTableRecord
  2
*D2
340
0
  0
BLOCK_RECORD
  5
1E6D
330
1
100
AcDbSymbolTableRecord
100
AcDbBlockTableRecord
  2
*D3
340
0
  0
BLOCK_RECORD
  5
1E86
330
1
100
AcDbSymbolTableRecord
100
AcDbBlockTableRecord
  2
*D5
340
0
  0
BLOCK_RECORD
  5
1E92
330
1
100
AcDbSymbolTableRecord
100
AcDbBlockTableRecord
  2
*D6
340
0
  0
BLOCK_RECORD
  5
1E9F
330
1
100
AcDbSymbolTableRecord
100
AcDbBlockTableRecord
  2
*D7
340
0
  0
ENDTAB
  0
ENDSEC
  0
SECTION
  2
BLOCKS
  0
BLOCK
  5
31
330
1E
100
AcDbEntity
  8
0
100
AcDbBlockBegin
  2
*Model_Space
 70
     0
 10
0.0
 20
0.0
 30
0.0
  3
*Model_Space
  1

  0
ENDBLK
  5
32
330
1E
100
AcDbEntity
  8
0
100
AcDbBlockEnd
  0
BLOCK
  5
2F
330
1A
100
AcDbEntity
 67
     1
  8
0
100
AcDbBlockBegin
  2
*Paper_Space
 70
     0
 10
0.0
 20
0.0
 30
0.0
  3
*Paper_Space
  1

  0
ENDBLK
  5
30
330
1A
100
AcDbEntity
 67
     1
  8
0
100
AcDbBlockEnd
  0
BLOCK
  5
1BF7
330
1BF1
100
AcDbEntity
  8
0
100
AcDbBlockBegin
  2
A$C168224A4
 70
     0
 10
0.0
 20
0.0
 30
0.0
  3
A$C168224A4
  1

  0
TEXT
  5
1BF2
330
1BF1
100
AcDbEntity
  8
MO
100
AcDbText
 10
29.06392589340328
 20
15.78399955256054
 30
0.0
 40
3.599999999999998
  1
ヒーターバンド
  7
0
100
AcDbText
  0
TEXT
  5
1BF3
330
1BF1
100
AcDbEntity
  8
MO
100
AcDbText
 10
16.98844636234099
 20
21.7352072125702
 30
0.0
 40
3.599999999999998
  1
ヒーター（C）
  7
0
100
AcDbText
  0
LINE
  5
1BF4
330
1BF1
100
AcDbEntity
  8
SC
100
AcDbLine
 10
14.63431328166325
 20
20.85448773706838
 30
0.0
 11
59.28792531728698
 21
20.85448773706838
 31
0.0
  0
LINE
  5
1BF5
330
1BF1
100
AcDbEntity
  8
SC
100
AcDbLine
 10
0.3999994263709823
 20
0.3999998947063545
 30
0.0
 11
14.63431328166325
 21
20.85448773706838
 31
0.0
  0
CIRCLE
  5
1BF6
330
1BF1
100
AcDbEntity
  8
SC
100
AcDbCircle
 10
0.3999994263709823
 20
0.3999998947063545
 30
0.0
 40
0.4
  0
ENDBLK
  5
1BF8
330
1BF1
100
AcDbEntity
  8
0
100
AcDbBlockEnd
  0
BLOCK
  5
1E53
330
1E52
100
AcDbEntity
  8
0
100
AcDbBlockBegin
  2
*D1
 70
     1
 10
0.0
 20
0.0
 30
0.0
  3
*D1
  1

  0
LINE
  5
2137
330
1E52
100
AcDbEntity
  8
SC
 62
     0
370
    -2
100
AcDbLine
 10
131.6886084586264
 20
163.4664652701538
 30
0.0
 11
132.1223844153916
 21
163.0448614550941
 31
0.0
  0
LINE
  5
2138
330
1E52
100
AcDbEntity
  8
SC
 62
     0
370
    -2
100
AcDbLine
 10
134.4765045215316
 20
166.3348507990598
 30
0.0
 11
134.9102804782968
 21
165.9132469840001
 31
0.0
  0
LINE
  5
2139
330
1E52
100
AcDbEntity
  8
SC
 62
     0
370
    -2
100
AcDbLine
 10
130.0312796479181
 20
162.148811316179
 30
0.0
 11
128.5676342148929
 21
160.6429089135033
 31
0.0
  0
LINE
  5
213A
330
1E52
100
AcDbEntity
  8
SC
 62
     0
370
    -2
100
AcDbLine
 10
135.7464665768739
 20
168.0290016504363
 30
0.0
 11
141.8902925255013
 21
174.3502062597629
 31
0.0
  0
LINE
  5
213B
330
1E52
100
AcDbEntity
  8
SC
 62
     0
370
    -2
100
AcDbLine
 10
131.4949250809434
 20
163.6547137188546
 30
0.0
 11
134.2828211438486
 21
166.5230992477606
 31
0.0
  0
SOLID
  5
213C
330
1E52
100
AcDbEntity
  8
SC
 62
     0
100
AcDbTrace
 10
129.7802959141388
 20
162.3927522216832
 30
0.0
 11
130.2822633816974
 21
161.9048704106748
 31
0.0
 12
131.4949250809434
 22
163.6547137188546
 32
0.0
 13
131.4949250809434
 23
163.6547137188546
 33
0.0
  0
SOLID
  5
213D
330
1E52
100
AcDbEntity
  8
SC
 62
     0
100
AcDbTrace
 10
135.4954828430946
 20
168.2729425559405
 30
0.0
 11
135.9974503106531
 21
167.7850607449321
 31
0.0
 12
134.2828211438486
 22
166.5230992477606
 32
0.0
 13
134.2828211438486
 23
166.5230992477606
 33
0.0
  0
MTEXT
  5
213E
330
1E52
100
AcDbEntity
  8
SC
 62
     0
100
AcDbMText
 10
138.232537665359
 20
173.2232449103345
 30
0.0
 40
2.799999999999999
 41
0.0
 71
     5
 72
     1
  1
（4）
  7
0
 11
0.6969740157263129
 21
0.717096382226502
 31
0.0
 73
     1
 44
1.0
1001
ACAD
1000
MTEXTBEGIN
1070
    73
1070
     1
1070
    44
1040
1.0
1070
    74
1070
     0
1000
MTEXTEND
  0
POINT
  5
213F
330
1E52
100
AcDbEntity
  8
DEFPOINTS
 62
     0
100
AcDbPoint
 10
131.3748787914023
 20
163.771391402034
 30
0.0
  0
POINT
  5
2140
330
1E52
100
AcDbEntity
  8
DEFPOINTS
 62
     0
100
AcDbPoint
 10
134.1627748543075
 20
166.63977693094
 30
0.0
  0
POINT
  5
2141
330
1E52
100
AcDbEntity
  8
DEFPOINTS
 62
     0
100
AcDbPoint
 10
134.2828211438486
 20
166.5230992477606
 30
0.0
  0
ENDBLK
  5
1E54
330
1E52
100
AcDbEntity
  8
0
100
AcDbBlockEnd
  0
BLOCK
  5
1E61
330
1E60
100
AcDbEntity
  8
0
100
AcDbBlockBegin
  2
*D2
 70
     1
 10
0.0
 20
0.0
 30
0.0
  3
*D2
  1

  0
LINE
  5
212D
330
1E60
100
AcDbEntity
  8
SC
 62
     0
370
    -2
100
AcDbLine
 10
95.02193175277346
 20
166.0686646422026
 30
0.0
 11
95.64177034715536
 21
166.5504358892662
 31
0.0
  0
LINE
  5
212E
330
1E60
100
AcDbEntity
  8
SC
 62
     0
370
    -2
100
AcDbLine
 10
83.97565056740566
 20
180.2806198902953
 30
0.0
 11
84.59548916178755
 21
180.7623911373589
 31
0.0
  0
LINE
  5
212F
330
1E60
100
AcDbEntity
  8
SC
 62
     0
370
    -2
100
AcDbLine
 10
93.66217860652461
 20
167.6715253328105
 30
0.0
 11
85.19336303107596
 21
178.5673576896816
 31
0.0
  0
LINE
  5
2130
330
1E60
100
AcDbEntity
  8
SC
 62
     0
370
    -2
100
AcDbLine
 10
83.90463022611639
 20
180.2254191352924
 30
0.0
 11
76.84898801049422
 21
189.3030869704912
 31
0.0
  0
SOLID
  5
2131
330
1E60
100
AcDbEntity
  8
SC
 62
     0
100
AcDbTrace
 10
93.9385221807931
 20
167.8863141336371
 30
0.0
 11
93.38583503225617
 21
167.4567365319839
 31
0.0
 12
94.95091141148419
 22
166.0134638871997
 32
0.0
 13
94.95091141148419
 23
166.0134638871997
 33
0.0
  0
SOLID
  5
2132
330
1E60
100
AcDbEntity
  8
SC
 62
     0
100
AcDbTrace
 10
85.46970660534444
 20
178.7821464905082
 30
0.0
 11
84.9170194568075
 21
178.352568888855
 31
0.0
 12
83.90463022611639
 22
180.2254191352924
 32
0.0
 13
83.90463022611639
 23
180.2254191352924
 33
0.0
  0
MTEXT
  5
2133
330
1E60
100
AcDbEntity
  8
SC
 62
     0
100
AcDbMText
 10
81.01482449823324
 20
186.9376138038993
 30
0.0
 40
2.799999999999999
 41
0.0
 71
     5
 72
     1
  1
（18）
  7
0
 11
0.6136822880759892
 21
-0.7895530693384827
 31
0.0
 73
     1
 44
1.0
1001
ACAD
1000
MTEXTBEGIN
1070
    73
1070
     1
1070
    44
1040
1.0
1070
    74
1070
     0
1000
MTEXTEND
  0
POINT
  5
2134
330
1E60
100
AcDbEntity
  8
DEFPOINTS
 62
     0
100
AcDbPoint
 10
94.6765022849379
 20
165.8001786411694
 30
0.0
  0
POINT
  5
2135
330
1E60
100
AcDbEntity
  8
DEFPOINTS
 62
     0
100
AcDbPoint
 10
83.63022109957009
 20
180.0121338892621
 30
0.0
  0
POINT
  5
2136
330
1E60
100
AcDbEntity
  8
DEFPOINTS
 62
     0
100
AcDbPoint
 10
83.90463022611639
 20
180.2254191352924
 30
0.0
  0
ENDBLK
  5
1E62
330
1E60
100
AcDbEntity
  8
0
100
AcDbBlockEnd
  0
BLOCK
  5
1E6E
330
1E6D
100
AcDbEntity
  8
0
100
AcDbBlockBegin
  2
*D3
 70
     1
 10
0.0
 20
0.0
 30
0.0
  3
*D3
  1

  0
LINE
  5
2123
330
1E6D
100
AcDbEntity
  8
SC
 62
     0
370
    -2
100
AcDbLine
 10
95.15632317263877
 20
121.2162219511227
 30
0.0
 11
94.70216150241313
 21
121.5428411905628
 31
0.0
  0
LINE
  5
2124
330
1E6D
100
AcDbEntity
  8
SC
 62
     0
370
    -2
100
AcDbLine
 10
86.39841401817109
 20
109.0384131481364
 30
0.0
 11
85.94425234794545
 21
109.3650323875765
 31
0.0
  0
LINE
  5
2125
330
1E6D
100
AcDbEntity
  8
SC
 62
     0
370
    -2
100
AcDbLine
 10
94.18642640096186
 20
119.3270699241341
 30
0.0
 11
87.88073180974512
 21
110.5590475859839
 31
0.0
  0
LINE
  5
2126
330
1E6D
100
AcDbEntity
  8
SC
 62
     0
370
    -2
100
AcDbLine
 10
86.65462452811965
 20
108.8541543535658
 30
0.0
 11
79.04917794444582
 21
98.27883634971813
 31
0.0
  0
SOLID
  5
2127
330
1E6D
100
AcDbEntity
  8
SC
 62
     0
100
AcDbTrace
 10
93.90227752889218
 20
119.5314211377383
 30
0.0
 11
94.47057527303154
 21
119.1227187105298
 31
0.0
 12
95.41253368258734
 22
121.0319631565521
 32
0.0
 13
95.41253368258734
 23
121.0319631565521
 33
0.0
  0
SOLID
  5
2128
330
1E6D
100
AcDbEntity
  8
SC
 62
     0
100
AcDbTrace
 10
87.59658293767545
 20
110.7633987995882
 30
0.0
 11
88.16488068181481
 21
110.3546963723797
 31
0.0
 12
86.65462452811965
 22
108.8541543535658
 32
0.0
 13
86.65462452811965
 23
108.8541543535658
 33
0.0
  0
MTEXT
  5
2129
330
1E6D
100
AcDbEntity
  8
SC
 62
     0
100
AcDbMText
 10
80.14049301613939
 20
102.9434572730878
 30
0.0
 40
2.799999999999999
 41
0.0
 71
     5
 72
     1
  1
（15）
  7
0
 11
0.5838606102978471
 21
0.811853920199087
 31
0.0
 73
     1
 44
1.0
1001
ACAD
1000
MTEXTBEGIN
1070
    73
1070
     1
1070
    44
1040
1.0
1070
    74
1070
     0
1000
MTEXTEND
  0
POINT
  5
212A
330
1E6D
100
AcDbEntity
  8
DEFPOINTS
 62
     0
100
AcDbPoint
 10
95.51150926272589
 20
120.9607829341174
 30
0.0
  0
POINT
  5
212B
330
1E6D
100
AcDbEntity
  8
DEFPOINTS
 62
     0
100
AcDbPoint
 10
86.75360010825819
 20
108.7829741311311
 30
0.0
  0
POINT
  5
212C
330
1E6D
100
AcDbEntity
  8
DEFPOINTS
 62
     0
100
AcDbPoint
 10
86.65462452811965
 20
108.8541543535658
 30
0.0
  0
ENDBLK
  5
1E6F
330
1E6D
100
AcDbEntity
  8
0
100
AcDbBlockEnd
  0
BLOCK
  5
1E87
330
1E86
100
AcDbEntity
  8
0
100
AcDbBlockBegin
  2
*D5
 70
     1
 10
0.0
 20
0.0
 30
0.0
  3
*D5
  1

  0
LINE
  5
211A
330
1E86
100
AcDbEntity
  8
SC
 62
     0
370
    -2
100
AcDbLine
 10
260.396455892615
 20
108.0997047611935
 30
0.0
 11
279.7173032077633
 21
108.0997047611935
 31
0.0
  0
LINE
  5
211B
330
1E86
100
AcDbEntity
  8
SC
 62
     0
370
    -2
100
AcDbLine
 10
266.090795713276
 20
88.12400019579985
 30
0.0
 11
279.7173032077633
 21
88.12400019579985
 31
0.0
  0
LINE
  5
211C
330
1E86
100
AcDbEntity
  8
SC
 62
     0
370
    -2
100
AcDbLine
 10
278.8423032077633
 20
105.9997047611936
 30
0.0
 11
278.8423032077633
 21
90.22400019579984
 31
0.0
  0
SOLID
  5
211D
330
1E86
100
AcDbEntity
  8
SC
 62
     0
100
AcDbTrace
 10
278.4923032077633
 20
105.9997047611936
 30
0.0
 11
279.1923032077633
 21
105.9997047611936
 31
0.0
 12
278.8423032077633
 22
108.0997047611935
 32
0.0
 13
278.8423032077633
 23
108.0997047611935
 33
0.0
  0
SOLID
  5
211E
330
1E86
100
AcDbEntity
  8
SC
 62
     0
100
AcDbTrace
 10
278.4923032077633
 20
90.22400019579984
 30
0.0
 11
279.1923032077633
 21
90.22400019579984
 31
0.0
 12
278.8423032077633
 22
88.12400019579985
 32
0.0
 13
278.8423032077633
 23
88.12400019579985
 33
0.0
  0
MTEXT
  5
211F
330
1E86
100
AcDbEntity
  8
SC
 62
     0
100
AcDbMText
 10
276.27146987443
 20
98.11185247849676
 30
0.0
 40
2.799999999999999
 41
0.0
 71
     5
 72
     1
  1
(35)
  7
0
 11
0.0000000000000001
 21
1.0
 31
0.0
 73
     1
 44
1.0
1001
ACAD
1000
MTEXTBEGIN
1070
    73
1070
     1
1070
    44
1040
1.0
1070
    74
1070
     0
1000
MTEXTEND
  0
POINT
  5
2120
330
1E86
100
AcDbEntity
  8
DEFPOINTS
 62
     0
100
AcDbPoint
 10
259.958955892615
 20
108.0997047611935
 30
0.0
  0
POINT
  5
2121
330
1E86
100
AcDbEntity
  8
DEFPOINTS
 62
     0
100
AcDbPoint
 10
265.653295713276
 20
88.12400019579985
 30
0.0
  0
POINT
  5
2122
330
1E86
100
AcDbEntity
  8
DEFPOINTS
 62
     0
100
AcDbPoint
 10
278.8423032077633
 20
88.12400019579985
 30
0.0
  0
ENDBLK
  5
1E88
330
1E86
100
AcDbEntity
  8
0
100
AcDbBlockEnd
  0
BLOCK
  5
1E93
330
1E92
100
AcDbEntity
  8
0
100
AcDbBlockBegin
  2
*D6
 70
     1
 10
0.0
 20
0.0
 30
0.0
  3
*D6
  1

  0
LINE
  5
2110
330
1E92
100
AcDbEntity
  8
SC
 62
     0
370
    -2
100
AcDbLine
 10
229.614523123213
 20
175.6926926996919
 30
0.0
 11
247.7398487576442
 21
175.6926926996921
 31
0.0
  0
ARC
  5
2111
330
1E92
100
AcDbEntity
  8
SC
 62
     0
370
    -2
100
AcDbCircle
 10
193.6640169231867
 20
175.6926926996917
 30
0.0
 40
53.20083183445753
100
AcDbArc
 50
3.015868341511753
 51
10.23441715781399
  0
SOLID
  5
2112
330
1E92
100
AcDbEntity
  8
SC
 62
     0
100
AcDbTrace
 10
247.2576707547802
 20
178.5040035427587
 30
0.0
 11
246.3246606436702
 21
178.4794425232856
 31
0.0
 12
246.8648487576442
 22
175.6926926996921
 32
0.0
 13
246.8648487576442
 23
175.6926926996921
 33
0.0
  0
SOLID
  5
2113
330
1E92
100
AcDbEntity
  8
SC
 62
     0
100
AcDbTrace
 10
245.561472779808
 20
185.0502269499652
 30
0.0
 11
246.4752739187015
 21
185.2401705986295
 31
0.0
 12
245.4485424032617
 22
187.8866021909781
 32
0.0
 13
245.4485424032617
 23
187.8866021909781
 33
0.0
  0
MTEXT
  5
2114
102
{ACAD_XDICTIONARY
360
2198
102
}
330
1E92
100
AcDbEntity
  8
SC
 62
     0
100
AcDbMText
 10
247.9871528093098
 20
182.0022526156874
 30
0.0
 40
2.099999999999999
 41
0.0
 71
     5
 72
     1
  1
17\U+00B0
 11
0.1153730549890365
 21
-0.9933222328038857
 31
0.0
 73
     1
 44
1.0
1001
ACAD
1000
MTEXTBEGIN
1070
    73
1070
     1
1070
    44
1040
1.0
1070
    74
1070
     0
1000
MTEXTEND
  0
POINT
  5
2115
330
1E92
100
AcDbEntity
  8
DEFPOINTS
 62
     0
100
AcDbPoint
 10
246.7068564104461
 20
179.7897266276774
 30
0.0
  0
POINT
  5
2116
330
1E92
100
AcDbEntity
  8
DEFPOINTS
 62
     0
100
AcDbPoint
 10
232.4444947332779
 20
184.8244870351838
 30
0.0
  0
POINT
  5
2117
330
1E92
100
AcDbEntity
  8
DEFPOINTS
 62
     0
100
AcDbPoint
 10
226.4150351954679
 20
175.6926926996919
 30
0.0
  0
POINT
  5
2118
330
1E92
100
AcDbEntity
  8
DEFPOINTS
 62
     0
100
AcDbPoint
 10
229.177023123213
 20
175.6926926996919
 30
0.0
  0
POINT
  5
2119
330
1E92
100
AcDbEntity
  8
DEFPOINTS
 62
     0
100
AcDbPoint
 10
251.3129296867438
 20
189.267512937841
 30
0.0
  0
ENDBLK
  5
1E94
330
1E92
100
AcDbEntity
  8
0
100
AcDbBlockEnd
  0
BLOCK
  5
1EA0
330
1E9F
100
AcDbEntity
  8
0
100
AcDbBlockBegin
  2
*D7
 70
     1
 10
0.0
 20
0.0
 30
0.0
  3
*D7
  1

  0
LINE
  5
2107
330
1E9F
100
AcDbEntity
  8
SC
 62
     0
370
    -2
100
AcDbLine
 10
220.3013138605133
 20
186.2151551642919
 30
0.0
 11
218.6171466671456
 21
195.3414941569142
 31
0.0
  0
LINE
  5
2108
330
1E9F
100
AcDbEntity
  8
SC
 62
     0
370
    -2
100
AcDbLine
 10
233.438075759055
 20
188.6394025470039
 30
0.0
 11
231.7539085656872
 21
197.7657415396262
 31
0.0
  0
LINE
  5
2109
330
1E9F
100
AcDbEntity
  8
SC
 62
     0
370
    -2
100
AcDbLine
 10
220.8410679736133
 20
194.86212058376
 30
0.0
 11
229.84756854055
 21
196.5241728912784
 31
0.0
  0
SOLID
  5
210A
330
1E9F
100
AcDbEntity
  8
SC
 62
     0
100
AcDbTrace
 10
220.7775517173472
 20
195.2063090280604
 30
0.0
 11
220.9045842298795
 21
194.5179321394596
 31
0.0
 12
218.7759373078109
 22
194.4810230461632
 32
0.0
 13
218.7759373078109
 23
194.4810230461632
 33
0.0
  0
SOLID
  5
210B
330
1E9F
100
AcDbEntity
  8
SC
 62
     0
100
AcDbTrace
 10
229.7840522842839
 20
196.8683613355788
 30
0.0
 11
229.9110847968162
 21
196.179984446978
 31
0.0
 12
231.9126992063525
 22
196.9052704288752
 32
0.0
 13
231.9126992063525
 23
196.9052704288752
 33
0.0
  0
MTEXT
  5
210C
330
1E9F
100
AcDbEntity
  8
SC
 62
     0
100
AcDbMText
 10
225.0108579116845
 20
197.5001360700963
 30
0.0
 40
2.799999999999999
 41
0.0
 71
     5
 72
     1
  1
13
 11
0.9833955551440199
 21
0.1814750179032494
 31
0.0
 73
     1
 44
1.0
1001
ACAD
1000
MTEXTBEGIN
1070
    73
1070
     1
1070
    44
1040
1.0
1070
    74
1070
     0
1000
MTEXTEND
  0
POINT
  5
210D
330
1E9F
100
AcDbEntity
  8
DEFPOINTS
 62
     0
100
AcDbPoint
 10
220.380709180846
 20
185.7849196089164
 30
0.0
  0
POINT
  5
210E
330
1E9F
100
AcDbEntity
  8
DEFPOINTS
 62
     0
100
AcDbPoint
 10
233.5174710793876
 20
188.2091669916285
 30
0.0
  0
POINT
  5
210F
330
1E9F
100
AcDbEntity
  8
DEFPOINTS
 62
     0
100
AcDbPoint
 10
231.9126992063525
 20
196.9052704288752
 30
0.0
  0
ENDBLK
  5
1EA1
330
1E9F
100
AcDbEntity
  8
0
100
AcDbBlockEnd
  0
ENDSEC
  0
SECTION
  2
ENTITIES
  0
TEXT
  5
61
330
1E
100
AcDbEntity
  8
MO
100
AcDbText
 10
328.5
 20
53.5
 30
0.0
 40
4.0
  1

  7
0
 72
     1
 11
328.5
 21
53.5
 31
0.0
100
AcDbText
  0
TEXT
  5
62
330
1E
100
AcDbEntity
  8
MO
100
AcDbText
 10
328.5
 20
47.0
 30
0.0
 40
4.0
  1

  7
0
 72
     1
 11
328.5
 21
47.0
 31
0.0
100
AcDbText
  0
TEXT
  5
63
330
1E
100
AcDbEntity
  8
MO
100
AcDbText
 10
328.5
 20
34.0
 30
0.0
 40
4.0
  1

  7
0
 72
     1
 11
328.5
 21
34.0
 31
0.0
100
AcDbText
  0
TEXT
  5
6E
330
1E
100
AcDbEntity
  8
MO
100
AcDbText
 10
328.204
 20
39.802
 30
0.0
 40
4.0
  1

  7
0
 72
     1
 11
328.204
 21
39.802
 31
0.0
100
AcDbText
  0
TEXT
  5
89
330
1E
100
AcDbEntity
  8
MO
100
AcDbText
 10
82.2020000000001
 20
51.07199999999998
 30
0.0
 40
3.0
  1

  7
0
100
AcDbText
  0
TEXT
  5
8B
330
1E
100
AcDbEntity
  8
MO
100
AcDbText
 10
110.859
 20
51.07199999999998
 30
0.0
 40
3.0
  1

  7
0
100
AcDbText
  0
TEXT
  5
8D
330
1E
100
AcDbEntity
  8
MO
100
AcDbText
 10
360.261
 20
19.91099999999999
 30
0.0
 40
7.0
  1

  7
0
 72
     4
 11
360.261
 21
19.91099999999999
 31
0.0
100
AcDbText
  0
TEXT
  5
91
330
1E
100
AcDbEntity
  8
MO
370
    40
100
AcDbText
 10
235.80129153347
 20
248.9260658852126
 30
0.0
 40
10.8
  1
密閉型ノズルヒーター
  7
0
100
AcDbText
  0
TEXT
  5
AC
330
1E
100
AcDbEntity
  8
MO
100
AcDbText
 10
103.1910000000001
 20
51.07199999999996
 30
0.0
 40
3.0
  1

  7
0
100
AcDbText
  0
TEXT
  5
1399
330
1E
100
AcDbEntity
  8
MO
100
AcDbText
 10
75.70200000000006
 20
51.07199999999998
 30
0.0
 40
3.0
  1

  7
0
100
AcDbText
  0
TEXT
  5
139C
330
1E
100
AcDbEntity
  8
MO
100
AcDbText
 10
110.859
 20
63.07199999999996
 30
0.0
 40
3.0
  1

  7
0
100
AcDbText
  0
TEXT
  5
139F
330
1E
100
AcDbEntity
  8
SC
100
AcDbText
 10
135.033
 20
64.98099999999995
 30
0.0
 40
2.0
  1

  7
0
100
AcDbText
  0
TEXT
  5
13A0
330
1E
100
AcDbEntity
  8
MO
100
AcDbText
 10
110.859
 20
45.072
 30
0.0
 40
3.0
  1

  7
0
100
AcDbText
  0
TEXT
  5
148E
330
1E
100
AcDbEntity
  8
MO
100
AcDbText
 10
355.9181320877767
 20
10.917
 30
0.0
 40
5.0
  1
株）
  7
0
 72
     1
 11
359.9181320877767
 21
10.917
 31
0.0
100
AcDbText
  0
TEXT
  5
1491
330
1E
100
AcDbEntity
  8
SC
100
AcDbText
 10
103.7564
 20
117.6597333333333
 30
0.0
 40
0.25
  1

100
AcDbText
  0
TEXT
  5
1492
330
1E
100
AcDbEntity
  8
MO
100
AcDbText
 10
367.1910000000001
 20
10.917
 30
0.0
 40
6.0
  1
愛西電熱
  7
0
 72
     1
 11
380.7910000000002
 21
10.917
 31
0.0
100
AcDbText
  0
MTEXT
  5
1758
330
1E
100
AcDbEntity
  8
SC
100
AcDbMText
 10
317.637
 20
21.871
 30
0.0
 40
2.5
 41
0.0
 71
     1
 72
     5
  1

  7
0
 73
     1
 44
1.0
1001
ACAD
1000
MTEXTBEGIN
1070
    73
1070
     1
1070
    44
1040
1.0
1070
    74
1070
     0
1000
MTEXTEND
  0
MTEXT
  5
178F
330
1E
100
AcDbEntity
  8
SC
100
AcDbMText
 10
220.1774508739589
 20
61.30926792682227
 30
0.0
 40
5.0
 41
0.0
 71
     1
 72
     5
  1
加工穴、その他変更部がありましたら図面に書き込んで御利用下さい
  7
0
 73
     1
 44
1.0
1001
ACAD
1000
MTEXTBEGIN
1070
    73
1070
     1
1070
    44
1040
1.0
1070
    74
1070
     0
1000
MTEXTEND
  0
LINE
  5
17DC
330
1E
100
AcDbEntity
  8
0
100
AcDbLine
 10
14.99999999999995
 20
30.70499999999999
 30
0.0
 11
14.99999999999995
 21
50.70499999999999
 31
0.0
  0
LINE
  5
17DE
330
1E
100
AcDbEntity
  8
0
100
AcDbLine
 10
24.99999999999995
 20
50.70499999999999
 30
0.0
 11
24.99999999999995
 21
30.705
 31
0.0
  0
LINE
  5
1806
330
1E
100
AcDbEntity
  8
0
100
AcDbLine
 10
14.99999999999995
 20
50.70499999999999
 30
0.0
 11
49.99999999999993
 21
50.70499999999999
 31
0.0
  0
LINE
  5
1807
330
1E
100
AcDbEntity
  8
0
100
AcDbLine
 10
14.99999999999995
 20
40.70499999999999
 30
0.0
 11
49.99999999999993
 21
40.70499999999999
 31
0.0
  0
LINE
  5
1808
330
1E
100
AcDbEntity
  8
0
100
AcDbLine
 10
14.99999999999995
 20
30.70499999999999
 30
0.0
 11
49.99999999999993
 21
30.70499999999999
 31
0.0
  0
LINE
  5
180A
330
1E
100
AcDbEntity
  8
0
100
AcDbLine
 10
159.9999999999999
 20
50.70499999999999
 30
0.0
 11
281.0
 21
50.70499999999999
 31
0.0
  0
TEXT
  5
1814
330
1E
100
AcDbEntity
  8
MO
100
AcDbText
 10
19.18000058282744
 20
43.87999982484504
 30
0.0
 40
3.499999999999998
  1
A
  7
0
100
AcDbText
  0
TEXT
  5
181A
330
1E
100
AcDbEntity
  8
MO
100
AcDbText
 10
91.28012879570205
 20
43.7553613470516
 30
0.0
 40
3.499999999999998
  1
B
  7
0
100
AcDbText
  0
TEXT
  5
1822
330
1E
100
AcDbEntity
  8
MO
100
AcDbText
 10
32.9032818353157
 20
43.07893657328403
 30
0.0
 40
4.375
  1
内径
  7
0
 72
     1
 11
37.7157818353157
 21
43.07893657328403
 31
0.0
100
AcDbText
  0
TEXT
  5
1829
330
1E
100
AcDbEntity
  8
MO
100
AcDbText
 10
107.5739879080579
 20
43.61824969380625
 30
0.0
 40
4.375
  1
巾
  7
0
 72
     1
 11
109.6156545747246
 21
43.61824969380625
 31
0.0
100
AcDbText
  0
TEXT
  5
1844
330
1E
100
AcDbEntity
  8
MO
100
AcDbText
 10
18.85312879570205
 20
33.67336134705161
 30
0.0
 40
3.499999999999998
  1
C
  7
0
100
AcDbText
  0
TEXT
  5
1845
330
1E
100
AcDbEntity
  8
MO
100
AcDbText
 10
32.25766860327968
 20
33.50686474409736
 30
0.0
 40
4.375
  1
材質
  7
0
 72
     1
 11
36.92433526994634
 21
33.50686474409736
 31
0.0
100
AcDbText
  0
LINE
  5
1847
330
1E
100
AcDbEntity
  8
0
100
AcDbLine
 10
49.99999999999993
 20
50.70499999999999
 30
0.0
 11
49.99999999999993
 21
30.70499999999999
 31
0.0
  0
TEXT
  5
1855
330
1E
100
AcDbEntity
  8
MO
100
AcDbText
 10
91.35312879570202
 20
33.67336134705161
 30
0.0
 40
3.499999999999998
  1
D
  7
0
100
AcDbText
  0
TEXT
  5
1856
330
1E
100
AcDbEntity
  8
MO
100
AcDbText
 10
226.0884127696539
 20
33.66682550160349
 30
0.0
 40
4.375
  1
数量
  7
0
 72
     1
 11
230.7550794363206
 21
33.66682550160349
 31
0.0
100
AcDbText
  0
LINE
  5
1870
330
1E
100
AcDbEntity
  8
0
100
AcDbLine
 10
14.99999999999994
 20
30.705
 30
0.0
 11
159.9999999999999
 21
30.70499999999999
 31
0.0
  0
LINE
  5
1871
330
1E
100
AcDbEntity
  8
0
100
AcDbLine
 10
87.49999999999992
 20
50.70499999999999
 30
0.0
 11
87.49999999999992
 21
30.70499999999999
 31
0.0
  0
LINE
  5
1873
330
1E
100
AcDbEntity
  8
0
100
AcDbLine
 10
49.99999999999993
 20
50.70499999999999
 30
0.0
 11
159.9999999999999
 21
50.70499999999999
 31
0.0
  0
LINE
  5
1874
330
1E
100
AcDbEntity
  8
0
100
AcDbLine
 10
49.99999999999993
 20
40.70499999999999
 30
0.0
 11
87.49999999999992
 21
40.70499999999999
 31
0.0
  0
LINE
  5
1875
330
1E
100
AcDbEntity
  8
0
100
AcDbLine
 10
49.99999999999993
 20
30.70499999999999
 30
0.0
 11
159.9999999999999
 21
30.70499999999999
 31
0.0
  0
LINE
  5
1884
330
1E
100
AcDbEntity
  8
0
100
AcDbLine
 10
122.4999999999999
 20
40.705
 30
0.0
 11
159.9999999999999
 21
40.705
 31
0.0
  0
LINE
  5
1888
330
1E
100
AcDbEntity
  8
0
100
AcDbLine
 10
14.99999999999994
 20
30.705
 30
0.0
 11
159.9999999999999
 21
30.70499999999999
 31
0.0
  0
LINE
  5
1889
330
1E
100
AcDbEntity
  8
0
100
AcDbLine
 10
17.99999999999994
 20
20.705
 30
0.0
 11
283.2259999999999
 21
20.70499999999999
 31
0.0
  0
LINE
  5
188A
330
1E
100
AcDbEntity
  8
0
100
AcDbLine
 10
17.99999999999994
 20
10.705
 30
0.0
 11
283.2259999999999
 21
10.70499999999998
 31
0.0
  0
TEXT
  5
1892
330
1E
100
AcDbEntity
  8
MO
100
AcDbText
 10
18.0825030365616
 20
28.37468907764135
 30
0.0
 40
2.799999999999998
  1

  7
0
100
AcDbText
  0
TEXT
  5
1893
330
1E
100
AcDbEntity
  8
MO
100
AcDbText
 10
18.31122710757998
 20
21.78303665633006
 30
0.0
 40
3.5
  1
その他詳細：
  7
0
 72
     1
 11
29.86122710757998
 21
21.78303665633006
 31
0.0
100
AcDbText
  0
LINE
  5
18A2
330
1E
100
AcDbEntity
  8
0
100
AcDbLine
 10
87.49999999999992
 20
40.70499999999999
 30
0.0
 11
159.9999999999999
 21
40.70499999999999
 31
0.0
  0
TEXT
  5
18A3
330
1E
100
AcDbEntity
  8
MO
100
AcDbText
 10
226.3224718778161
 20
43.55161148403567
 30
0.0
 40
4.375
  1
容量
  7
0
 72
     1
 11
230.9891385444827
 21
43.55161148403567
 31
0.0
100
AcDbText
  0
TEXT
  5
18A5
330
1E
100
AcDbEntity
  8
MO
100
AcDbText
 10
166.1966333931625
 20
43.47752605931685
 30
0.0
 40
4.375
  1
電圧
  7
0
 72
     1
 11
170.8633000598292
 21
43.47752605931685
 31
0.0
100
AcDbText
  0
LINE
  5
18A9
330
1E
100
AcDbEntity
  8
0
100
AcDbLine
 10
159.9999999999999
 20
50.70499999999999
 30
0.0
 11
159.9999999999999
 21
30.70499999999999
 31
0.0
  0
LINE
  5
18AA
330
1E
100
AcDbEntity
  8
0
100
AcDbLine
 10
97.49999999999994
 20
50.70499999999999
 30
0.0
 11
97.49999999999994
 21
30.70499999999999
 31
0.0
  0
LINE
  5
18AB
330
1E
100
AcDbEntity
  8
0
100
AcDbLine
 10
122.4999999999999
 20
50.70499999999999
 30
0.0
 11
122.4999999999999
 21
30.70499999999999
 31
0.0
  0
TEXT
  5
18B4
330
1E
100
AcDbEntity
  8
MO
100
AcDbText
 10
334.7498393399925
 20
3.380574230302642
 30
0.0
 40
3.5
  1
AISEI  DENNETSU CO., LTD
  7
0
100
AcDbText
  0
TEXT
  5
18BD
330
1E
100
AcDbEntity
  8
MO
100
AcDbText
 10
398.0943211714158
 20
11.06163477656134
 30
0.0
 40
5.0
  1
行
  7
0
 72
     1
 11
400.4276545047491
 21
11.06163477656134
 31
0.0
100
AcDbText
  0
TEXT
  5
18C6
330
1E
100
AcDbEntity
  8
MO
100
AcDbText
 10
80.18549947051658
 20
43.19699993280604
 30
0.0
 40
4.375
  1
\U+03C6
  7
0
 72
     1
 11
82.37299947051658
 21
43.19699993280604
 31
0.0
100
AcDbText
  0
TEXT
  5
18CC
330
1E
100
AcDbEntity
  8
MO
100
AcDbText
 10
150.7363375097419
 20
42.75375974362895
 30
0.0
 40
3.0625
  1
mm
  7
0
 72
     1
 11
154.5280041764086
 21
42.75375974362895
 31
0.0
100
AcDbText
  0
TEXT
  5
18D2
330
1E
100
AcDbEntity
  8
MO
100
AcDbText
 10
212.9983333333334
 20
42.769
 30
0.0
 40
4.375
  1
V
  7
0
 72
     1
 11
214.665
 21
42.769
 31
0.0
100
AcDbText
  0
TEXT
  5
18D8
330
1E
100
AcDbEntity
  8
MO
100
AcDbText
 10
273.9431655087571
 20
43.26163213625631
 30
0.0
 40
4.375
  1
W
  7
0
 72
     1
 11
276.0264988420904
 21
43.26163213625631
 31
0.0
100
AcDbText
  0
TEXT
  5
18DE
330
1E
100
AcDbEntity
  8
MO
100
AcDbText
 10
269.9618249953228
 20
32.63244616812445
 30
0.0
 40
4.375
  1
set
  7
0
 72
     1
 11
274.4409916619895
 21
32.63244616812445
 31
0.0
100
AcDbText
  0
TEXT
  5
18E4
330
1E
100
AcDbEntity
  8
MO
100
AcDbText
 10
61.05646624307997
 20
33.91959994624484
 30
0.0
 40
3.5
  1
快削黄銅
  7
0
 72
     1
 11
68.9897995764133
 21
33.91959994624484
 31
0.0
100
AcDbText
  0
TEXT
  5
18EB
330
1E
100
AcDbEntity
  8
MO
100
AcDbText
 10
17.62914196000259
 20
55.01909017515878
 30
0.0
 40
4.550000000000001
  1
※　下記空欄に記入し、FAXしてください
  7
0
100
AcDbText
  0
LINE
  5
18ED
330
1E
100
AcDbEntity
  8
0
100
AcDbLine
 10
3.193615971125438
 20
267.713
 30
0.0
 11
128.2526159711254
 21
267.713
 31
0.0
  0
LINE
  5
18EE
330
1E
100
AcDbEntity
  8
0
100
AcDbLine
 10
3.193615971125438
 20
255.713
 30
0.0
 11
128.2526159711254
 21
255.7129999999999
 31
0.0
  0
LINE
  5
18EF
330
1E
100
AcDbEntity
  8
0
100
AcDbLine
 10
3.193615971125423
 20
243.713
 30
0.0
 11
128.2526159711254
 21
243.7129999999999
 31
0.0
  0
LINE
  5
18F0
330
1E
100
AcDbEntity
  8
0
100
AcDbLine
 10
3.193615971125423
 20
231.713
 30
0.0
 11
128.2526159711254
 21
231.7129999999999
 31
0.0
  0
TEXT
  5
18F7
330
1E
100
AcDbEntity
  8
MO
100
AcDbText
 10
5.047000000000004
 20
269.7195108252091
 30
0.0
 40
4.375
  1
貴社名：
  7
0
 72
     1
 11
14.08866666666667
 21
269.7195108252091
 31
0.0
100
AcDbText
  0
TEXT
  5
18FF
330
1E
100
AcDbEntity
  8
MO
100
AcDbText
 10
4.762445293775545
 20
259.6404968976157
 30
0.0
 40
4.375
  1
部署・担当者名：
  7
0
 72
     1
 11
24.30411196044222
 21
259.6404968976157
 31
0.0
100
AcDbText
  0
TEXT
  5
190B
330
1E
100
AcDbEntity
  8
MO
100
AcDbText
 10
4.244409610399639
 20
235.1743512486338
 30
0.0
 40
4.375
  1
御連絡先 FAX：
  7
0
 72
     1
 11
23.4735762770663
 21
235.1743512486338
 31
0.0
100
AcDbText
  0
TEXT
  5
1918
330
1E
100
AcDbEntity
  8
MO
100
AcDbText
 10
4.271947869785467
 20
247.7453335828736
 30
0.0
 40
4.375
  1
御連絡先 TEL：
  7
0
 72
     1
 11
22.87611453645213
 21
247.7453335828736
 31
0.0
100
AcDbText
  0
LINE
  5
1923
330
1E
100
AcDbEntity
  8
0
370
    40
100
AcDbLine
 10
315.0881625155812
 20
37.35735115744029
 30
0.0
 11
393.0881625155811
 21
37.35735115744029
 31
0.0
  0
LINE
  5
1924
330
1E
100
AcDbEntity
  8
0
370
    40
100
AcDbLine
 10
315.0881625155812
 20
34.7573511574403
 30
0.0
 11
399.5881625155811
 21
34.7573511574403
 31
0.0
  0
LINE
  5
1925
330
1E
100
AcDbEntity
  8
0
370
    40
100
AcDbLine
 10
393.0881625155811
 20
37.35735115744029
 30
0.0
 11
393.0881625155811
 21
39.95735115744029
 31
0.0
  0
LINE
  5
1926
330
1E
100
AcDbEntity
  8
0
370
    40
100
AcDbLine
 10
393.0881625155811
 20
39.95735115744029
 30
0.0
 11
399.5881625155811
 21
34.7573511574403
 31
0.0
  0
LINE
  5
1927
330
1E
100
AcDbEntity
  8
0
370
    40
100
AcDbLine
 10
315.0881625155812
 20
37.35735115744029
 30
0.0
 11
315.0881625155812
 21
34.7573511574403
 31
0.0
  0
TEXT
  5
192E
330
1E
100
AcDbEntity
  8
MO
370
    40
100
AcDbText
 10
324.6798300677355
 20
38.84484239326316
 30
0.0
 40
7.800000000000001
  1
FAX送信方向
  7
0
 72
     1
 11
353.2426872105926
 21
38.84484239326316
 31
0.0
100
AcDbText
  0
TEXT
  5
1943
330
1E
100
AcDbEntity
  8
0
370
    53
100
AcDbText
 10
86.07465571428525
 20
284.1842971226886
 30
0.0
 40
10.0
  1
愛西電熱　見積依頼書・注文書　フォーム
  7
0
100
AcDbText
  0
TEXT
  5
195E
330
1E
100
AcDbEntity
  8
MO
370
    40
100
AcDbText
 10
313.1463329590498
 20
24.83965109775832
 30
0.0
 40
7.800000000000001
  1
0568-25-2241
  7
0
 72
     1
 11
357.1606186733355
 21
24.83965109775832
 31
0.0
100
AcDbText
  0
LINE
  5
19C2
330
1E
100
AcDbEntity
  8
SC
370
    40
100
AcDbLine
 10
230.748
 20
245.6640000000001
 30
0.0
 11
363.5619999999999
 21
245.664
 31
0.0
  0
LINE
  5
19F9
330
1E
100
AcDbEntity
  8
0
100
AcDbLine
 10
160.9999999999999
 20
50.70499999999999
 30
0.0
 11
160.9999999999999
 21
30.70499999999999
 31
0.0
  0
LINE
  5
1A00
330
1E
100
AcDbEntity
  8
0
100
AcDbLine
 10
159.9999999999999
 20
40.705
 30
0.0
 11
281.0
 21
40.70499999999983
 31
0.0
  0
LINE
  5
1A06
330
1E
100
AcDbEntity
  8
0
100
AcDbLine
 10
159.9999999999999
 20
30.70499999999999
 30
0.0
 11
281.0
 21
30.70499999999997
 31
0.0
  0
LINE
  5
1A08
330
1E
100
AcDbEntity
  8
0
100
AcDbLine
 10
180.9999999999999
 20
50.70499999999999
 30
0.0
 11
180.9999999999999
 21
30.70499999999999
 31
0.0
  0
LINE
  5
1A09
330
1E
100
AcDbEntity
  8
0
100
AcDbLine
 10
220.9999999999999
 20
50.70499999999999
 30
0.0
 11
220.9999999999999
 21
30.70499999999998
 31
0.0
  0
LINE
  5
1A12
330
1E
100
AcDbEntity
  8
0
100
AcDbLine
 10
281.0
 20
50.70499999999999
 30
0.0
 11
281.0
 21
30.70499999999997
 31
0.0
  0
LINE
  5
1A13
330
1E
100
AcDbEntity
  8
0
100
AcDbLine
 10
241.0
 20
50.70499999999999
 30
0.0
 11
241.0
 21
30.70499999999999
 31
0.0
  0
LINE
  5
1A14
330
1E
100
AcDbEntity
  8
0
100
AcDbLine
 10
220.9999999999999
 20
50.70499999999999
 30
0.0
 11
220.9999999999999
 21
30.70499999999999
 31
0.0
  0
TEXT
  5
1C07
330
1E
100
AcDbEntity
  8
MO
100
AcDbText
 10
99.26148790805793
 20
33.61824969380629
 30
0.0
 40
4.375
  1
リード長
  7
0
 72
     1
 11
109.6156545747246
 21
33.61824969380629
 31
0.0
100
AcDbText
  0
TEXT
  5
1C08
330
1E
100
AcDbEntity
  8
MO
100
AcDbText
 10
150.7363375097419
 20
32.75375974362896
 30
0.0
 40
3.0625
  1
mm
  7
0
 72
     1
 11
154.5280041764086
 21
32.75375974362896
 31
0.0
100
AcDbText
  0
LINE
  5
1DB6
330
1E
100
AcDbEntity
  8
HO
100
AcDbLine
 10
71.35499960966488
 20
143.6926926996919
 30
0.0
 11
153.122683795775
 21
143.6926926996919
 31
0.0
  0
LINE
  5
1DB7
330
1E
100
AcDbEntity
  8
HO
100
AcDbLine
 10
192.513998741089
 20
143.6926926996919
 30
0.0
 11
235.6205986789141
 21
143.6926926996919
 31
0.0
  0
LINE
  5
1DB8
330
1E
100
AcDbEntity
  8
HO
100
AcDbLine
 10
111.8596063510656
 20
193.511531763916
 30
0.0
 11
111.8596063510656
 21
94.60200909546207
 31
0.0
  0
ARC
  5
1DB9
102
{ACAD_REACTORS
330
1E31
102
}
330
1E
100
AcDbEntity
  8
0
100
AcDbCircle
 10
111.8596063510656
 20
143.6926926996919
 30
0.0
 40
28.0
100
AcDbArc
 50
277.6622556607664
 51
90.0
  0
ARC
  5
1DBA
330
1E
100
AcDbEntity
  8
0
100
AcDbCircle
 10
115.8596063510656
 20
113.9605552050549
 30
0.0
 40
2.0
100
AcDbArc
 50
97.66225566076645
 51
179.9999999999992
  0
ARC
  5
1DBB
102
{ACAD_REACTORS
330
1E31
102
}
330
1E
100
AcDbEntity
  8
0
100
AcDbCircle
 10
111.8596063510656
 20
143.6926926996919
 30
0.0
 40
32.0
100
AcDbArc
 50
282.6739360605659
 51
90.0
  0
LINE
  5
1DBC
330
1E
100
AcDbEntity
  8
0
100
AcDbLine
 10
111.8596063510656
 20
186.6926926996919
 30
0.0
 11
121.6137506552167
 21
186.6926926996919
 31
0.0
  0
LINE
  5
1DBD
330
1E
100
AcDbEntity
  8
0
100
AcDbLine
 10
124.4922598438569
 20
184.5377872807381
 30
0.0
 11
128.4503662268025
 21
171.0559287427047
 31
0.0
  0
ARC
  5
1DBE
102
{ACAD_REACTORS
330
1E48
102
}
330
1E
100
AcDbEntity
  8
0
100
AcDbCircle
 10
121.6137506552167
 20
183.6926926996919
 30
0.0
 40
3.0
100
AcDbArc
 50
16.36158439066378
 51
90.0
  0
ARC
  5
1DBF
330
1E
100
AcDbEntity
  8
0
100
AcDbCircle
 10
111.8596063510656
 20
185.6926926996919
 30
0.0
 40
3.0
100
AcDbArc
 50
19.47122063449038
 51
90.0
  0
LINE
  5
1DC0
330
1E
100
AcDbEntity
  8
0
100
AcDbLine
 10
113.8596063510656
 20
113.9605552050549
 30
0.0
 11
113.8596063510656
 21
104.6926926996919
 31
0.0
  0
LINE
  5
1DC1
330
1E
100
AcDbEntity
  8
0
100
AcDbLine
 10
117.8596063510656
 20
110.7284526559229
 30
0.0
 11
117.8596063510656
 21
105.6926926996919
 31
0.0
  0
HATCH
  5
1DC2
330
1E
100
AcDbEntity
  8
HA
100
AcDbHatch
 10
0.0
 20
0.0
 30
0.0
210
0.0
220
0.0
230
1.0
  2
ANSI37
 70
     0
 71
     1
 91
        2
 92
        7
 72
     0
 73
     1
 93
        4
 10
126.8596063510656
 20
113.2105726778074
 10
121.8596063510656
 20
113.2105726778074
 10
121.8596063510656
 20
108.2105726778074
 10
126.8596063510656
 20
108.2105726778074
 97
        4
330
1DD5
330
1DD4
330
1DD3
330
1DD9
 92
        7
 72
     0
 73
     1
 93
        5
 10
126.8596063510656
 20
108.2105726778074
 10
121.8596063510656
 20
108.2105726778074
 10
121.8596063510656
 20
104.6926926996919
 10
121.8596063510656
 20
103.2105726778074
 10
126.8596063510656
 20
103.2105726778074
 97
        5
330
1DD3
330
1DC3
330
1DDB
330
1DDA
330
1DD9
 75
     0
 76
     1
 52
0.0
 41
0.25
 77
     0
 78
     2
 53
45.0
 43
18.31290073626006
 44
26.35541113567476
 45
-0.5612660075668221
 46
0.5612660075668221
 79
     0
 53
135.0
 43
18.31290073626006
 44
26.35541113567476
 45
-0.5612660075668221
 46
-0.5612660075668221
 79
     0
 47
0.0356690935599579
 98
        2
 10
124.9174624041325
 20
110.0113188515093
 10
123.3822612617876
 20
105.8380347245744
  0
LINE
  5
1DC3
102
{ACAD_REACTORS
330
1DC2
102
}
330
1E
100
AcDbEntity
  8
0
100
AcDbLine
 10
121.8596063510656
 20
110.7284526559229
 30
0.0
 11
121.8596063510656
 21
104.6926926996919
 31
0.0
  0
ARC
  5
1DC4
330
1E
100
AcDbEntity
  8
0
100
AcDbCircle
 10
117.8596063510656
 20
106.6926926996919
 30
0.0
 40
4.472135954999579
100
AcDbArc
 50
206.565051177078
 51
333.434948822922
  0
ARC
  5
1DC5
330
1E
100
AcDbEntity
  8
0
100
AcDbCircle
 10
119.8596063510656
 20
110.7284526559229
 30
0.0
 40
2.0
100
AcDbArc
 50
0.0
 51
180.0
  0
ARC
  5
1DC6
102
{ACAD_REACTORS
330
1E34
330
1E37
102
}
330
1E
100
AcDbEntity
  8
0
100
AcDbCircle
 10
111.8596063510656
 20
143.6926926996919
 30
0.0
 40
28.0
100
AcDbArc
 50
90.0
 51
262.3377443392343
  0
ARC
  5
1DC7
102
{ACAD_REACTORS
330
1E34
102
}
330
1E
100
AcDbEntity
  8
HO
100
AcDbCircle
 10
111.8596063510656
 20
143.6926926996919
 30
0.0
 40
46.0
100
AcDbArc
 50
90.0
 51
136.8037871900538
  0
ARC
  5
1DC8
330
1E
100
AcDbEntity
  8
0
100
AcDbCircle
 10
107.8596063510656
 20
113.9605552050549
 30
0.0
 40
2.0
100
AcDbArc
 50
0.0
 51
82.33774433923356
  0
ARC
  5
1DC9
330
1E
100
AcDbEntity
  8
0
100
AcDbCircle
 10
111.8596063510656
 20
143.6926926996919
 30
0.0
 40
32.0
100
AcDbArc
 50
90.0
 51
257.326063939434
  0
LINE
  5
1DCA
330
1E
100
AcDbEntity
  8
0
100
AcDbLine
 10
111.8596063510656
 20
186.6926926996919
 30
0.0
 11
102.1054620469145
 21
186.6926926996919
 31
0.0
  0
LINE
  5
1DCB
330
1E
100
AcDbEntity
  8
0
100
AcDbLine
 10
99.2269528582743
 20
184.5377872807381
 30
0.0
 11
95.26884647532874
 21
171.0559287427047
 31
0.0
  0
ARC
  5
1DCC
330
1E
100
AcDbEntity
  8
0
100
AcDbCircle
 10
102.1054620469145
 20
183.6926926996919
 30
0.0
 40
3.0
100
AcDbArc
 50
90.0
 51
163.6384156093362
  0
ARC
  5
1DCD
330
1E
100
AcDbEntity
  8
0
100
AcDbCircle
 10
111.8596063510656
 20
185.6926926996919
 30
0.0
 40
3.0
100
AcDbArc
 50
90.0
 51
160.5287793655096
  0
LINE
  5
1DCE
330
1E
100
AcDbEntity
  8
0
100
AcDbLine
 10
109.8596063510656
 20
113.9605552050549
 30
0.0
 11
109.8596063510656
 21
104.6926926996919
 31
0.0
  0
LINE
  5
1DCF
330
1E
100
AcDbEntity
  8
0
100
AcDbLine
 10
105.8596063510656
 20
110.7284526559229
 30
0.0
 11
105.8596063510656
 21
105.6926926996919
 31
0.0
  0
LINE
  5
1DD0
330
1E
100
AcDbEntity
  8
0
100
AcDbLine
 10
101.8596063510656
 20
110.7284526559229
 30
0.0
 11
101.8596063510656
 21
104.6926926996919
 31
0.0
  0
ARC
  5
1DD1
330
1E
100
AcDbEntity
  8
0
100
AcDbCircle
 10
105.8596063510656
 20
106.6926926996919
 30
0.0
 40
4.472135954999579
100
AcDbArc
 50
206.565051177078
 51
333.434948822922
  0
ARC
  5
1DD2
330
1E
100
AcDbEntity
  8
0
100
AcDbCircle
 10
103.8596063510656
 20
110.7284526559229
 30
0.0
 40
2.0
100
AcDbArc
 50
0.0
 51
180.0
  0
LINE
  5
1DD3
102
{ACAD_REACTORS
330
1DC2
102
}
330
1E
100
AcDbEntity
  8
HO
100
AcDbLine
 10
78.92653082416301
 20
108.2105726778074
 30
0.0
 11
128.8035211709599
 21
108.2105726778074
 31
0.0
  0
LINE
  5
1DD4
102
{ACAD_REACTORS
330
1DC2
102
}
330
1E
100
AcDbEntity
  8
0
100
AcDbLine
 10
121.8596063510656
 20
108.2105726778074
 30
0.0
 11
121.8596063510656
 21
113.2105726778074
 31
0.0
  0
LINE
  5
1DD5
102
{ACAD_REACTORS
330
1DC2
102
}
330
1E
100
AcDbEntity
  8
0
100
AcDbLine
 10
121.8596063510656
 20
113.2105726778074
 30
0.0
 11
126.8596063510656
 21
113.2105726778074
 31
0.0
  0
LINE
  5
1DD6
330
1E
100
AcDbEntity
  8
0
100
AcDbLine
 10
127.8596063510656
 20
112.2105726778074
 30
0.0
 11
127.8596063510656
 21
104.2105726778074
 31
0.0
  0
LINE
  5
1DD7
330
1E
100
AcDbEntity
  8
0
100
AcDbLine
 10
126.8596063510656
 20
113.2105726778074
 30
0.0
 11
127.8596063510656
 21
112.2105726778074
 31
0.0
  0
LINE
  5
1DD8
102
{ACAD_REACTORS
330
1E44
102
}
330
1E
100
AcDbEntity
  8
0
100
AcDbLine
 10
126.8596063510656
 20
103.2105726778074
 30
0.0
 11
127.8596063510656
 21
104.2105726778074
 31
0.0
  0
LINE
  5
1DD9
102
{ACAD_REACTORS
330
1DC2
102
}
330
1E
100
AcDbEntity
  8
HA
100
AcDbLine
 10
126.8596063510656
 20
113.2105726778074
 30
0.0
 11
126.8596063510656
 21
103.2105726778074
 31
0.0
  0
LINE
  5
1DDA
102
{ACAD_REACTORS
330
1DC2
102
}
330
1E
100
AcDbEntity
  8
0
100
AcDbLine
 10
126.8596063510656
 20
103.2105726778074
 30
0.0
 11
121.8596063510656
 21
103.2105726778074
 31
0.0
  0
LINE
  5
1DDB
102
{ACAD_REACTORS
330
1DC2
102
}
330
1E
100
AcDbEntity
  8
0
100
AcDbLine
 10
121.8596063510656
 20
103.2105726778074
 30
0.0
 11
121.8596063510656
 21
104.6926926996919
 31
0.0
  0
ARC
  5
1DDC
102
{ACAD_REACTORS
330
1E37
102
}
330
1E
100
AcDbEntity
  8
HO
100
AcDbCircle
 10
111.8596063510656
 20
143.6926926996919
 30
0.0
 40
43.0
100
AcDbArc
 50
217.5061869936852
 51
256.8510498642081
  0
LINE
  5
1DDD
330
1E
100
AcDbEntity
  8
0
100
AcDbLine
 10
101.8596063510656
 20
108.2105726778074
 30
0.0
 11
101.8596063510656
 21
105.2105726778074
 31
0.0
  0
LINE
  5
1DDE
330
1E
100
AcDbEntity
  8
0
100
AcDbLine
 10
101.8596063510656
 20
105.2105726778074
 30
0.0
 11
93.67298500645992
 21
105.2105726778074
 31
0.0
  0
LINE
  5
1DDF
330
1E
100
AcDbEntity
  8
HA
100
AcDbLine
 10
113.8596063510656
 20
106.2105726778074
 30
0.0
 11
109.8596063510656
 21
106.2105726778074
 31
0.0
  0
LINE
  5
1DE0
330
1E
100
AcDbEntity
  8
HA
100
AcDbLine
 10
101.8596063510656
 20
106.2105726778074
 30
0.0
 11
92.67298500645992
 21
106.2105726778074
 31
0.0
  0
LINE
  5
1DE1
330
1E
100
AcDbEntity
  8
0
100
AcDbLine
 10
92.67298500645992
 20
106.2105726778074
 30
0.0
 11
92.6729850064599
 21
110.2105726778074
 31
0.0
  0
LINE
  5
1DE2
330
1E
100
AcDbEntity
  8
0
100
AcDbLine
 10
93.67298500645992
 20
105.2105726778074
 30
0.0
 11
92.67298500645992
 21
106.2105726778074
 31
0.0
  0
LINE
  5
1DE3
330
1E
100
AcDbEntity
  8
0
100
AcDbLine
 10
93.67298500645992
 20
111.2105726778074
 30
0.0
 11
92.6729850064599
 21
110.2105726778074
 31
0.0
  0
LINE
  5
1DE4
330
1E
100
AcDbEntity
  8
HA
100
AcDbLine
 10
93.67298500645992
 20
105.2105726778074
 30
0.0
 11
93.67298500645992
 21
111.2105726778074
 31
0.0
  0
LINE
  5
1DE5
330
1E
100
AcDbEntity
  8
0
100
AcDbLine
 10
93.67298500645992
 20
111.2105726778074
 30
0.0
 11
101.9185859275517
 21
111.2105726778074
 31
0.0
  0
LINE
  5
1DE6
330
1E
100
AcDbEntity
  8
HA
100
AcDbLine
 10
92.67298500645992
 20
110.2105726778074
 30
0.0
 11
101.8596063510656
 21
110.2105726778074
 31
0.0
  0
LINE
  5
1DE7
330
1E
100
AcDbEntity
  8
HA
100
AcDbLine
 10
109.8596063510656
 20
110.2105726778074
 30
0.0
 11
113.8596063510656
 21
110.2105726778074
 31
0.0
  0
LINE
  5
1DEB
330
1E
100
AcDbEntity
  8
0
100
AcDbLine
 10
211.0469884078849
 20
185.6572821895862
 30
0.0
 11
219.5553948615323
 21
186.1431992661217
 31
0.0
  0
LINE
  5
1DEC
330
1E
100
AcDbEntity
  8
0
100
AcDbLine
 10
199.1770231232129
 20
102.2205567446923
 30
0.0
 11
229.1770231232129
 21
102.2205567446923
 31
0.0
  0
LINE
  5
1DED
330
1E
100
AcDbEntity
  8
HO
100
AcDbLine
 10
204.1645243377271
 20
107.7205567446923
 30
0.0
 11
224.3430298577789
 21
107.7205567446923
 31
0.0
  0
LINE
  5
1DEE
330
1E
100
AcDbEntity
  8
0
100
AcDbLine
 10
229.1770231232129
 20
102.2205567446923
 30
0.0
 11
229.1770231232129
 21
175.6926926996919
 31
0.0
  0
LINE
  5
1DEF
330
1E
100
AcDbEntity
  8
0
100
AcDbLine
 10
199.1770231232129
 20
102.2205567446923
 30
0.0
 11
199.1770231232129
 21
175.6926926996918
 31
0.0
  0
LINE
  5
1DF0
330
1E
100
AcDbEntity
  8
0
100
AcDbLine
 10
199.1770231232129
 20
113.2105726778074
 30
0.0
 11
229.1770231232129
 21
113.2105726778074
 31
0.0
  0
LINE
  5
1DF1
330
1E
100
AcDbEntity
  8
HO
100
AcDbLine
 10
214.177023123213
 20
97.63926773340708
 30
0.0
 11
214.177023123213
 21
196.1254955875493
 31
0.0
  0
CIRCLE
  5
1DF2
330
1E
100
AcDbEntity
  8
0
100
AcDbCircle
 10
214.177023123213
 20
107.7205567446923
 30
0.0
 40
5.0
  0
CIRCLE
  5
1DF3
330
1E
100
AcDbEntity
  8
HA
100
AcDbCircle
 10
214.177023123213
 20
107.7205567446923
 30
0.0
 40
4.2
  0
LWPOLYLINE
  5
1DF4
330
1E
100
AcDbEntity
  8
0
100
AcDbPolyline
 90
        6
 70
     1
 43
0.0
 10
214.177023123213
 20
110.9205567446923
 10
211.4057418311028
 20
109.3205567446923
 10
211.4057418311028
 20
106.1205567446923
 10
214.177023123213
 20
104.5205567446923
 10
216.9483044153232
 20
106.1205567446923
 10
216.9483044153231
 20
109.3205567446923
  0
LINE
  5
1DF5
330
1E
100
AcDbEntity
  8
0
100
AcDbLine
 10
199.1770231232129
 20
175.6926926996919
 30
0.0
 11
206.7406590694393
 21
175.6926926996919
 31
0.0
  0
LINE
  5
1DF6
102
{ACAD_REACTORS
330
1E4E
102
}
330
1E
100
AcDbEntity
  8
0
100
AcDbLine
 10
226.4150351954679
 20
175.6926926996919
 30
0.0
 11
229.1770231232129
 21
175.6926926996919
 31
0.0
  0
LINE
  5
1DF7
330
1E
100
AcDbEntity
  8
HA
100
AcDbLine
 10
199.1770231232129
 20
171.6926926996919
 30
0.0
 11
229.1770231232129
 21
171.6926926996919
 31
0.0
  0
LINE
  5
1DF8
330
1E
100
AcDbEntity
  8
HA
100
AcDbLine
 10
199.1770231232129
 20
115.9426977046973
 30
0.0
 11
229.1770231232129
 21
115.9426977046973
 31
0.0
  0
LINE
  5
1DF9
330
1E
100
AcDbEntity
  8
0
100
AcDbLine
 10
220.380709180846
 20
185.7849196089164
 30
0.0
 11
224.6448809938183
 21
180.6666826301229
 31
0.0
  0
ARC
  5
1DFA
102
{ACAD_REACTORS
330
1E51
102
}
330
1E
100
AcDbEntity
  8
0
100
AcDbCircle
 10
219.6124121871561
 20
185.1448260770893
 30
0.0
 40
1.0
100
AcDbArc
 50
39.79879428569159
 51
93.26862478788301
  0
LINE
  5
1DFB
330
1E
100
AcDbEntity
  8
0
100
AcDbLine
 10
224.8228162093536
 20
180.3500772838989
 30
0.0
 11
227.3193090778916
 21
173.0476097829385
 31
0.0
  0
ARC
  5
1DFC
330
1E
100
AcDbEntity
  8
0
100
AcDbCircle
 10
223.8765840001284
 20
180.0265890982957
 30
0.0
 40
1.0
100
AcDbArc
 50
18.87400730605041
 51
39.79879428569159
  0
LINE
  5
1DFD
330
1E
100
AcDbEntity
  8
0
100
AcDbLine
 10
226.846192973279
 20
172.3858656901369
 30
0.0
 11
206.4387464382304
 21
172.3858656901369
 31
0.0
  0
ARC
  5
1DFE
330
1E
100
AcDbEntity
  8
0
100
AcDbCircle
 10
206.4387464382304
 20
172.8858656901369
 30
0.0
 40
0.5
100
AcDbArc
 50
163.6588733427756
 51
270.0
  0
ARC
  5
1DFF
330
1E
100
AcDbEntity
  8
0
100
AcDbCircle
 10
226.846192973279
 20
172.8858656901369
 30
0.0
 40
0.5
100
AcDbArc
 50
270.0
 51
18.87400730605041
  0
LINE
  5
1E00
330
1E
100
AcDbEntity
  8
0
100
AcDbLine
 10
205.9589446465258
 20
173.0265434804133
 30
0.0
 11
209.2418158923138
 21
184.223246972627
 31
0.0
  0
ARC
  5
1E01
330
1E
100
AcDbEntity
  8
0
100
AcDbCircle
 10
211.1610230591322
 20
183.6605358115214
 30
0.0
 40
2.0
100
AcDbArc
 50
93.26862478788301
 51
163.6588733427756
  0
LINE
  5
1E02
102
{ACAD_REACTORS
330
1E51
102
}
330
1E
100
AcDbEntity
  8
0
100
AcDbLine
 10
220.380709180846
 20
185.7849196089164
 30
0.0
 11
230.4591187436149
 21
188.4381115563079
 31
0.0
  0
LINE
  5
1E03
330
1E
100
AcDbEntity
  8
0
100
AcDbLine
 10
231.4239004084387
 20
188.1750595857394
 30
0.0
 11
232.9066547996321
 21
188.5654021279999
 31
0.0
  0
LINE
  5
1E04
330
1E
100
AcDbEntity
  8
0
100
AcDbLine
 10
225.3460719654792
 20
178.8195068577014
 30
0.0
 11
232.4957678906867
 21
180.7017002272916
 31
0.0
  0
LINE
  5
1E05
330
1E
100
AcDbEntity
  8
0
100
AcDbLine
 10
233.2059684121265
 20
181.4056996728502
 30
0.0
 11
234.68872280332
 21
181.7960422151106
 31
0.0
  0
ARC
  5
1E06
330
1E
100
AcDbEntity
  8
0
100
AcDbCircle
 10
234.561432231628
 20
182.2795679231741
 30
0.0
 40
0.5
100
AcDbArc
 50
284.748767354223
 51
14.74876735422378
  0
LINE
  5
1E07
330
1E
100
AcDbEntity
  8
0
100
AcDbLine
 10
231.6807513031259
 20
187.7256412835649
 30
0.0
 11
233.2082381634298
 21
181.9233327868026
 31
0.0
  0
ARC
  5
1E08
330
1E
100
AcDbEntity
  8
0
100
AcDbCircle
 10
230.7136998869989
 20
187.4710601401808
 30
0.0
 40
1.0
100
AcDbArc
 50
14.74876735422378
 51
104.7487673542238
  0
ARC
  5
1E09
330
1E
100
AcDbEntity
  8
0
100
AcDbCircle
 10
232.2411867473028
 20
181.6687516434186
 30
0.0
 40
1.0
100
AcDbArc
 50
284.7487673542238
 51
14.74876735422378
  0
LINE
  5
1E0A
330
1E
100
AcDbEntity
  8
0
100
AcDbLine
 10
233.5174710793876
 20
188.2091669916284
 30
0.0
 11
235.0449579396915
 21
182.4068584948661
 31
0.0
  0
ARC
  5
1E0B
102
{ACAD_REACTORS
330
1E51
102
}
330
1E
100
AcDbEntity
  8
0
100
AcDbCircle
 10
233.0339453713241
 20
188.0818764199364
 30
0.0
 40
0.5
100
AcDbArc
 50
14.74876735422378
 51
104.7487673542253
  0
LINE
  5
1E0C
102
{ACAD_REACTORS
330
1E4E
102
}
330
1E
100
AcDbEntity
  8
HO
100
AcDbLine
 10
232.4444947332779
 20
184.8244870351837
 30
0.0
 11
251.3129296867438
 21
189.267512937841
 31
0.0
  0
LINE
  5
1E0D
330
1E
100
AcDbEntity
  8
0
100
AcDbLine
 10
233.6449793063574
 20
187.7248144986667
 30
0.0
 11
250.7399165838083
 21
191.7009582287535
 31
0.0
  0
LINE
  5
1E0E
330
1E
100
AcDbEntity
  8
0
100
AcDbLine
 10
234.9305338434268
 20
182.8415096354063
 30
0.0
 11
251.8859427896794
 21
186.8340676469285
 31
0.0
  0
LINE
  5
1E0F
330
1E
100
AcDbEntity
  8
HO
100
AcDbLine
 10
257.458955892615
 20
184.4006223560161
 30
0.0
 11
257.458955892615
 21
108.0997047611935
 31
0.0
  0
LINE
  5
1E10
330
1E
100
AcDbEntity
  8
0
100
AcDbLine
 10
254.958955892615
 20
184.4006223560161
 30
0.0
 11
254.958955892615
 21
145.9100114890812
 31
0.0
  0
LINE
  5
1E11
330
1E
100
AcDbEntity
  8
0
100
AcDbLine
 10
254.958955892615
 20
142.1461519594087
 30
0.0
 11
254.958955892615
 21
108.0997047611935
 31
0.0
  0
LINE
  5
1E12
330
1E
100
AcDbEntity
  8
0
100
AcDbLine
 10
259.958955892615
 20
184.4006223560161
 30
0.0
 11
259.958955892615
 21
145.9943042538781
 31
0.0
  0
LINE
  5
1E13
330
1E
100
AcDbEntity
  8
0
100
AcDbLine
 10
259.958955892615
 20
142.2304447242056
 30
0.0
 11
259.958955892615
 21
108.0997047611935
 31
0.0
  0
ARC
  5
1E14
330
1E
100
AcDbEntity
  8
HO
100
AcDbCircle
 10
252.458955892615
 20
184.4006223560161
 30
0.0
 40
5.0
100
AcDbArc
 50
0.0
 51
103.2502854993252
  0
ARC
  5
1E15
330
1E
100
AcDbEntity
  8
0
100
AcDbCircle
 10
252.458955892615
 20
184.4006223560161
 30
0.0
 40
2.5
100
AcDbArc
 50
0.0
 51
103.2502854993252
  0
ARC
  5
1E16
102
{ACAD_REACTORS
330
1E3D
102
}
330
1E
100
AcDbEntity
  8
0
100
AcDbCircle
 10
252.458955892615
 20
184.4006223560161
 30
0.0
 40
7.5
100
AcDbArc
 50
0.0
 51
103.2502854993252
  0
LINE
  5
1E17
102
{ACAD_REACTORS
330
1E41
102
}
330
1E
100
AcDbEntity
  8
0
100
AcDbLine
 10
254.958955892615
 20
108.0997047611935
 30
0.0
 11
259.958955892615
 21
108.0997047611935
 31
0.0
  0
LINE
  5
1E18
330
1E
100
AcDbEntity
  8
0
100
AcDbLine
 10
254.958955892615
 20
113.0997047611935
 30
0.0
 11
259.958955892615
 21
113.0997047611935
 31
0.0
  0
HATCH
  5
1E19
330
1E
100
AcDbEntity
  8
HA
100
AcDbHatch
 10
0.0
 20
0.0
 30
0.0
210
0.0
220
0.0
230
1.0
  2
ANSI37
 70
     0
 71
     1
 91
        2
 92
        5
 93
        2
 72
     4
 94
        3
 73
     0
 74
     0
 95
        9
 96
        5
 40
0.0
 40
0.0
 40
0.0
 40
0.0
 40
1.330550060507764
 40
2.819411025620238
 40
2.819411025620238
 40
2.819411025620238
 40
2.819411025620238
 10
257.458955892615
 20
145.991220183278
 10
257.0655679590981
 20
146.2893428989187
 10
256.2350108972156
 20
146.9174655912651
 10
255.3999374485087
 20
146.2581694257222
 10
254.958955892615
 20
145.9100114890449
 72
     2
 10
256.180207257862
 20
146.8356391401461
 40
1.532397287129144
 50
217.1597172459257
 51
326.561306694812
 73
     1
 97
        2
330
1E1A
330
1E1C
 92
        5
 93
        2
 72
     2
 10
258.710271143026
 20
141.1627383709841
 40
1.6429274057503
 50
40.5325866951447
 51
139.6087766164255
 73
     1
 72
     4
 94
        3
 73
     0
 74
     0
 95
        9
 96
        5
 40
2.819411025619526
 40
2.819411025619526
 40
2.819411025619526
 40
2.819411025619526
 40
4.14777662639217
 40
5.600588909884129
 40
5.600588909884129
 40
5.600588909884129
 40
5.600588909884129
 10
257.4589558926143
 20
142.2273606536061
 10
257.8516979728661
 20
141.9297273874704
 10
258.676954600388
 20
141.3030380767667
 10
259.5190618090189
 20
141.9122229721922
 10
259.958955892615
 20
142.2304447242056
 97
        2
330
1E1D
330
1E1B
 75
     0
 76
     1
 52
0.0
 41
0.1
 77
     0
 78
     2
 53
45.0
 43
18.31290073626006
 44
26.35541113567476
 45
-0.2245064030267288
 46
0.2245064030267288
 79
     0
 53
135.0
 43
18.31290073626006
 44
26.35541113567476
 45
-0.2245064030267288
 46
-0.2245064030267288
 79
     0
 47
0.0327052915058174
 98
        2
 10
255.9483244014799
 20
145.9164605409025
 10
258.5344523995069
 20
142.1226462461385
  0
SPLINE
  5
1E1A
102
{ACAD_REACTORS
330
1E19
102
}
330
1E
100
AcDbEntity
  8
0
100
AcDbSpline
210
0.0
220
0.0
230
1.0
 70
  1064
 71
     3
 72
    10
 73
     6
 74
     4
 42
0.000000001
 43
0.0000000001
 44
0.0000000001
 40
0.0
 40
0.0
 40
0.0
 40
0.0
 40
1.488860965112474
 40
4.14777662639217
 40
5.600588909884129
 40
5.600588909884129
 40
5.600588909884129
 40
5.600588909884129
 10
254.958955892615
 20
145.9100114890449
 30
0.0
 10
255.3999374485087
 20
146.2581694257222
 30
0.0
 10
256.628455781023
 20
147.2280930021214
 30
0.0
 10
258.2740800472223
 20
144.7754559823511
 30
0.0
 10
259.519061809019
 20
145.6760825018646
 30
0.0
 10
259.958955892615
 20
145.9943042538781
 30
0.0
 11
254.958955892615
 21
145.9100114890449
 31
0.0
 11
256.280641105363
 21
146.5954713141543
 31
0.0
 11
258.64387172004
 21
145.3768764037548
 31
0.0
 11
259.958955892615
 21
145.9943042538781
 31
0.0
  0
SPLINE
  5
1E1B
102
{ACAD_REACTORS
330
1E19
102
}
330
1E
100
AcDbEntity
  8
0
100
AcDbSpline
210
0.0
220
0.0
230
1.0
 70
  1064
 71
     3
 72
    10
 73
     6
 74
     4
 42
0.000000001
 43
0.0000000001
 44
0.0000000001
 40
0.0
 40
0.0
 40
0.0
 40
0.0
 40
1.488860965112474
 40
4.14777662639217
 40
5.600588909884129
 40
5.600588909884129
 40
5.600588909884129
 40
5.600588909884129
 10
254.958955892615
 20
142.1461519593725
 30
0.0
 10
255.3999374485087
 20
142.4943098960497
 30
0.0
 10
256.628455781023
 20
143.4642334724489
 30
0.0
 10
258.2740800472223
 20
141.0115964526786
 30
0.0
 10
259.519061809019
 20
141.9122229721921
 30
0.0
 10
259.958955892615
 20
142.2304447242056
 30
0.0
 11
254.958955892615
 21
142.1461519593725
 31
0.0
 11
256.280641105363
 21
142.8316117844818
 31
0.0
 11
258.64387172004
 21
141.6130168740823
 31
0.0
 11
259.958955892615
 21
142.2304447242056
 31
0.0
  0
ARC
  5
1E1C
102
{ACAD_REACTORS
330
1E19
102
}
330
1E
100
AcDbEntity
  8
0
100
AcDbCircle
 10
256.180207257862
 20
146.8356391401461
 30
0.0
 40
1.532397287129142
100
AcDbArc
 50
217.1597172459244
 51
326.5613066948125
  0
ARC
  5
1E1D
102
{ACAD_REACTORS
330
1E19
102
}
330
1E
100
AcDbEntity
  8
0
100
AcDbCircle
 10
258.710271143026
 20
141.162738370984
 30
0.0
 40
1.642927405750309
100
AcDbArc
 50
40.53258669514515
 51
139.608776616422
  0
LINE
  5
1E1E
330
1E
100
AcDbEntity
  8
0
100
AcDbLine
 10
254.958955892615
 20
108.0997047611935
 30
0.0
 11
255.958955892615
 21
108.0997047611935
 31
0.0
  0
LINE
  5
1E1F
330
1E
100
AcDbEntity
  8
0
100
AcDbLine
 10
255.868390754131
 20
108.0997047611935
 30
0.0
 11
251.2831309043923
 21
95.0993341565651
 31
0.0
  0
LINE
  5
1E20
330
1E
100
AcDbEntity
  8
0
100
AcDbLine
 10
254.1123139985779
 20
94.10147493825098
 30
0.0
 11
259.0533890844503
 21
108.0997047611935
 31
0.0
  0
CIRCLE
  5
1E21
330
1E
100
AcDbEntity
  8
0
100
AcDbCircle
 10
250.4134801212296
 20
88.12400019579985
 30
0.0
 40
4.0
  0
CIRCLE
  5
1E22
330
1E
100
AcDbEntity
  8
0
100
AcDbCircle
 10
250.4134801212296
 20
88.12400019579985
 30
0.0
 40
2.0
  0
LINE
  5
1E23
330
1E
100
AcDbEntity
  8
0
100
AcDbLine
 10
252.6977224514851
 20
94.60040454740804
 30
0.0
 11
254.5838445142755
 21
93.93516506853195
 31
0.0
  0
LINE
  5
1E24
330
1E
100
AcDbEntity
  8
0
100
AcDbLine
 10
254.5838445142755
 20
93.93516506853195
 30
0.0
 11
253.451830760634
 21
90.72561995895336
 31
0.0
  0
LINE
  5
1E25
330
1E
100
AcDbEntity
  8
0
100
AcDbLine
 10
252.6977224514851
 20
94.60040454740804
 30
0.0
 11
250.8116003886946
 21
95.26564402628412
 31
0.0
  0
LINE
  5
1E26
330
1E
100
AcDbEntity
  8
0
100
AcDbLine
 10
250.8116003886946
 20
95.26564402628412
 30
0.0
 11
249.6795866350532
 21
92.05609891670551
 31
0.0
  0
LINE
  5
1E27
330
1E
100
AcDbEntity
  8
0
100
AcDbLine
 10
257.5782884763674
 20
103.9206957469519
 30
0.0
 11
261.6671479716034
 21
93.91383633600446
 31
0.0
  0
LINE
  5
1E28
330
1E
100
AcDbEntity
  8
0
100
AcDbLine
 10
264.4442608437292
 20
95.04858040207091
 30
0.0
 11
259.1152395782686
 21
108.0997047611935
 31
0.0
  0
CIRCLE
  5
1E29
330
1E
100
AcDbEntity
  8
0
100
AcDbCircle
 10
265.653295713276
 20
88.12400019579985
 30
0.0
 40
4.0
  0
CIRCLE
  5
1E2A
102
{ACAD_REACTORS
330
1E41
102
}
330
1E
100
AcDbEntity
  8
0
100
AcDbCircle
 10
265.653295713276
 20
88.12400019579985
 30
0.0
 40
2.0
  0
LINE
  5
1E2B
330
1E
100
AcDbEntity
  8
0
100
AcDbLine
 10
263.0557044076663
 20
94.48120836903768
 30
0.0
 11
264.9071129890836
 21
95.23770441308199
 31
0.0
  0
LINE
  5
1E2C
330
1E
100
AcDbEntity
  8
0
100
AcDbLine
 10
264.9071129890836
 20
95.23770441308199
 30
0.0
 11
266.1944147106835
 21
92.0872299684278
 31
0.0
  0
LINE
  5
1E2D
330
1E
100
AcDbEntity
  8
0
100
AcDbLine
 10
263.0557044076663
 20
94.48120836903768
 30
0.0
 11
261.2042958262491
 21
93.72471232499339
 31
0.0
  0
LINE
  5
1E2E
330
1E
100
AcDbEntity
  8
0
100
AcDbLine
 10
261.2042958262491
 20
93.72471232499339
 30
0.0
 11
262.4915975478492
 21
90.57423788033924
 31
0.0
  0
DIMENSION
  5
1E2F
102
{ACAD_XDICTIONARY
360
1E30
102
}
102
{ACAD_REACTORS
330
1E31
102
}
330
1E
100
AcDbEntity
  8
SC
100
AcDbDimension
  2
*D1
 10
134.2828211438486
 20
166.5230992477606
 30
0.0
 11
139.5502022677002
 21
171.9425551564374
 31
0.0
 70
   161
  1
（4）
 71
     5
 42
3.999999999999971
  3
ISO-25
100
AcDbAlignedDimension
 13
131.3748787914023
 23
163.771391402034
 33
0.0
 14
134.1627748543075
 24
166.63977693094
 34
0.0
1001
ACAD
1000
DSTYLE
1002
{
1070
   140
1040
4.0
1070
   340
1005
22
1002
}
  0
DIMENSION
  5
1E32
102
{ACAD_XDICTIONARY
360
1E33
102
}
102
{ACAD_REACTORS
330
1E34
102
}
330
1E
100
AcDbEntity
  8
SC
100
AcDbDimension
  2
*D2
 10
83.90463022611639
 20
180.2254191352924
 30
0.0
 11
79.56402073332377
 21
185.8099725995596
 31
0.0
 70
   161
  1
（18）
 71
     5
 42
18.0
  3
ISO-25
100
AcDbAlignedDimension
 13
94.6765022849379
 23
165.8001786411694
 33
0.0
 14
83.63022109957009
 24
180.0121338892621
 34
0.0
1001
ACAD
1000
DSTYLE
1002
{
1070
   140
1040
4.0
1070
   340
1005
22
1002
}
  0
DIMENSION
  5
1E35
102
{ACAD_XDICTIONARY
360
1E36
102
}
102
{ACAD_REACTORS
330
1E37
102
}
330
1E
100
AcDbEntity
  8
SC
100
AcDbDimension
  2
*D3
 10
86.65462452811965
 20
108.8541543535658
 30
0.0
 11
81.63227459450521
 21
101.8706134016656
 31
0.0
 70
   161
  1
（15）
 71
     5
 42
14.99999999999997
  3
ISO-25
100
AcDbAlignedDimension
 13
95.5115092627259
 23
120.9607829341174
 33
0.0
 14
86.75360010825819
 24
108.7829741311311
 34
0.0
1001
ACAD
1000
DSTYLE
1002
{
1070
   140
1040
4.0
1070
   340
1005
22
1002
}
  0
LEADER
  5
1E3B
102
{ACAD_XDICTIONARY
360
1E3C
102
}
102
{ACAD_REACTORS
330
1E3D
102
}
330
1E
100
AcDbEntity
  8
SC
100
AcDbLeader
  3
ISO-25
 73
     0
 74
     0
 75
     1
 40
19.32
 41
29.064
 76
     3
 10
259.958955892615
 20
184.4006223560161
 30
0.0
 10
290.2410579879817
 20
215.399114560368
 30
0.0
 10
292.3410579879817
 20
215.399114560368
 30
0.0
340
1E3E
213
11.78281636062092
223
9.337745234402092
233
0.0
1001
ACAD
1000
DSTYLE
1002
{
1070
   147
1040
0.625
1070
    77
1070
     1
1002
}
  0
MTEXT
  5
1E3E
102
{ACAD_REACTORS
330
1E3B
102
}
330
1E
100
AcDbEntity
  8
SC
100
AcDbMText
 10
291.6784727099785
 20
216.7358516751488
 30
0.0
 40
2.519999999999999
 41
0.0
 71
     7
 72
     1
  1
純Ni撚線1.25sq\Pテフロンテーピング\Pガラス6重絶縁2芯\P特殊耐熱電線\Pステンレス外シールド
  7
0
 73
     1
 44
1.0
1001
ACAD
1000
MTEXTBEGIN
1070
    73
1070
     1
1070
    44
1040
1.0
1070
    74
1070
     0
1000
MTEXTEND
  0
DIMENSION
  5
1E3F
102
{ACAD_XDICTIONARY
360
1E40
102
}
102
{ACAD_REACTORS
330
1E41
102
}
330
1E
100
AcDbEntity
  8
SC
100
AcDbDimension
  2
*D5
 10
278.8423032077633
 20
88.12400019579985
 30
0.0
 11
276.27146987443
 21
98.11185247849676
 31
0.0
 70
    32
  1
(35)
 71
     5
 42
19.97570456539373
  3
ISO-25
100
AcDbAlignedDimension
 13
259.958955892615
 23
108.0997047611935
 33
0.0
 14
265.653295713276
 24
88.12400019579985
 34
0.0
 50
90.0
100
AcDbRotatedDimension
1001
ACAD
1000
DSTYLE
1002
{
1070
   340
1005
22
1070
   140
1040
4.0
1002
}
  0
LEADER
  5
1E42
102
{ACAD_XDICTIONARY
360
1E43
102
}
102
{ACAD_REACTORS
330
1E44
102
}
330
1E
100
AcDbEntity
  8
SC
100
AcDbLeader
  3
ISO-25
 73
     0
 74
     0
 75
     1
 40
4.0
 41
30.51428571428572
 76
     3
 10
127.3596063510656
 20
103.7105726778074
 30
0.0
 10
138.1164187689087
 20
87.50372414853369
 30
0.0
 10
140.2164187689087
 20
87.50372414853369
 30
0.0
340
1E45
213
2.850189873310768
223
-2.551420930472247
233
0.0
1001
ACAD
1000
DSTYLE
1002
{
1070
   147
1040
0.625
1070
    77
1070
     1
1002
}
  0
MTEXT
  5
1E45
102
{ACAD_REACTORS
330
1E42
102
}
330
1E
100
AcDbEntity
  8
SC
100
AcDbMText
 10
140.5688131798354
 20
88.37414122674127
 30
0.0
 40
4.0
 41
0.0
 71
     7
 72
     1
  1
M6ｷｬｯﾌﾟボルト
  7
0
 73
     1
 44
1.0
1001
ACAD
1000
MTEXTBEGIN
1070
    73
1070
     1
1070
    44
1040
1.0
1070
    74
1070
     0
1000
MTEXTEND
  0
LEADER
  5
1E46
102
{ACAD_XDICTIONARY
360
1E47
102
}
102
{ACAD_REACTORS
330
1E48
102
}
330
1E
100
AcDbEntity
  8
SC
100
AcDbLeader
  3
ISO-25
 73
     0
 74
     0
 75
     1
 40
4.0
 41
26.66666666666666
 76
     3
 10
123.4116266599597
 20
186.0942842285679
 30
0.0
 10
133.1838387757828
 20
203.4173895366444
 30
0.0
 10
135.2838387757828
 20
203.4173895366444
 30
0.0
340
1E49
1001
ACAD
1000
DSTYLE
1002
{
1070
   147
1040
0.625
1070
    77
1070
     1
1002
}
  0
MTEXT
  5
1E49
102
{ACAD_REACTORS
330
1E46
102
}
330
1E
100
AcDbEntity
  8
SC
100
AcDbMText
 10
135.7213387757828
 20
203.8548895366444
 30
0.0
 40
4.0
 41
0.0
 71
     7
 72
     1
  1
リードカバー
  7
0
 73
     1
 44
1.0
1001
ACAD
1000
MTEXTBEGIN
1070
    73
1070
     1
1070
    44
1040
1.0
1070
    74
1070
     0
1000
MTEXTEND
  0
LINE
  5
1E4A
330
1E
100
AcDbEntity
  8
0
100
AcDbLine
 10
109.8596063510656
 20
111.2105726778074
 30
0.0
 11
113.8596063510656
 21
111.2105726778074
 31
0.0
  0
LINE
  5
1E4B
330
1E
100
AcDbEntity
  8
0
100
AcDbLine
 10
109.8596063510656
 20
105.2105726778074
 30
0.0
 11
113.8596063510656
 21
105.2105726778074
 31
0.0
  0
DIMENSION
  5
1E4C
102
{ACAD_XDICTIONARY
360
1E4D
102
}
102
{ACAD_REACTORS
330
1E4E
102
}
330
1E
100
AcDbEntity
  8
SC
100
AcDbDimension
  2
*D6
 10
251.3129296867438
 20
189.267512937841
 30
0.0
 11
247.9871528093099
 21
182.0022526156874
 31
0.0
 70
    34
  1
17\U+00B0
 71
     5
 42
0.2312611087924818
  3
ISO-25
100
AcDb2LineAngularDimension
 13
226.4150351954679
 23
175.6926926996919
 33
0.0
 14
229.1770231232129
 24
175.6926926996919
 34
0.0
 15
232.4444947332779
 25
184.8244870351837
 35
0.0
 16
246.7068564104461
 26
179.7897266276774
 36
0.0
1001
ACAD
1000
DSTYLE
1002
{
1070
    41
1040
4.0
1002
}
  0
DIMENSION
  5
1E4F
102
{ACAD_XDICTIONARY
360
1E50
102
}
102
{ACAD_REACTORS
330
1E51
102
}
330
1E
100
AcDbEntity
  8
SC
100
AcDbDimension
  2
*D7
 10
231.9126992063525
 20
196.9052704288752
 30
0.0
 11
225.0108579116845
 21
197.5001360700963
 31
0.0
 70
    33
  1
13
 71
     5
 42
13.35857359719068
  3
ISO-25
100
AcDbAlignedDimension
 13
220.380709180846
 23
185.7849196089164
 33
0.0
 14
233.5174710793876
 24
188.2091669916285
 34
0.0
1001
ACAD
1000
DSTYLE
1002
{
1070
   140
1040
4.0
1002
}
  0
LINE
  5
1FA5
330
1E
100
AcDbEntity
  8
SC
100
AcDbLine
 10
159.6800782197811
 20
169.0729573612931
 30
0.0
 11
138.4469990700164
 21
157.8037007575266
 31
0.0
  0
LINE
  5
1FA6
330
1E
100
AcDbEntity
  8
SC
100
AcDbLine
 10
85.27221363211475
 20
129.5816846418572
 30
0.0
 11
83.417279256374
 21
128.5971957075897
 31
0.0
  0
MTEXT
  5
1FA7
330
1E
100
AcDbEntity
  8
SC
100
AcDbMText
 10
153.9778094110573
 20
168.936268486291
 30
0.0
 40
4.0
 41
0.0
 71
     5
 72
     1
  1
A \U+03C6
  7
0
 11
0.8833020836860765
 21
0.4688042544131138
 31
0.0
 73
     1
 44
1.0
1001
ACAD
1000
MTEXTBEGIN
1070
    73
1070
     1
1070
    44
1040
1.0
1070
    74
1070
     0
1000
MTEXTEND
  0
LINE
  5
1FA8
330
1E
100
AcDbEntity
  8
SC
100
AcDbLine
 10
87.12714800785551
 20
130.5661735761247
 30
0.0
 11
136.5920646942757
 21
156.8192118232591
 31
0.0
  0
SOLID
  5
1FA9
330
1E
100
AcDbEntity
  8
SC
100
AcDbTrace
 10
85.10813214307018
 20
129.8908403711473
 30
0.0
 11
85.43629512115934
 21
129.2725289125671
 31
0.0
 12
87.12714800785551
 22
130.5661735761247
 32
0.0
 13
87.12714800785551
 23
130.5661735761247
 33
0.0
  0
SOLID
  5
1FAA
330
1E
100
AcDbEntity
  8
SC
100
AcDbTrace
 10
138.2829175809719
 20
158.1128564868167
 30
0.0
 11
138.611080559061
 21
157.4945450282364
 31
0.0
 12
136.5920646942757
 22
156.8192118232591
 32
0.0
 13
136.5920646942757
 23
156.8192118232591
 33
0.0
  0
LINE
  5
2013
330
1E
100
AcDbEntity
  8
SC
100
AcDbLine
 10
199.1770231232129
 20
101.7830567446923
 30
0.0
 11
199.1770231232129
 21
88.68458354669703
 31
0.0
  0
LINE
  5
2014
330
1E
100
AcDbEntity
  8
SC
100
AcDbLine
 10
229.1770231232129
 20
101.7830567446923
 30
0.0
 11
229.1770231232129
 21
88.68458354669703
 31
0.0
  0
LINE
  5
2015
330
1E
100
AcDbEntity
  8
SC
100
AcDbLine
 10
201.277023123213
 20
89.55958354669704
 30
0.0
 11
227.077023123213
 21
89.55958354669704
 31
0.0
  0
SOLID
  5
2016
330
1E
100
AcDbEntity
  8
SC
100
AcDbTrace
 10
201.277023123213
 20
89.90958354669704
 30
0.0
 11
201.277023123213
 21
89.20958354669705
 31
0.0
 12
199.1770231232129
 22
89.55958354669704
 32
0.0
 13
199.1770231232129
 23
89.55958354669704
 33
0.0
  0
SOLID
  5
2017
330
1E
100
AcDbEntity
  8
SC
100
AcDbTrace
 10
227.077023123213
 20
89.90958354669704
 30
0.0
 11
227.077023123213
 21
89.20958354669705
 31
0.0
 12
229.1770231232129
 22
89.55958354669704
 32
0.0
 13
229.1770231232129
 23
89.55958354669704
 33
0.0
  0
MTEXT
  5
2018
330
1E
100
AcDbEntity
  8
SC
100
AcDbMText
 10
214.177023123213
 20
91.39708354669705
 30
0.0
 40
2.799999999999999
 41
0.0
 71
     5
 72
     1
  1
B
  7
0
 73
     1
 44
1.0
1001
ACAD
1000
MTEXTBEGIN
1070
    73
1070
     1
1070
    44
1040
1.0
1070
    74
1070
     0
1000
MTEXTEND
  0
ARC
  5
2049
330
1E
100
AcDbEntity
  8
SC
100
AcDbCircle
 10
252.458955892615
 20
184.4006223560161
 30
0.0
 40
17.5
100
AcDbArc
 50
0.0
 51
103.2502854993252
  0
LINE
  5
204A
330
1E
100
AcDbEntity
  8
SC
100
AcDbLine
 10
231.3795325197147
 20
197.4648222428572
 30
0.0
 11
248.4744697971656
 21
201.440965972944
 31
0.0
  0
LINE
  5
204B
330
1E
100
AcDbEntity
  8
SC
100
AcDbLine
 10
269.958955892615
 20
184.4006223560161
 30
0.0
 11
269.958955892615
 21
145.9943042538781
 31
0.0
  0
LINE
  5
204C
330
1E
100
AcDbEntity
  8
SC
100
AcDbLine
 10
269.958955892615
 20
145.9943042538781
 30
0.0
 11
269.958955892615
 21
93.12400019579985
 31
0.0
  0
SOLID
  5
2065
330
1E
100
AcDbEntity
  8
SC
100
AcDbTrace
 10
236.0607491595899
 20
199.4092129481945
 30
0.0
 11
236.4383236240303
 21
197.7858783241627
 31
0.0
 12
231.3795325197149
 22
197.4648222428573
 32
0.0
 13
231.3795325197149
 23
197.4648222428573
 33
0.0
  0
LINE
  5
207D
330
1E
100
AcDbEntity
  8
SC
100
AcDbLine
 10
276.021455892615
 20
108.0997047611935
 30
0.0
 11
279.098
 21
108.0997047611935
 31
0.0
  0
SOLID
  5
2081
330
1E
100
AcDbEntity
  8
SC
100
AcDbTrace
 10
269.1256225592817
 20
93.12400019579985
 30
0.0
 11
270.7922892259483
 21
93.12400019579985
 31
0.0
 12
269.958955892615
 22
88.12400019579985
 32
0.0
 13
269.958955892615
 23
88.12400019579985
 33
0.0
  0
LINE
  5
2084
330
1E
100
AcDbEntity
  8
SC
100
AcDbLine
 10
233.6449793063574
 20
187.7248144986667
 30
0.0
 11
231.0384147861689
 21
198.9314156698167
 31
0.0
  0
MTEXT
  5
2085
330
1E
100
AcDbEntity
  8
SC
100
AcDbMText
 10
271.2454026173958
 20
145.7756754681775
 30
0.0
 40
4.0
 41
0.0
 71
     7
 72
     1
  1
D
  7
0
 11
-0.0000000000000002
 21
-1.0
 31
0.0
 73
     1
 44
1.0
1001
ACAD
1000
MTEXTBEGIN
1070
    73
1070
     1
1070
    44
1040
1.0
1070
    74
1070
     0
1000
MTEXTEND
  0
ENDSEC
  0
SECTION
  2
OBJECTS
  0
DICTIONARY
  5
C
330
0
100
AcDbDictionary
281
     1
  3
ACAD_2007HEADERVARS_RT
350
2156
  3
ACAD_CIP_PREVIOUS_PRODUCT_INFO
350
1CA2
  3
ACAD_COLOR
350
1793
  3
ACAD_DETAILVIEWSTYLE
350
1C9F
  3
ACAD_GROUP
350
D
  3
ACAD_LAYOUT
350
19
  3
ACAD_MATERIAL
350
1792
  3
ACAD_MLEADERSTYLE
350
1C9B
  3
ACAD_MLINESTYLE
350
16
  3
ACAD_PLOTSETTINGS
350
18
  3
ACAD_PLOTSTYLENAME
350
E
  3
ACAD_SCALELIST
350
1C89
  3
ACAD_SECTIONVIEWSTYLE
350
1C9D
  3
ACAD_TABLESTYLE
350
17A5
  3
ACAD_VISUALSTYLE
350
1C70
  3
ACDB_RECOMPOSE_DATA
350
2154
  3
AcDbVariableDictionary
350
17B5
  3
DWGPROPS
350
2155
  0
DICTIONARY
  5
1F1D
330
10
100
AcDbDictionary
280
     1
281
     1
  3
ADSK_XREC_LAYER_RECONCILED
360
1F1E
  0
DICTIONARY
  5
1F1F
330
28
100
AcDbDictionary
280
     1
281
     1
  3
ADSK_XREC_LAYER_RECONCILED
360
1F20
  0
DICTIONARY
  5
1F21
330
29
100
AcDbDictionary
280
     1
281
     1
  3
ADSK_XREC_LAYER_RECONCILED
360
1F22
  0
DICTIONARY
  5
1F23
330
2A
100
AcDbDictionary
280
     1
281
     1
  3
ADSK_XREC_LAYER_RECONCILED
360
1F24
  0
DICTIONARY
  5
1F25
330
2B
100
AcDbDictionary
280
     1
281
     1
  3
ADSK_XREC_LAYER_RECONCILED
360
1F26
  0
DICTIONARY
  5
1F27
330
2C
100
AcDbDictionary
280
     1
281
     1
  3
ADSK_XREC_LAYER_RECONCILED
360
1F28
  0
DICTIONARY
  5
1F29
330
2D
100
AcDbDictionary
280
     1
281
     1
  3
ADSK_XREC_LAYER_RECONCILED
360
1F2A
  0
DICTIONARY
  5
1F2B
330
1397
100
AcDbDictionary
280
     1
281
     1
  3
ADSK_XREC_LAYER_RECONCILED
360
1F2C
  0
DICTIONARY
  5
1F2D
330
1C0D
100
AcDbDictionary
280
     1
281
     1
  3
ADSK_XREC_LAYER_RECONCILED
360
1F2E
  0
DICTIONARY
  5
1F2F
330
1D0B
100
AcDbDictionary
280
     1
281
     1
  3
ADSK_XREC_LAYER_RECONCILED
360
1F30
  0
DICTIONARY
  5
1FAB
330
1E
100
AcDbDictionary
280
     1
281
     1
  3
ACAD_SORTENTS
360
1FAC
  0
DICTIONARY
  5
2198
330
2114
100
AcDbDictionary
280
     1
281
     1
  3
ACAD_MTEXT_RT
360
2199
  0
DICTIONARY
  5
1E30
330
1E2F
100
AcDbDictionary
280
     1
281
     1
  3
ACAD_DIMASSOC
360
1E31
  0
DICTIONARY
  5
1E33
330
1E32
100
AcDbDictionary
280
     1
281
     1
  3
ACAD_DIMASSOC
360
1E34
  0
DICTIONARY
  5
1E36
330
1E35
100
AcDbDictionary
280
     1
281
     1
  3
ACAD_DIMASSOC
360
1E37
  0
DICTIONARY
  5
1E3C
330
1E3B
100
AcDbDictionary
280
     1
281
     1
  3
ACAD_DIMASSOC
360
1E3D
  0
DICTIONARY
  5
1E40
330
1E3F
100
AcDbDictionary
280
     1
281
     1
  3
ACAD_DIMASSOC
360
1E41
  0
DICTIONARY
  5
1E43
330
1E42
100
AcDbDictionary
280
     1
281
     1
  3
ACAD_DIMASSOC
360
1E44
  0
DICTIONARY
  5
1E47
330
1E46
100
AcDbDictionary
280
     1
281
     1
  3
ACAD_DIMASSOC
360
1E48
  0
DICTIONARY
  5
1E4D
330
1E4C
100
AcDbDictionary
280
     1
281
     1
  3
ACAD_DIMASSOC
360
1E4E
  0
DICTIONARY
  5
1E50
330
1E4F
100
AcDbDictionary
280
     1
281
     1
  3
ACAD_DIMASSOC
360
1E51
  0
DICTIONARY
  5
2156
102
{ACAD_REACTORS
330
C
102
}
330
C
100
AcDbDictionary
281
     1
  3
DIMARCSYM
350
2157
  0
XRECORD
  5
1CA2
102
{ACAD_REACTORS
330
C
102
}
330
C
100
AcDbXrecord
280
     1
300
ACDLT
300
2014
300
ACDLT_F_S
  0
DICTIONARY
  5
1793
102
{ACAD_REACTORS
330
C
102
}
330
C
100
AcDbDictionary
281
     1
  0
DICTIONARY
  5
1C9F
102
{ACAD_REACTORS
330
C
102
}
330
C
100
AcDbDictionary
281
     1
  3
Imperial24
350
1CA0
  3
Metric50
350
1D11
  0
DICTIONARY
  5
D
102
{ACAD_REACTORS
330
C
102
}
330
C
100
AcDbDictionary
281
     1
  0
DICTIONARY
  5
19
102
{ACAD_REACTORS
330
C
102
}
330
C
100
AcDbDictionary
281
     1
  3
Model
350
21
  3
ﾚｲｱｳﾄ1
350
1D
  0
DICTIONARY
  5
1792
102
{ACAD_REACTORS
330
C
102
}
330
C
100
AcDbDictionary
281
     1
  3
ByBlock
350
1C60
  3
ByLayer
350
1C58
  3
Global
350
1C68
  0
DICTIONARY
  5
1C9B
102
{ACAD_REACTORS
330
C
102
}
330
C
100
AcDbDictionary
281
     1
  3
Standard
350
1C9C
  0
DICTIONARY
  5
16
102
{ACAD_REACTORS
330
C
102
}
330
C
100
AcDbDictionary
281
     1
  3
Standard
350
17
  0
DICTIONARY
  5
18
102
{ACAD_REACTORS
330
C
102
}
330
C
100
AcDbDictionary
281
     1
  0
ACDBDICTIONARYWDFLT
  5
E
102
{ACAD_REACTORS
330
C
102
}
330
C
100
AcDbDictionary
281
     1
  3
Normal
350
F
100
AcDbDictionaryWithDefault
340
F
  0
DICTIONARY
  5
1C89
102
{ACAD_REACTORS
330
C
102
}
330
C
100
AcDbDictionary
281
     1
  3
A0
350
1C8A
  3
A1
350
1C8B
  3
A2
350
1C8C
  3
A3
350
1C8D
  3
A4
350
1C8E
  3
A5
350
1C8F
  3
A6
350
1C90
  3
A7
350
1C91
  3
A8
350
1C92
  3
A9
350
1C93
  3
B0
350
1C94
  3
B1
350
1C95
  3
B2
350
1C96
  3
B3
350
1C97
  3
B4
350
1C98
  3
B5
350
1C99
  3
B6
350
1C9A
  0
DICTIONARY
  5
1C9D
102
{ACAD_REACTORS
330
C
102
}
330
C
100
AcDbDictionary
281
     1
  3
Imperial24
350
1C9E
  3
Metric50
350
1D10
  0
DICTIONARY
  5
17A5
102
{ACAD_REACTORS
330
C
102
}
330
C
100
AcDbDictionary
281
     1
  3
Standard
350
17A6
  0
DICTIONARY
  5
1C70
102
{ACAD_REACTORS
330
C
102
}
330
C
100
AcDbDictionary
281
     1
  3
2dWireframe
350
1C76
  3
Basic
350
1C75
  3
Brighten
350
1C7C
  3
ColorChange
350
1C80
  3
Conceptual
350
1C79
  3
Dim
350
1C7B
  3
EdgeColorOff
350
1C88
  3
Facepattern
350
1C7F
  3
Flat
350
1C71
  3
FlatWithEdges
350
1C72
  3
Gouraud
350
1C73
  3
GouraudWithEdges
350
1C74
  3
Hidden
350
1C78
  3
JitterOff
350
1C86
  3
Linepattern
350
1C7E
  3
OverhangOff
350
1C87
  3
Realistic
350
1C7A
  3
Shaded
350
1C85
  3
Shaded with edges
350
1C84
  3
Shades of Gray
350
1C81
  3
Sketchy
350
1C82
  3
Thicken
350
1C7D
  3
Wireframe
350
1C77
  3
X-Ray
350
1C83
  0
XRECORD
  5
2154
102
{ACAD_REACTORS
330
C
102
}
330
C
100
AcDbXrecord
280
     1
 90
        1
330
17A6
  0
DICTIONARY
  5
17B5
102
{ACAD_REACTORS
330
C
102
}
330
C
100
AcDbDictionary
281
     1
  3
CANNOSCALE
350
1F3E
  3
CMLEADERSTYLE
350
1F3A
  3
CTABLESTYLE
350
17B6
  3
CVIEWDETAILSTYLE
350
1F3B
  3
CVIEWSECTIONSTYLE
350
1F3C
  3
DIMASSOC
350
1C49
  3
INDEXCTL
350
2150
  3
LAYEREVAL
350
1F40
  3
LAYERNOTIFY
350
1F41
  3
LIGHTINGUNITS
350
1F3F
  3
MSLTSCALE
350
1F3D
  3
PROJECTNAME
350
1C4A
  3
SORTENTS
350
214F
  3
XCLIPFRAME
350
2151
  0
XRECORD
  5
2155
102
{ACAD_REACTORS
330
C
102
}
330
C
100
AcDbXrecord
280
     1
  1
DWGPROPS COOKIE
  2

  3

  4

  6

  7

  8
user
  9

300
=
301
=
302
=
303
=
304
=
305
=
306
=
307
=
308
=
309
=
 40
1.729558078703703
 41
2450808.702418171
 42
2458726.564434421
  1

 90
        0
  0
XRECORD
  5
1F1E
102
{ACAD_REACTORS
330
1F1D
102
}
330
1F1D
100
AcDbXrecord
280
     1
290
     1
  0
XRECORD
  5
1F20
102
{ACAD_REACTORS
330
1F1F
102
}
330
1F1F
100
AcDbXrecord
280
     1
290
     1
  0
XRECORD
  5
1F22
102
{ACAD_REACTORS
330
1F21
102
}
330
1F21
100
AcDbXrecord
280
     1
290
     1
  0
XRECORD
  5
1F24
102
{ACAD_REACTORS
330
1F23
102
}
330
1F23
100
AcDbXrecord
280
     1
290
     1
  0
XRECORD
  5
1F26
102
{ACAD_REACTORS
330
1F25
102
}
330
1F25
100
AcDbXrecord
280
     1
290
     1
  0
XRECORD
  5
1F28
102
{ACAD_REACTORS
330
1F27
102
}
330
1F27
100
AcDbXrecord
280
     1
290
     1
  0
XRECORD
  5
1F2A
102
{ACAD_REACTORS
330
1F29
102
}
330
1F29
100
AcDbXrecord
280
     1
290
     1
  0
XRECORD
  5
1F2C
102
{ACAD_REACTORS
330
1F2B
102
}
330
1F2B
100
AcDbXrecord
280
     1
290
     1
  0
XRECORD
  5
1F2E
102
{ACAD_REACTORS
330
1F2D
102
}
330
1F2D
100
AcDbXrecord
280
     1
290
     1
  0
XRECORD
  5
1F30
102
{ACAD_REACTORS
330
1F2F
102
}
330
1F2F
100
AcDbXrecord
280
     1
290
     1
  0
SORTENTSTABLE
  5
1FAC
102
{ACAD_REACTORS
330
1FAB
102
}
330
1FAB
100
AcDbSortentsTable
330
1E
331
18A9
  5
18A9
331
18A5
  5
18A5
331
18E4
  5
18E4
331
139F
  5
139F
331
207D
  5
207D
331
1943
  5
1943
331
1DDC
  5
1DDC
331
1E17
  5
1E28
331
1DD8
  5
1DD8
331
1E13
  5
1E1C
331
1DD4
  5
1DD4
331
1E4A
  5
2065
331
1DD0
  5
1DD0
331
1822
  5
1822
331
18D8
  5
18D8
331
178F
  5
178F
331
181A
  5
181A
331
1889
  5
1889
331
1927
  5
1927
331
1923
  5
1923
331
1E0F
  5
1E16
331
1A12
  5
1A12
331
2065
  5
206D
331
1E0B
  5
1E11
331
1E46
  5
2061
331
1DCC
  5
1DCC
331
1DC8
  5
1DC8
331
1E07
  5
1E0D
331
1E42
  5
204B
331
1DC4
  5
1DC4
331
1E03
  5
1E09
331
1E3E
  5
2049
331
1DC0
  5
1DC0
331
18CC
  5
18CC
331
1875
  5
1875
331
180A
  5
180A
331
1871
  5
1871
331
1FA7
  5
1DED
331
2016
  5
2016
331
1A06
  5
1A06
331
190B
  5
190B
331
1DFF
  5
1E05
331
1DFB
  5
1E01
331
18FF
  5
18FF
331
1DBC
  5
1DBC
331
1DB8
  5
1DB8
331
1DF7
  5
1DFD
331
1E32
  5
1FA9
331
1DF3
  5
1DF9
331
1E2E
  5
1FA7
331
1E2A
  5
1E4C
331
1806
  5
1806
331
1855
  5
1855
331
17DE
  5
17DE
331
18B4
  5
18B4
331
1845
  5
1845
331
2049
  5
1E26
331
8B
  5
8B
331
18F7
  5
18F7
331
19C2
  5
19C2
331
1DEF
  5
1DF5
331
1DEB
  5
1DF1
331
1E26
  5
1E45
331
18EF
  5
18EF
331
195E
  5
195E
331
1DE7
  5
1DE7
331
1E22
  5
1E3B
331
18EB
  5
18EB
331
1DE3
  5
1DE3
331
1E1E
  5
1E2F
331
1E1A
  5
1E2B
331
1829
  5
1829
331
63
  5
63
331
1DDF
  5
1DDF
331
192E
  5
192E
331
1DDB
  5
1DDB
331
1E16
  5
1E22
331
1DD7
  5
1DD7
331
1E12
  5
1E19
331
1DD3
  5
1DD3
331
1E49
  5
2063
331
1888
  5
1888
331
1926
  5
1926
331
1FAA
  5
1DF0
331
1E0E
  5
1E15
331
1DCF
  5
1DCF
331
1E0A
  5
1E10
331
1E45
  5
204C
331
1DCB
  5
1DCB
331
1A09
  5
1A09
331
1DC7
  5
1DC7
331
1E06
  5
1E0C
331
1DC3
  5
1DC3
331
1E02
  5
1E08
331
1884
  5
1884
331
1874
  5
1874
331
1492
  5
1492
331
1870
  5
1870
331
1FA6
  5
1DEC
331
2015
  5
2015
331
1DBF
  5
1DBF
331
1DFE
  5
1E04
331
1DFA
  5
1E00
331
1E35
  5
1FAA
331
1DBB
  5
1DBB
331
19F9
  5
19F9
331
1DB7
  5
1DB7
331
1DF6
  5
1DFC
331
1C08
  5
1C08
331
1DF2
  5
1DF8
331
1E2D
  5
1FA6
331
1E29
  5
1E4B
331
148E
  5
148E
331
1844
  5
1844
331
204C
  5
1E1E
331
1DEE
  5
1DF4
331
6E
  5
6E
331
1E25
  5
1E42
331
18EE
  5
18EE
331
1DE6
  5
1DE6
331
1E21
  5
1E38
331
1DE2
  5
1DE2
331
1E1D
  5
1E2E
331
1E19
  5
1E2A
331
18AB
  5
18AB
331
18A3
  5
18A3
331
62
  5
62
331
1DDE
  5
1DDE
331
1DDA
  5
1DDA
331
1399
  5
1399
331
1E15
  5
1E21
331
1DD6
  5
1DD6
331
1E11
  5
1E18
331
1DD2
  5
1DD2
331
1E4C
  5
2069
331
18DE
  5
18DE
331
1893
  5
1893
331
18D2
  5
18D2
331
1925
  5
1925
331
1A14
  5
1A14
331
1FA9
  5
1DEF
331
1E0D
  5
1E13
331
1DCE
  5
1DCE
331
2018
  5
2018
331
1E09
  5
1E0F
331
1DCA
  5
1DCA
331
1A08
  5
1A08
331
1DC6
  5
1DC6
331
1E05
  5
1E0B
331
1DC2
  5
1DC2
331
1E01
  5
1E07
331
1814
  5
1814
331
18C6
  5
18C6
331
1808
  5
1808
331
1873
  5
1873
331
1491
  5
1491
331
1FA5
  5
1DEB
331
2014
  5
2014
331
1A00
  5
1A00
331
1DBE
  5
1DBE
331
1DFD
  5
1E03
331
1DF9
  5
1DFF
331
91
  5
91
331
1DBA
  5
1DBA
331
1DB6
  5
1DB6
331
1DF5
  5
1DFB
331
1DF1
  5
1DF7
331
1E2C
  5
1FA5
331
1E28
  5
1E4A
331
17DC
  5
17DC
331
1847
  5
1847
331
204B
  5
1E1A
331
8D
  5
8D
331
1C07
  5
1C07
331
89
  5
89
331
1DED
  5
1DF3
331
1E24
  5
1E3F
331
18ED
  5
18ED
331
2081
  5
2081
331
1DE5
  5
1DE5
331
1E20
  5
1E35
331
1DE1
  5
1DE1
331
1E1C
  5
1E2D
331
1E18
  5
1E29
331
18AA
  5
18AA
331
18A2
  5
18A2
331
61
  5
61
331
139C
  5
139C
331
1DDD
  5
1DDD
331
1DD9
  5
1DD9
331
1E14
  5
1E20
331
1DD5
  5
1DD5
331
1E4F
  5
206A
331
1E10
  5
1E17
331
1DD1
  5
1DD1
331
1E4B
  5
2068
331
1892
  5
1892
331
188A
  5
188A
331
1924
  5
1924
331
1A13
  5
1A13
331
1FA8
  5
1DEE
331
1E0C
  5
1E12
331
1DCD
  5
1DCD
331
1DC9
  5
1DC9
331
1E08
  5
1E0E
331
1DC5
  5
1DC5
331
1E04
  5
1E0A
331
1E3F
  5
204A
331
1918
  5
1918
331
1DC1
  5
1DC1
331
1E00
  5
1E06
331
1E3B
  5
2048
331
1758
  5
1758
331
2017
  5
2017
331
2013
  5
2013
331
AC
  5
AC
331
1DFC
  5
1E02
331
1DBD
  5
1DBD
331
1DF8
  5
1DFE
331
1DB9
  5
1DB9
331
1DF4
  5
1DFA
331
1E2F
  5
1FA8
331
1DF0
  5
1DF6
331
1E2B
  5
1E4F
331
1807
  5
1807
331
1856
  5
1856
331
18BD
  5
18BD
331
13A0
  5
13A0
331
204A
  5
1E14
331
18F0
  5
18F0
331
1E27
  5
1E49
331
1DEC
  5
1DF2
331
1E23
  5
1E3E
331
1DE4
  5
1DE4
331
1E1F
  5
1E32
331
1DE0
  5
1DE0
331
1E1B
  5
1E2C
  0
XRECORD
  5
2199
102
{ACAD_REACTORS
330
2198
102
}
330
2198
100
AcDbXrecord
280
     1
 40
2574.0
  1
17\U+00B0
  0
DIMASSOC
  5
1E31
102
{ACAD_REACTORS
330
1E30
102
}
330
1E30
100
AcDbDimAssoc
330
1E2F
 90
        3
 70
     0
 71
     0
  1
AcDbOsnapPointRef
 72
    10
331
1DB9
 73
     2
 91
        0
 40
7.082812612536775
 10
0.0
 20
0.0
 30
0.0
 75
     0
  1
AcDbOsnapPointRef
 72
     8
331
1DBB
 73
     2
 91
        0
 40
7.082812612536774
 10
0.0
 20
0.0
 30
0.0
 75
     1
  1
AcDbOsnapPointRef
 72
    10
331
1DB9
 73
     2
 91
        0
 40
7.082812612536775
 10
0.0
 20
0.0
 30
0.0
 75
     0
  0
DIMASSOC
  5
1E34
102
{ACAD_REACTORS
330
1E33
102
}
330
1E33
100
AcDbDimAssoc
330
1E32
 90
        3
 70
     0
 71
     0
  1
AcDbOsnapPointRef
 72
    10
331
1DC6
 73
     2
 91
        0
 40
2.231512274704847
 10
0.0
 20
0.0
 30
0.0
 75
     0
  1
AcDbOsnapPointRef
 72
     8
331
1DC7
 73
     2
 91
        0
 40
2.231512274704847
 10
0.0
 20
0.0
 30
0.0
 75
     1
  1
AcDbOsnapPointRef
 72
    10
331
1DC6
 73
     2
 91
        0
 40
2.231512274704847
 10
0.0
 20
0.0
 30
0.0
 75
     0
  0
DIMASSOC
  5
1E37
102
{ACAD_REACTORS
330
1E36
102
}
330
1E36
100
AcDbDimAssoc
330
1E35
 90
        3
 70
     0
 71
     0
  1
AcDbOsnapPointRef
 72
    10
331
1DC6
 73
     2
 91
        0
 40
4.08891307382588
 10
0.0
 20
0.0
 30
0.0
 75
     0
  1
AcDbOsnapPointRef
 72
     8
331
1DDC
 73
     2
 91
        0
 40
4.08891307382588
 10
0.0
 20
0.0
 30
0.0
 75
     1
  1
AcDbOsnapPointRef
 72
    10
331
1DC6
 73
     2
 91
        0
 40
4.08891307382588
 10
0.0
 20
0.0
 30
0.0
 75
     0
  0
DIMASSOC
  5
1E3D
102
{ACAD_REACTORS
330
1E3C
102
}
330
1E3C
100
AcDbDimAssoc
330
1E3B
 90
        1
 70
     0
 71
     0
  1
AcDbOsnapPointRef
 72
    13
331
1E16
 73
     2
 91
        0
 40
0.0
 10
0.0
 20
0.0
 30
2.000000000000000E+50
 75
     0
  0
DIMASSOC
  5
1E41
102
{ACAD_REACTORS
330
1E40
102
}
330
1E40
100
AcDbDimAssoc
330
1E3F
 90
        3
 70
     0
 71
     0
  1
AcDbOsnapPointRef
 72
     1
331
1E17
 73
     2
 91
        0
 40
1.0
 10
0.0
 20
0.0
 30
2.000000000000000E+50
 75
     0
  1
AcDbOsnapPointRef
 72
     3
331
1E2A
 73
     2
 91
        0
 40
0.0
 10
0.0
 20
0.0
 30
0.0
 75
     0
  0
DIMASSOC
  5
1E44
102
{ACAD_REACTORS
330
1E43
102
}
330
1E43
100
AcDbDimAssoc
330
1E42
 90
        1
 70
     0
 71
     0
  1
AcDbOsnapPointRef
 72
     2
331
1DD8
 73
     2
 91
        0
 40
0.5
 10
0.0
 20
0.0
 30
0.0
 75
     0
  0
DIMASSOC
  5
1E48
102
{ACAD_REACTORS
330
1E47
102
}
330
1E47
100
AcDbDimAssoc
330
1E46
 90
        1
 70
     0
 71
     0
  1
AcDbOsnapPointRef
 72
     2
331
1DBE
 73
     2
 91
        0
 40
0.9281799226274417
 10
0.0
 20
0.0
 30
0.0
 75
     0
  0
DIMASSOC
  5
1E4E
102
{ACAD_REACTORS
330
1E4D
102
}
330
1E4D
100
AcDbDimAssoc
330
1E4C
 90
       15
 70
     0
 71
     0
  1
AcDbOsnapPointRef
 72
    13
331
1DF6
 73
     2
 91
        0
 40
0.0
 10
0.0
 20
0.0
 30
2.000000000000000E+50
 75
     0
  1
AcDbOsnapPointRef
 72
     1
331
1DF6
 73
     2
 91
        0
 40
1.0
 10
0.0
 20
0.0
 30
2.000000000000000E+50
 75
     0
  1
AcDbOsnapPointRef
 72
    13
331
1E0C
 73
     2
 91
        0
 40
0.0
 10
0.0
 20
0.0
 30
2.000000000000000E+50
 75
     0
  1
AcDbOsnapPointRef
 72
     1
331
1E0C
 73
     2
 91
        0
 40
1.0
 10
0.0
 20
0.0
 30
2.000000000000000E+50
 75
     0
  0
DIMASSOC
  5
1E51
102
{ACAD_REACTORS
330
1E50
102
}
330
1E50
100
AcDbDimAssoc
330
1E4F
 90
        3
 70
     0
 71
     0
  1
AcDbOsnapPointRef
 72
     6
331
1E02
 73
     2
 91
        0
 40
0.0
 10
0.0
 20
0.0
 30
0.0
332
1DFA
 74
     2
 92
        0
 75
     0
  1
AcDbOsnapPointRef
 72
    13
331
1E0B
 73
     2
 91
        0
 40
0.2574145509418404
 10
0.0
 20
0.0
 30
2.000000000000000E+50
 75
     0
  0
XRECORD
  5
2157
102
{ACAD_REACTORS
330
2156
102
}
330
2156
100
AcDbXrecord
280
     1
 70
     1
  0
ACDBDETAILVIEWSTYLE
  5
1CA0
102
{ACAD_XDICTIONARY
360
1F33
102
}
102
{ACAD_REACTORS
330
1C9F
102
}
330
1C9F
100
AcDbModelDocViewStyle
 70
     0
  3
Imperial24
290
     0
100
AcDbDetailViewStyle
 70
     0
 71
     0
 90
        3
 71
     1
340
11
 40
0.24
340
0
 40
0.24
300

 40
0.36
280
     3
 71
     2
340
15
 90
       25
 71
     3
340
11
 40
0.24
 90
        1
 40
0.75
 90
        1
300
%<\AcVar ViewType \f "%tc1">% %<\AcVar ViewDetailId>%\PSCALE %<\AcVar ViewScale \f "%sn">%
 71
     4
340
15
 90
       25
340
15
 90
       25
280
     0
  0
ACDBDETAILVIEWSTYLE
  5
1D11
102
{ACAD_XDICTIONARY
360
1F37
102
}
102
{ACAD_REACTORS
330
1C9F
102
}
330
1C9F
100
AcDbModelDocViewStyle
 70
     0
  3
Metric50
290
     0
100
AcDbDetailViewStyle
 70
     0
 71
     0
 90
        3
 71
     1
340
11
 40
5.0
340
0
 40
5.0
300

 40
0.0
280
     1
 71
     2
340
15
 90
       25
 71
     3
340
11
 40
5.0
 90
        0
 40
15.0
 90
        1
300
%<\AcVar ViewDetailId>% (%<\AcVar ViewScale \f "%sn">%)
 71
     4
340
15
 90
       25
340
15
 90
       25
280
     0
  0
LAYOUT
  5
21
102
{ACAD_XDICTIONARY
360
215A
102
}
102
{ACAD_REACTORS
330
19
102
}
330
19
100
AcDbPlotSettings
  1

  2
\\AISEI\FX DocuPrint 205
  4
A4
  6
HYOU
 40
4.900083065032958
 41
4.900057315826416
 42
4.90008544921875
 43
4.90008544921875
 44
210.0156707763672
 45
297.0106506347656
 46
-1.0
 47
10.0
 48
0.0
 49
0.0
140
0.0
141
0.0
142
1.0
143
1.483401617978499
 70
 11952
 72
     1
 73
     1
 74
     2
  7
monochrome.ctb
 75
     0
147
0.6741262702428132
148
0.0
149
0.0
100
AcDbLayout
  1
Model
 70
     1
 71
     0
 10
0.0
 20
0.0
 11
12.0
 21
9.0
 12
0.0
 22
0.0
 32
0.0
 14
0.0
 24
0.0
 34
0.0
 15
0.0
 25
0.0
 35
0.0
146
0.0
 13
0.0
 23
0.0
 33
0.0
 16
1.0
 26
0.0
 36
0.0
 17
0.0
 27
1.0
 37
0.0
 76
     0
330
1E
331
1C4B
1001
ACAD_PSEXT
1000
FX DocuPrint 205
1000
FX DocuPrint 205
1000
USB001
1000

1070
     0
  0
LAYOUT
  5
1D
102
{ACAD_XDICTIONARY
360
2158
102
}
102
{ACAD_REACTORS
330
19
102
}
330
19
100
AcDbPlotSettings
  1

  2
EPSON LP-1500S
  4

  6

 40
0.0
 41
0.0
 42
0.0
 43
0.0
 44
0.0
 45
0.0
 46
0.0
 47
0.0
 48
0.0
 49
0.0
140
0.0
141
0.0
142
1.0
143
1.0
 70
   688
 72
     0
 73
     0
 74
     5
  7
monochrome.ctb
 75
    16
147
1.0
148
0.0
149
0.0
100
AcDbLayout
  1
ﾚｲｱｳﾄ1
 70
     0
 71
     1
 10
0.0
 20
0.0
 11
12.0
 21
9.0
 12
0.0
 22
0.0
 32
0.0
 14
1.000000000000000E+20
 24
1.000000000000000E+20
 34
1.000000000000000E+20
 15
-1.000000000000000E+20
 25
-1.000000000000000E+20
 35
-1.000000000000000E+20
146
0.0
 13
0.0
 23
0.0
 33
0.0
 16
1.0
 26
0.0
 36
0.0
 17
0.0
 27
1.0
 37
0.0
 76
     0
330
1A
  0
MATERIAL
  5
1C60
102
{ACAD_XDICTIONARY
360
1C61
102
}
102
{ACAD_REACTORS
330
1792
102
}
330
1792
100
AcDbMaterial
  1
ByBlock
 72
     0
 43
0.0208333333333333
 43
0.0
 43
0.0
 43
0.0
 43
0.0
 43
0.0208333333333333
 43
0.0
 43
0.0
 43
0.0
 43
0.0
 43
1.0
 43
0.0
 43
0.0
 43
0.0
 43
0.0
 43
1.0
 77
     0
 47
0.0208333333333333
 47
0.0
 47
0.0
 47
0.0
 47
0.0
 47
0.0208333333333333
 47
0.0
 47
0.0
 47
0.0
 47
0.0
 47
1.0
 47
0.0
 47
0.0
 47
0.0
 47
0.0
 47
1.0
171
     0
 49
0.0208333333333333
 49
0.0
 49
0.0
 49
0.0
 49
0.0
 49
0.0208333333333333
 49
0.0
 49
0.0
 49
0.0
 49
0.0
 49
1.0
 49
0.0
 49
0.0
 49
0.0
 49
0.0
 49
1.0
175
     0
142
0.0208333333333333
142
0.0
142
0.0
142
0.0
142
0.0
142
0.0208333333333333
142
0.0
142
0.0
142
0.0
142
0.0
142
1.0
142
0.0
142
0.0
142
0.0
142
0.0
142
1.0
179
     0
144
0.0208333333333333
144
0.0
144
0.0
144
0.0
144
0.0
144
0.0208333333333333
144
0.0
144
0.0
144
0.0
144
0.0
144
1.0
144
0.0
144
0.0
144
0.0
144
0.0
144
1.0
147
0.0208333333333333
147
0.0
147
0.0
147
0.0
147
0.0
147
0.0208333333333333
147
0.0
147
0.0
147
0.0
147
0.0
147
1.0
147
0.0
147
0.0
147
0.0
147
0.0
147
1.0
  0
MATERIAL
  5
1C58
102
{ACAD_XDICTIONARY
360
1C59
102
}
102
{ACAD_REACTORS
330
1792
102
}
330
1792
100
AcDbMaterial
  1
ByLayer
 72
     0
 43
0.0208333333333333
 43
0.0
 43
0.0
 43
0.0
 43
0.0
 43
0.0208333333333333
 43
0.0
 43
0.0
 43
0.0
 43
0.0
 43
1.0
 43
0.0
 43
0.0
 43
0.0
 43
0.0
 43
1.0
 77
     0
 47
0.0208333333333333
 47
0.0
 47
0.0
 47
0.0
 47
0.0
 47
0.0208333333333333
 47
0.0
 47
0.0
 47
0.0
 47
0.0
 47
1.0
 47
0.0
 47
0.0
 47
0.0
 47
0.0
 47
1.0
171
     0
 49
0.0208333333333333
 49
0.0
 49
0.0
 49
0.0
 49
0.0
 49
0.0208333333333333
 49
0.0
 49
0.0
 49
0.0
 49
0.0
 49
1.0
 49
0.0
 49
0.0
 49
0.0
 49
0.0
 49
1.0
175
     0
142
0.0208333333333333
142
0.0
142
0.0
142
0.0
142
0.0
142
0.0208333333333333
142
0.0
142
0.0
142
0.0
142
0.0
142
1.0
142
0.0
142
0.0
142
0.0
142
0.0
142
1.0
179
     0
144
0.0208333333333333
144
0.0
144
0.0
144
0.0
144
0.0
144
0.0208333333333333
144
0.0
144
0.0
144
0.0
144
0.0
144
1.0
144
0.0
144
0.0
144
0.0
144
0.0
144
1.0
147
0.0208333333333333
147
0.0
147
0.0
147
0.0
147
0.0
147
0.0208333333333333
147
0.0
147
0.0
147
0.0
147
0.0
147
1.0
147
0.0
147
0.0
147
0.0
147
0.0
147
1.0
  0
MATERIAL
  5
1C68
102
{ACAD_XDICTIONARY
360
1C69
102
}
102
{ACAD_REACTORS
330
1792
102
}
330
1792
100
AcDbMaterial
  1
Global
 72
     0
 43
0.0208333333333333
 43
0.0
 43
0.0
 43
0.0
 43
0.0
 43
0.0208333333333333
 43
0.0
 43
0.0
 43
0.0
 43
0.0
 43
1.0
 43
0.0
 43
0.0
 43
0.0
 43
0.0
 43
1.0
 77
     0
 47
0.0208333333333333
 47
0.0
 47
0.0
 47
0.0
 47
0.0
 47
0.0208333333333333
 47
0.0
 47
0.0
 47
0.0
 47
0.0
 47
1.0
 47
0.0
 47
0.0
 47
0.0
 47
0.0
 47
1.0
171
     0
 49
0.0208333333333333
 49
0.0
 49
0.0
 49
0.0
 49
0.0
 49
0.0208333333333333
 49
0.0
 49
0.0
 49
0.0
 49
0.0
 49
1.0
 49
0.0
 49
0.0
 49
0.0
 49
0.0
 49
1.0
175
     0
142
0.0208333333333333
142
0.0
142
0.0
142
0.0
142
0.0
142
0.0208333333333333
142
0.0
142
0.0
142
0.0
142
0.0
142
1.0
142
0.0
142
0.0
142
0.0
142
0.0
142
1.0
179
     0
144
0.0208333333333333
144
0.0
144
0.0
144
0.0
144
0.0
144
0.0208333333333333
144
0.0
144
0.0
144
0.0
144
0.0
144
1.0
144
0.0
144
0.0
144
0.0
144
0.0
144
1.0
147
0.0208333333333333
147
0.0
147
0.0
147
0.0
147
0.0
147
0.0208333333333333
147
0.0
147
0.0
147
0.0
147
0.0
147
1.0
147
0.0
147
0.0
147
0.0
147
0.0
147
1.0
  0
MLEADERSTYLE
  5
1C9C
102
{ACAD_REACTORS
330
1C9B
102
}
330
1C9B
100
AcDbMLeaderStyle
170
     2
171
     1
172
     0
 90
        2
 40
0.0
 41
0.0
173
     1
 91
-1056964608
340
13
 92
       -2
290
     1
 42
0.09
291
     1
 43
0.36
  3
Standard
 44
0.18
300

342
11
174
     1
178
     6
175
     1
176
     0
 93
-1056964608
 45
0.18
292
     0
297
     0
 46
0.18
 94
-1056964608
 47
1.0
 49
1.0
140
1.0
293
     1
141
0.0
294
     1
177
     0
142
1.0
295
     0
296
     0
143
0.125
1001
ACAD_MLEADERVER
1070
     2
  0
MLINESTYLE
  5
17
102
{ACAD_REACTORS
330
16
102
}
330
16
100
AcDbMlineStyle
  2
STANDARD
 70
     0
  3

 62
   256
 51
90.0
 52
90.0
 71
     2
 49
0.5
 62
   256
  6
BYLAYER
 49
-0.5
 62
   256
  6
BYLAYER
  0
ACDBPLACEHOLDER
  5
F
102
{ACAD_REACTORS
330
E
102
}
330
E
  0
SCALE
  5
1C8A
102
{ACAD_REACTORS
330
1C89
102
}
330
1C89
100
AcDbScale
 70
     0
300
1:1
140
1.0
141
1.0
290
     1
  0
SCALE
  5
1C8B
102
{ACAD_REACTORS
330
1C89
102
}
330
1C89
100
AcDbScale
 70
     0
300
1/128" = 1'-0"
140
0.0078125
141
12.0
290
     0
  0
SCALE
  5
1C8C
102
{ACAD_REACTORS
330
1C89
102
}
330
1C89
100
AcDbScale
 70
     0
300
1/64" = 1'-0"
140
0.015625
141
12.0
290
     0
  0
SCALE
  5
1C8D
102
{ACAD_REACTORS
330
1C89
102
}
330
1C89
100
AcDbScale
 70
     0
300
1/32" = 1'-0"
140
0.03125
141
12.0
290
     0
  0
SCALE
  5
1C8E
102
{ACAD_REACTORS
330
1C89
102
}
330
1C89
100
AcDbScale
 70
     0
300
1/16" = 1'-0"
140
0.0625
141
12.0
290
     0
  0
SCALE
  5
1C8F
102
{ACAD_REACTORS
330
1C89
102
}
330
1C89
100
AcDbScale
 70
     0
300
3/32" = 1'-0"
140
0.09375
141
12.0
290
     0
  0
SCALE
  5
1C90
102
{ACAD_REACTORS
330
1C89
102
}
330
1C89
100
AcDbScale
 70
     0
300
1/8" = 1'-0"
140
0.125
141
12.0
290
     0
  0
SCALE
  5
1C91
102
{ACAD_REACTORS
330
1C89
102
}
330
1C89
100
AcDbScale
 70
     0
300
3/16" = 1'-0"
140
0.1875
141
12.0
290
     0
  0
SCALE
  5
1C92
102
{ACAD_REACTORS
330
1C89
102
}
330
1C89
100
AcDbScale
 70
     0
300
1/4" = 1'-0"
140
0.25
141
12.0
290
     0
  0
SCALE
  5
1C93
102
{ACAD_REACTORS
330
1C89
102
}
330
1C89
100
AcDbScale
 70
     0
300
3/8" = 1'-0"
140
0.375
141
12.0
290
     0
  0
SCALE
  5
1C94
102
{ACAD_REACTORS
330
1C89
102
}
330
1C89
100
AcDbScale
 70
     0
300
1/2" = 1'-0"
140
0.5
141
12.0
290
     0
  0
SCALE
  5
1C95
102
{ACAD_REACTORS
330
1C89
102
}
330
1C89
100
AcDbScale
 70
     0
300
3/4" = 1'-0"
140
0.75
141
12.0
290
     0
  0
SCALE
  5
1C96
102
{ACAD_REACTORS
330
1C89
102
}
330
1C89
100
AcDbScale
 70
     0
300
1" = 1'-0"
140
1.0
141
12.0
290
     0
  0
SCALE
  5
1C97
102
{ACAD_REACTORS
330
1C89
102
}
330
1C89
100
AcDbScale
 70
     0
300
1-1/2" = 1'-0"
140
1.5
141
12.0
290
     0
  0
SCALE
  5
1C98
102
{ACAD_REACTORS
330
1C89
102
}
330
1C89
100
AcDbScale
 70
     0
300
3" = 1'-0"
140
3.0
141
12.0
290
     0
  0
SCALE
  5
1C99
102
{ACAD_REACTORS
330
1C89
102
}
330
1C89
100
AcDbScale
 70
     0
300
6" = 1'-0"
140
6.0
141
12.0
290
     0
  0
SCALE
  5
1C9A
102
{ACAD_REACTORS
330
1C89
102
}
330
1C89
100
AcDbScale
 70
     0
300
1'-0" = 1'-0"
140
12.0
141
12.0
290
     0
  0
ACDBSECTIONVIEWSTYLE
  5
1C9E
102
{ACAD_XDICTIONARY
360
1F31
102
}
102
{ACAD_REACTORS
330
1C9D
102
}
330
1C9D
100
AcDbModelDocViewStyle
 70
     0
  3
Imperial24
290
     0
100
AcDbSectionViewStyle
 70
     0
 71
     0
 90
       78
 71
     1
340
11
 40
0.24
340
0
340
0
 40
0.24
300
I, O, Q, S, X, Z
 40
0.48
 90
        3
 40
0.18
 90
        1
 71
     2
340
15
 90
       25
340
15
 90
       50
 40
0.24
 40
0.0
 40
0.24
 71
     3
340
11
 40
0.24
 90
        1
 40
0.75
 90
        1
300
%<\AcVar ViewType \f "%tc1">% %<\AcVar ViewSectionStartId>%-%<\AcVar ViewSectionEndId>%\PSCALE %<\AcVar ViewScale \f "%sn">%
 71
     4
300
ANSI31
 40
1.0
 90
        0
290
     0
290
     0
 90
        6
 40
0.0
 40
1.570796326794896
 40
0.2617993877991494
 40
1.308996938995747
 40
-0.2617993877991494
 40
1.832595714594046
  0
ACDBSECTIONVIEWSTYLE
  5
1D10
102
{ACAD_XDICTIONARY
360
1F35
102
}
102
{ACAD_REACTORS
330
1C9D
102
}
330
1C9D
100
AcDbModelDocViewStyle
 70
     0
  3
Metric50
290
     0
100
AcDbSectionViewStyle
 70
     0
 71
     0
 90
      102
 71
     1
340
11
 40
5.0
340
0
340
0
 40
5.0
300
I, O, Q, S, X, Z
 40
10.0
 90
        0
 40
2.5
 90
        0
 71
     2
340
15
 90
       25
340
15
 90
       50
 40
5.0
 40
2.5
 40
5.0
 71
     3
340
11
 40
5.0
 90
        0
 40
15.0
 90
        1
300
%<\AcVar ViewSectionStartId>%-%<\AcVar ViewSectionEndId>% (%<\AcVar ViewScale \f "%sn">%)
 71
     4
300
ANSI31
 40
1.0
 90
        0
290
     0
290
     0
 90
        6
 40
0.0
 40
1.570796326794896
 40
0.2617993877991494
 40
1.308996938995747
 40
-0.2617993877991494
 40
1.832595714594046
  0
TABLESTYLE
  5
17A6
102
{ACAD_XDICTIONARY
360
2152
102
}
102
{ACAD_REACTORS
330
17A5
102
}
330
17A5
100
AcDbTableStyle
  3
Standard
 70
     0
 71
     0
 40
0.06
 41
0.06
280
     0
281
     0
  7
STANDARD
140
0.18
170
     2
 62
     0
 63
     7
283
     0
274
    -2
284
     1
 64
     0
275
    -2
285
     1
 65
     0
276
    -2
286
     1
 66
     0
277
    -2
287
     1
 67
     0
278
    -2
288
     1
 68
     0
279
    -2
289
     1
 69
     0
  7
STANDARD
140
0.25
170
     5
 62
     0
 63
     7
283
     0
274
    -2
284
     1
 64
     0
275
    -2
285
     1
 65
     0
276
    -2
286
     1
 66
     0
277
    -2
287
     1
 67
     0
278
    -2
288
     1
 68
     0
279
    -2
289
     1
 69
     0
  7
STANDARD
140
0.18
170
     5
 62
     0
 63
     7
283
     0
274
    -2
284
     1
 64
     0
275
    -2
285
     1
 65
     0
276
    -2
286
     1
 66
     0
277
    -2
287
     1
 67
     0
278
    -2
288
     1
 68
     0
279
    -2
289
     1
 69
     0
1001
ACAD
1000
AcRTDxfName
1000
TABLESTYLE
  0
VISUALSTYLE
  5
1C76
102
{ACAD_XDICTIONARY
360
216B
102
}
102
{ACAD_REACTORS
330
1C70
102
}
330
1C70
100
AcDbVisualStyle
  2
2dWireframe
 70
     4
 71
     0
 72
     2
 73
     0
 90
        0
 40
-0.6
 41
-30.0
 62
     5
 63
     7
 74
     1
 91
        4
 64
     7
 65
   257
 75
     1
175
     1
 42
1.0
 92
        0
 66
   257
 43
1.0
 76
     1
 77
     6
 78
     2
 67
     7
 79
     5
170
     0
171
     0
290
     0
174
     0
 93
        1
 44
0.0
173
     0
291
     0
 45
0.0
1001
ACAD
1000
AcDbSavedByObjectVersion
1070
     0
  0
VISUALSTYLE
  5
1C75
102
{ACAD_XDICTIONARY
360
2169
102
}
102
{ACAD_REACTORS
330
1C70
102
}
330
1C70
100
AcDbVisualStyle
  2
Basic
 70
     7
 71
     1
 72
     0
 73
     1
 90
        0
 40
-0.6
 41
-30.0
 62
     5
 63
     7
 74
     0
 91
        4
 64
     7
 65
   257
 75
     1
175
     1
 42
1.0
 92
        8
 66
     7
 43
1.0
 76
     1
 77
     6
 78
     2
 67
     7
 79
     5
170
     0
171
     0
290
     0
174
     0
 93
        1
 44
0.0
173
     0
291
     1
 45
0.0
1001
ACAD
1000
AcDbSavedByObjectVersion
1070
     0
  0
VISUALSTYLE
  5
1C7C
102
{ACAD_XDICTIONARY
360
2177
102
}
102
{ACAD_REACTORS
330
1C70
102
}
330
1C70
100
AcDbVisualStyle
  2
Brighten
 70
    12
 71
     2
 72
     2
 73
     0
 90
        0
 40
-0.6
 41
-30.0
 62
     5
 63
     7
 74
     1
 91
        4
 64
     7
 65
   257
 75
     1
175
     1
 42
1.0
 92
        8
 66
     7
 43
1.0
 76
     1
 77
     6
 78
     2
 67
     7
 79
     5
170
     0
171
     0
290
     0
174
     0
 93
        1
 44
50.0
173
     0
291
     1
 45
0.0
1001
ACAD
1000
AcDbSavedByObjectVersion
1070
     0
  0
VISUALSTYLE
  5
1C80
102
{ACAD_XDICTIONARY
360
217F
102
}
102
{ACAD_REACTORS
330
1C70
102
}
330
1C70
100
AcDbVisualStyle
  2
ColorChange
 70
    16
 71
     2
 72
     2
 73
     3
 90
        0
 40
-0.6
 41
-30.0
 62
     5
 63
     8
 74
     1
 91
        4
 64
     7
 65
   257
 75
     1
175
     1
 42
1.0
 92
        8
 66
     8
 43
1.0
 76
     1
 77
     6
 78
     2
 67
     7
 79
     5
170
     0
171
     0
290
     0
174
     0
 93
        1
 44
0.0
173
     0
291
     1
 45
0.0
1001
ACAD
1000
AcDbSavedByObjectVersion
1070
     0
  0
VISUALSTYLE
  5
1C79
102
{ACAD_XDICTIONARY
360
2171
102
}
102
{ACAD_REACTORS
330
1C70
102
}
330
1C70
100
AcDbVisualStyle
  2
Conceptual
 70
     9
 71
     3
 72
     2
 73
     0
 90
        0
 40
-0.6
 41
-30.0
 62
     5
 63
     7
 74
     2
 91
        2
 64
     7
 65
   257
 75
     1
175
     1
 42
179.0
 92
        8
 66
     7
 43
1.0
 76
     1
 77
     6
 78
     2
 67
     7
 79
     3
170
     0
171
     0
290
     0
174
     0
 93
        1
 44
0.0
173
     0
291
     0
 45
0.0
1001
ACAD
1000
AcDbSavedByObjectVersion
1070
     0
  0
VISUALSTYLE
  5
1C7B
102
{ACAD_XDICTIONARY
360
2175
102
}
102
{ACAD_REACTORS
330
1C70
102
}
330
1C70
100
AcDbVisualStyle
  2
Dim
 70
    11
 71
     2
 72
     2
 73
     0
 90
        0
 40
-0.6
 41
-30.0
 62
     5
 63
     7
 74
     1
 91
        4
 64
     7
 65
   257
 75
     1
175
     1
 42
1.0
 92
        8
 66
     7
 43
1.0
 76
     1
 77
     6
 78
     2
 67
     7
 79
     5
170
     0
171
     0
290
     0
174
     0
 93
        1
 44
-50.0
173
     0
291
     1
 45
0.0
1001
ACAD
1000
AcDbSavedByObjectVersion
1070
     0
  0
VISUALSTYLE
  5
1C88
102
{ACAD_XDICTIONARY
360
218F
102
}
102
{ACAD_REACTORS
330
1C70
102
}
330
1C70
100
AcDbVisualStyle
  2
EdgeColorOff
 70
    22
 71
     2
 72
     2
 73
     0
 90
        0
 40
-0.6
 41
-30.0
 62
     5
 63
     7
 74
     1
 91
        4
 64
     7
 65
   257
 75
     1
175
     1
 42
1.0
 92
        8
 66
     7
 43
1.0
 76
     1
 77
     6
 78
     2
 67
     7
 79
     5
170
     0
171
     0
290
     0
174
     0
 93
        1
 44
0.0
173
     0
291
     1
 45
0.0
1001
ACAD
1000
AcDbSavedByObjectVersion
1070
     0
  0
VISUALSTYLE
  5
1C7F
102
{ACAD_XDICTIONARY
360
217D
102
}
102
{ACAD_REACTORS
330
1C70
102
}
330
1C70
100
AcDbVisualStyle
  2
Facepattern
 70
    15
 71
     2
 72
     2
 73
     0
 90
        0
 40
-0.6
 41
-30.0
 62
     5
 63
     7
 74
     1
 91
        4
 64
     7
 65
   257
 75
     1
175
     1
 42
1.0
 92
        8
 66
     7
 43
1.0
 76
     1
 77
     6
 78
     2
 67
     7
 79
     5
170
     0
171
     0
290
     0
174
     0
 93
        1
 44
0.0
173
     0
291
     1
 45
0.0
1001
ACAD
1000
AcDbSavedByObjectVersion
1070
     0
  0
VISUALSTYLE
  5
1C71
102
{ACAD_XDICTIONARY
360
2161
102
}
102
{ACAD_REACTORS
330
1C70
102
}
330
1C70
100
AcDbVisualStyle
  2
Flat
 70
     0
 71
     2
 72
     1
 73
     1
 90
        2
 40
-0.6
 41
30.0
 62
     5
 63
     7
 74
     0
 91
        0
 64
     7
 65
   257
 75
     1
175
     1
 42
1.0
 92
        8
 66
     7
 43
1.0
 76
     1
 77
     6
 78
     2
 67
     7
 79
     5
170
     0
171
     0
290
     0
174
     0
 93
       13
 44
0.0
173
     0
291
     1
 45
0.0
1001
ACAD
1000
AcDbSavedByObjectVersion
1070
     0
  0
VISUALSTYLE
  5
1C72
102
{ACAD_XDICTIONARY
360
2163
102
}
102
{ACAD_REACTORS
330
1C70
102
}
330
1C70
100
AcDbVisualStyle
  2
FlatWithEdges
 70
     1
 71
     2
 72
     1
 73
     1
 90
        2
 40
-0.6
 41
30.0
 62
     5
 63
     7
 74
     1
 91
        0
 64
     7
 65
   257
 75
     1
175
     1
 42
1.0
 92
        0
 66
   257
 43
1.0
 76
     1
 77
     6
 78
     2
 67
     7
 79
     5
170
     0
171
     0
290
     0
174
     0
 93
       13
 44
0.0
173
     0
291
     1
 45
0.0
1001
ACAD
1000
AcDbSavedByObjectVersion
1070
     0
  0
VISUALSTYLE
  5
1C73
102
{ACAD_XDICTIONARY
360
2165
102
}
102
{ACAD_REACTORS
330
1C70
102
}
330
1C70
100
AcDbVisualStyle
  2
Gouraud
 70
     2
 71
     2
 72
     2
 73
     1
 90
        2
 40
-0.6
 41
30.0
 62
     5
 63
     7
 74
     0
 91
        0
 64
     7
 65
   257
 75
     1
175
     1
 42
1.0
 92
        0
 66
     7
 43
1.0
 76
     1
 77
     6
 78
     2
 67
     7
 79
     5
170
     0
171
     0
290
     0
174
     0
 93
       13
 44
0.0
173
     0
291
     1
 45
0.0
1001
ACAD
1000
AcDbSavedByObjectVersion
1070
     0
  0
VISUALSTYLE
  5
1C74
102
{ACAD_XDICTIONARY
360
2167
102
}
102
{ACAD_REACTORS
330
1C70
102
}
330
1C70
100
AcDbVisualStyle
  2
GouraudWithEdges
 70
     3
 71
     2
 72
     2
 73
     1
 90
        2
 40
-0.6
 41
30.0
 62
     5
 63
     7
 74
     1
 91
        0
 64
     7
 65
   257
 75
     1
175
     1
 42
1.0
 92
        0
 66
   257
 43
1.0
 76
     1
 77
     6
 78
     2
 67
     7
 79
     5
170
     0
171
     0
290
     0
174
     0
 93
       13
 44
0.0
173
     0
291
     1
 45
0.0
1001
ACAD
1000
AcDbSavedByObjectVersion
1070
     0
  0
VISUALSTYLE
  5
1C78
102
{ACAD_XDICTIONARY
360
216F
102
}
102
{ACAD_REACTORS
330
1C70
102
}
330
1C70
100
AcDbVisualStyle
  2
Hidden
 70
     6
 71
     1
 72
     2
 73
     2
 90
        0
 40
-0.6
 41
-30.0
 62
     5
 63
     7
 74
     2
 91
        2
 64
     7
 65
   257
 75
     2
175
     1
 42
40.0
 92
        0
 66
   257
 43
1.0
 76
     1
 77
     6
 78
     2
 67
     7
 79
     3
170
     0
171
     0
290
     0
174
     0
 93
        1
 44
0.0
173
     0
291
     0
 45
0.0
1001
ACAD
1000
AcDbSavedByObjectVersion
1070
     0
  0
VISUALSTYLE
  5
1C86
102
{ACAD_XDICTIONARY
360
218B
102
}
102
{ACAD_REACTORS
330
1C70
102
}
330
1C70
100
AcDbVisualStyle
  2
JitterOff
 70
    20
 71
     2
 72
     2
 73
     0
 90
        0
 40
-0.6
 41
-30.0
 62
     5
 63
     7
 74
     1
 91
        4
 64
     7
 65
   257
 75
     1
175
     1
 42
1.0
 92
       10
 66
     7
 43
1.0
 76
     1
 77
     6
 78
     2
 67
     7
 79
     5
170
     0
171
     0
290
     0
174
     0
 93
        1
 44
0.0
173
     0
291
     1
 45
0.0
1001
ACAD
1000
AcDbSavedByObjectVersion
1070
     0
  0
VISUALSTYLE
  5
1C7E
102
{ACAD_XDICTIONARY
360
217B
102
}
102
{ACAD_REACTORS
330
1C70
102
}
330
1C70
100
AcDbVisualStyle
  2
Linepattern
 70
    14
 71
     2
 72
     2
 73
     0
 90
        0
 40
-0.6
 41
-30.0
 62
     5
 63
     7
 74
     1
 91
        4
 64
     7
 65
   257
 75
     7
175
     7
 42
1.0
 92
        8
 66
     7
 43
1.0
 76
     1
 77
     6
 78
     2
 67
     7
 79
     5
170
     0
171
     0
290
     0
174
     0
 93
        1
 44
0.0
173
     0
291
     1
 45
0.0
1001
ACAD
1000
AcDbSavedByObjectVersion
1070
     0
  0
VISUALSTYLE
  5
1C87
102
{ACAD_XDICTIONARY
360
218D
102
}
102
{ACAD_REACTORS
330
1C70
102
}
330
1C70
100
AcDbVisualStyle
  2
OverhangOff
 70
    21
 71
     2
 72
     2
 73
     0
 90
        0
 40
-0.6
 41
-30.0
 62
     5
 63
     7
 74
     1
 91
        4
 64
     7
 65
   257
 75
     1
175
     1
 42
1.0
 92
        9
 66
     7
 43
1.0
 76
     1
 77
     6
 78
     2
 67
     7
 79
     5
170
     0
171
     0
290
     0
174
     0
 93
        1
 44
0.0
173
     0
291
     1
 45
0.0
1001
ACAD
1000
AcDbSavedByObjectVersion
1070
     0
  0
VISUALSTYLE
  5
1C7A
102
{ACAD_XDICTIONARY
360
2173
102
}
102
{ACAD_REACTORS
330
1C70
102
}
330
1C70
100
AcDbVisualStyle
  2
Realistic
 70
     8
 71
     2
 72
     3
 73
     0
 90
        2
 40
-0.6
 41
30.0
 62
     5
 63
     7
 74
     0
 91
        0
 64
     7
 65
   257
 75
     1
175
     1
 42
1.0
 92
        8
 66
   257
 43
1.0
 76
     1
 77
     6
 78
     2
 67
     7
 79
     3
170
     0
171
     0
290
     0
174
     0
 93
       13
 44
0.0
173
     0
291
     0
 45
0.0
1001
ACAD
1000
AcDbSavedByObjectVersion
1070
     0
  0
VISUALSTYLE
  5
1C85
102
{ACAD_XDICTIONARY
360
2189
102
}
102
{ACAD_REACTORS
330
1C70
102
}
330
1C70
100
AcDbVisualStyle
  2
Shaded
 70
    27
 71
     2
 72
     2
 73
     1
 90
        2
 40
-0.6
 41
30.0
 62
     5
 63
     7
 74
     0
 91
        4
 64
     7
 65
   257
 75
     1
175
     1
 42
1.0
 92
        8
 66
   257
 43
1.0
 76
     1
 77
     6
 78
     2
 67
     8
 79
     3
170
     0
171
     0
290
     0
174
     0
 93
        5
 44
0.0
173
     0
291
     0
 45
0.0
1001
ACAD
1000
AcDbSavedByObjectVersion
1070
     0
  0
VISUALSTYLE
  5
1C84
102
{ACAD_XDICTIONARY
360
2187
102
}
102
{ACAD_REACTORS
330
1C70
102
}
330
1C70
100
AcDbVisualStyle
  2
Shaded with edges
 70
    26
 71
     2
 72
     2
 73
     1
 90
        2
 40
-0.6
 41
30.0
 62
     5
 63
     7
 74
     1
 91
       10
 64
     7
 65
   257
 75
     2
175
     1
 42
1.0
 92
        8
 66
   257
 43
1.0
 76
     1
 77
     6
 78
     2
 67
     7
 79
     3
170
     0
171
     0
290
     0
174
     0
 93
        5
 44
0.0
173
     0
291
     0
 45
0.0
1001
ACAD
1000
AcDbSavedByObjectVersion
1070
     0
  0
VISUALSTYLE
  5
1C81
102
{ACAD_XDICTIONARY
360
2181
102
}
102
{ACAD_REACTORS
330
1C70
102
}
330
1C70
100
AcDbVisualStyle
  2
Shades of Gray
 70
    23
 71
     2
 72
     2
 73
     3
 90
        0
 40
-0.6
 41
-30.0
 62
     5
 63
     7
 74
     2
 91
        2
 64
     7
 65
     7
 75
     1
175
     1
 42
40.0
 92
        8
 66
     7
 43
1.0
 76
     1
 77
     6
 78
     2
 67
     7
 79
     3
170
     0
171
     0
290
     0
174
     0
 93
        1
 44
0.0
173
     0
291
     0
 45
0.0
1001
ACAD
1000
AcDbSavedByObjectVersion
1070
     0
  0
VISUALSTYLE
  5
1C82
102
{ACAD_XDICTIONARY
360
2183
102
}
102
{ACAD_REACTORS
330
1C70
102
}
330
1C70
100
AcDbVisualStyle
  2
Sketchy
 70
    24
 71
     1
 72
     2
 73
     2
 90
        0
 40
-0.6
 41
-30.0
 62
     5
 63
     7
 74
     2
 91
        2
 64
     7
 65
     7
 75
     1
175
     1
 42
40.0
 92
       11
 66
     7
 43
1.0
 76
     1
 77
     6
 78
     2
 67
     7
 79
     6
170
     0
171
     0
290
     0
174
     0
 93
        1
 44
0.0
173
     0
291
     0
 45
0.0
1001
ACAD
1000
AcDbSavedByObjectVersion
1070
     0
  0
VISUALSTYLE
  5
1C7D
102
{ACAD_XDICTIONARY
360
2179
102
}
102
{ACAD_REACTORS
330
1C70
102
}
330
1C70
100
AcDbVisualStyle
  2
Thicken
 70
    13
 71
     2
 72
     2
 73
     0
 90
        0
 40
-0.6
 41
-30.0
 62
     5
 63
     7
 74
     1
 91
        4
 64
     7
 65
   257
 75
     1
175
     1
 42
1.0
 92
       12
 66
     7
 43
1.0
 76
     1
 77
     6
 78
     2
 67
     7
 79
     5
170
     0
171
     0
290
     0
174
     0
 93
        1
 44
0.0
173
     0
291
     1
 45
0.0
1001
ACAD
1000
AcDbSavedByObjectVersion
1070
     0
  0
VISUALSTYLE
  5
1C77
102
{ACAD_XDICTIONARY
360
216D
102
}
102
{ACAD_REACTORS
330
1C70
102
}
330
1C70
100
AcDbVisualStyle
  2
Wireframe
 70
     5
 71
     0
 72
     2
 73
     0
 90
        0
 40
-0.6
 41
-30.0
 62
     5
 63
     7
 74
     1
 91
        4
 64
     7
 65
   257
 75
     1
175
     1
 42
1.0
 92
        0
 66
   257
 43
1.0
 76
     1
 77
     6
 78
     2
 67
     7
 79
     3
170
     0
171
     0
290
     0
174
     0
 93
        1
 44
0.0
173
     0
291
     0
 45
0.0
1001
ACAD
1000
AcDbSavedByObjectVersion
1070
     0
  0
VISUALSTYLE
  5
1C83
102
{ACAD_XDICTIONARY
360
2185
102
}
102
{ACAD_REACTORS
330
1C70
102
}
330
1C70
100
AcDbVisualStyle
  2
X-Ray
 70
    25
 71
     2
 72
     2
 73
     1
 90
        1
 40
0.5
 41
-30.0
 62
     5
 63
     7
 74
     1
 91
        0
 64
     7
 65
   257
 75
     1
175
     1
 42
1.0
 92
        8
 66
     7
 43
1.0
 76
     1
 77
     6
 78
     2
 67
     7
 79
     3
170
     0
171
     0
290
     0
174
     0
 93
       13
 44
0.0
173
     0
291
     0
 45
0.0
1001
ACAD
1000
AcDbSavedByObjectVersion
1070
     0
  0
DICTIONARYVAR
  5
1F3E
102
{ACAD_REACTORS
330
17B5
102
}
330
17B5
100
DictionaryVariables
280
     0
  1
1:1
  0
DICTIONARYVAR
  5
1F3A
102
{ACAD_REACTORS
330
17B5
102
}
330
17B5
100
DictionaryVariables
280
     0
  1
STANDARD
  0
DICTIONARYVAR
  5
17B6
102
{ACAD_REACTORS
330
17B5
102
}
330
17B5
100
DictionaryVariables
280
     0
  1
STANDARD
  0
DICTIONARYVAR
  5
1F3B
102
{ACAD_REACTORS
330
17B5
102
}
330
17B5
100
DictionaryVariables
280
     0
  1
Imperial24
  0
DICTIONARYVAR
  5
1F3C
102
{ACAD_REACTORS
330
17B5
102
}
330
17B5
100
DictionaryVariables
280
     0
  1
Imperial24
  0
DICTIONARYVAR
  5
1C49
102
{ACAD_REACTORS
330
17B5
102
}
330
17B5
100
DictionaryVariables
280
     0
  1
1
  0
DICTIONARYVAR
  5
2150
102
{ACAD_REACTORS
330
17B5
102
}
330
17B5
100
DictionaryVariables
280
     0
  1
0
  0
DICTIONARYVAR
  5
1F40
102
{ACAD_REACTORS
330
17B5
102
}
330
17B5
100
DictionaryVariables
280
     0
  1
1
  0
DICTIONARYVAR
  5
1F41
102
{ACAD_REACTORS
330
17B5
102
}
330
17B5
100
DictionaryVariables
280
     0
  1
15
  0
DICTIONARYVAR
  5
1F3F
102
{ACAD_REACTORS
330
17B5
102
}
330
17B5
100
DictionaryVariables
280
     0
  1
0
  0
DICTIONARYVAR
  5
1F3D
102
{ACAD_REACTORS
330
17B5
102
}
330
17B5
100
DictionaryVariables
280
     0
  1
0
  0
DICTIONARYVAR
  5
1C4A
102
{ACAD_REACTORS
330
17B5
102
}
330
17B5
100
DictionaryVariables
280
     0
  1

  0
DICTIONARYVAR
  5
214F
102
{ACAD_REACTORS
330
17B5
102
}
330
17B5
100
DictionaryVariables
280
     0
  1
127
  0
DICTIONARYVAR
  5
2151
102
{ACAD_REACTORS
330
17B5
102
}
330
17B5
100
DictionaryVariables
280
     0
  1
2
  0
DICTIONARY
  5
1F33
330
1CA0
100
AcDbDictionary
280
     1
281
     1
  3
ACAD_XREC_ROUNDTRIP
360
2193
  0
DICTIONARY
  5
1F37
330
1D11
100
AcDbDictionary
280
     1
281
     1
  3
ACAD_XREC_ROUNDTRIP
360
2195
  0
DICTIONARY
  5
215A
330
21
100
AcDbDictionary
280
     1
281
     1
  3
ACAD_XREC_ROUNDTRIP
360
215B
  0
DICTIONARY
  5
2158
330
1D
100
AcDbDictionary
280
     1
281
     1
  3
ACAD_XREC_ROUNDTRIP
360
2159
  0
DICTIONARY
  5
1C61
330
1C60
100
AcDbDictionary
280
     1
281
     1
  3
ACAD_XREC_ROUNDTRIP
360
215F
  3
BUMPTILE
360
1C63
  3
DIFFUSETILE
360
1C62
  3
OPACITYTILE
360
1C66
  3
REFLECTIONTILE
360
1C65
  3
REFRACTIONTILE
360
1C67
  3
SPECULARTILE
360
1C64
  0
DICTIONARY
  5
1C59
330
1C58
100
AcDbDictionary
280
     1
281
     1
  3
ACAD_XREC_ROUNDTRIP
360
215E
  3
BUMPTILE
360
1C5B
  3
DIFFUSETILE
360
1C5A
  3
OPACITYTILE
360
1C5E
  3
REFLECTIONTILE
360
1C5D
  3
REFRACTIONTILE
360
1C5F
  3
SPECULARTILE
360
1C5C
  0
DICTIONARY
  5
1C69
330
1C68
100
AcDbDictionary
280
     1
281
     1
  3
ACAD_XREC_ROUNDTRIP
360
2160
  3
BUMPTILE
360
1C6B
  3
DIFFUSETILE
360
1C6A
  3
OPACITYTILE
360
1C6E
  3
REFLECTIONTILE
360
1C6D
  3
REFRACTIONTILE
360
1C6F
  3
SPECULARTILE
360
1C6C
  0
DICTIONARY
  5
1F31
330
1C9E
100
AcDbDictionary
280
     1
281
     1
  3
ACAD_XREC_ROUNDTRIP
360
2192
  0
DICTIONARY
  5
1F35
330
1D10
100
AcDbDictionary
280
     1
281
     1
  3
ACAD_XREC_ROUNDTRIP
360
2194
  0
DICTIONARY
  5
2152
330
17A6
100
AcDbDictionary
280
     1
281
     1
  3
ACAD_ROUNDTRIP_2008_TABLESTYLE_CELLSTYLEMAP
360
2153
  3
ACAD_XREC_ROUNDTRIP
360
215D
  0
DICTIONARY
  5
216B
330
1C76
100
AcDbDictionary
280
     1
281
     1
  3
ACAD_XREC_ROUNDTRIP
360
216C
  0
DICTIONARY
  5
2169
330
1C75
100
AcDbDictionary
280
     1
281
     1
  3
ACAD_XREC_ROUNDTRIP
360
216A
  0
DICTIONARY
  5
2177
330
1C7C
100
AcDbDictionary
280
     1
281
     1
  3
ACAD_XREC_ROUNDTRIP
360
2178
  0
DICTIONARY
  5
217F
330
1C80
100
AcDbDictionary
280
     1
281
     1
  3
ACAD_XREC_ROUNDTRIP
360
2180
  0
DICTIONARY
  5
2171
330
1C79
100
AcDbDictionary
280
     1
281
     1
  3
ACAD_XREC_ROUNDTRIP
360
2172
  0
DICTIONARY
  5
2175
330
1C7B
100
AcDbDictionary
280
     1
281
     1
  3
ACAD_XREC_ROUNDTRIP
360
2176
  0
DICTIONARY
  5
218F
330
1C88
100
AcDbDictionary
280
     1
281
     1
  3
ACAD_XREC_ROUNDTRIP
360
2190
  0
DICTIONARY
  5
217D
330
1C7F
100
AcDbDictionary
280
     1
281
     1
  3
ACAD_XREC_ROUNDTRIP
360
217E
  0
DICTIONARY
  5
2161
330
1C71
100
AcDbDictionary
280
     1
281
     1
  3
ACAD_XREC_ROUNDTRIP
360
2162
  0
DICTIONARY
  5
2163
330
1C72
100
AcDbDictionary
280
     1
281
     1
  3
ACAD_XREC_ROUNDTRIP
360
2164
  0
DICTIONARY
  5
2165
330
1C73
100
AcDbDictionary
280
     1
281
     1
  3
ACAD_XREC_ROUNDTRIP
360
2166
  0
DICTIONARY
  5
2167
330
1C74
100
AcDbDictionary
280
     1
281
     1
  3
ACAD_XREC_ROUNDTRIP
360
2168
  0
DICTIONARY
  5
216F
330
1C78
100
AcDbDictionary
280
     1
281
     1
  3
ACAD_XREC_ROUNDTRIP
360
2170
  0
DICTIONARY
  5
218B
330
1C86
100
AcDbDictionary
280
     1
281
     1
  3
ACAD_XREC_ROUNDTRIP
360
218C
  0
DICTIONARY
  5
217B
330
1C7E
100
AcDbDictionary
280
     1
281
     1
  3
ACAD_XREC_ROUNDTRIP
360
217C
  0
DICTIONARY
  5
218D
330
1C87
100
AcDbDictionary
280
     1
281
     1
  3
ACAD_XREC_ROUNDTRIP
360
218E
  0
DICTIONARY
  5
2173
330
1C7A
100
AcDbDictionary
280
     1
281
     1
  3
ACAD_XREC_ROUNDTRIP
360
2174
  0
DICTIONARY
  5
2189
330
1C85
100
AcDbDictionary
280
     1
281
     1
  3
ACAD_XREC_ROUNDTRIP
360
218A
  0
DICTIONARY
  5
2187
330
1C84
100
AcDbDictionary
280
     1
281
     1
  3
ACAD_XREC_ROUNDTRIP
360
2188
  0
DICTIONARY
  5
2181
330
1C81
100
AcDbDictionary
280
     1
281
     1
  3
ACAD_XREC_ROUNDTRIP
360
2182
  0
DICTIONARY
  5
2183
330
1C82
100
AcDbDictionary
280
     1
281
     1
  3
ACAD_XREC_ROUNDTRIP
360
2184
  0
DICTIONARY
  5
2179
330
1C7D
100
AcDbDictionary
280
     1
281
     1
  3
ACAD_XREC_ROUNDTRIP
360
217A
  0
DICTIONARY
  5
216D
330
1C77
100
AcDbDictionary
280
     1
281
     1
  3
ACAD_XREC_ROUNDTRIP
360
216E
  0
DICTIONARY
  5
2185
330
1C83
100
AcDbDictionary
280
     1
281
     1
  3
ACAD_XREC_ROUNDTRIP
360
2186
  0
XRECORD
  5
2193
102
{ACAD_REACTORS
330
1F33
102
}
330
1F33
100
AcDbXrecord
280
     1
102
DISPLAYNAME
  1
Imperial24
102
FLAGS
 90
        0
  0
XRECORD
  5
2195
102
{ACAD_REACTORS
330
1F37
102
}
330
1F37
100
AcDbXrecord
280
     1
102
DISPLAYNAME
  1
Metric50
102
FLAGS
 90
        0
  0
XRECORD
  5
215B
102
{ACAD_REACTORS
330
215A
102
}
330
215A
100
AcDbXrecord
280
     1
102
SHADEPLOT
 70
     0
102
SHADEPLOTRESLEVEL
 70
     2
102
SHADEPLOTCUSTOMDPI
 70
   300
  0
XRECORD
  5
2159
102
{ACAD_REACTORS
330
2158
102
}
330
2158
100
AcDbXrecord
280
     1
102
SHADEPLOT
 70
     0
102
SHADEPLOTRESLEVEL
 70
     2
102
SHADEPLOTCUSTOMDPI
 70
   300
  0
XRECORD
  5
215F
102
{ACAD_REACTORS
330
1C61
102
}
330
1C61
100
AcDbXrecord
280
     1
102
MATERIAL
148
0.0
149
0.0
149
0.0
 93
        0
 94
      127
282
     0
 72
     0
 77
     0
171
     0
175
     0
179
     0
273
     0
  0
XRECORD
  5
1C63
102
{ACAD_REACTORS
330
1C61
102
}
330
1C61
100
AcDbXrecord
280
     1
270
     1
271
     1
  0
XRECORD
  5
1C62
102
{ACAD_REACTORS
330
1C61
102
}
330
1C61
100
AcDbXrecord
280
     1
270
     1
271
     1
  0
XRECORD
  5
1C66
102
{ACAD_REACTORS
330
1C61
102
}
330
1C61
100
AcDbXrecord
280
     1
270
     1
271
     1
  0
XRECORD
  5
1C65
102
{ACAD_REACTORS
330
1C61
102
}
330
1C61
100
AcDbXrecord
280
     1
270
     1
271
     1
  0
XRECORD
  5
1C67
102
{ACAD_REACTORS
330
1C61
102
}
330
1C61
100
AcDbXrecord
280
     1
270
     1
271
     1
  0
XRECORD
  5
1C64
102
{ACAD_REACTORS
330
1C61
102
}
330
1C61
100
AcDbXrecord
280
     1
270
     1
271
     1
  0
XRECORD
  5
215E
102
{ACAD_REACTORS
330
1C59
102
}
330
1C59
100
AcDbXrecord
280
     1
102
MATERIAL
148
0.0
149
0.0
149
0.0
 93
        0
 94
      127
282
     0
 72
     0
 77
     0
171
     0
175
     0
179
     0
273
     0
  0
XRECORD
  5
1C5B
102
{ACAD_REACTORS
330
1C59
102
}
330
1C59
100
AcDbXrecord
280
     1
270
     1
271
     1
  0
XRECORD
  5
1C5A
102
{ACAD_REACTORS
330
1C59
102
}
330
1C59
100
AcDbXrecord
280
     1
270
     1
271
     1
  0
XRECORD
  5
1C5E
102
{ACAD_REACTORS
330
1C59
102
}
330
1C59
100
AcDbXrecord
280
     1
270
     1
271
     1
  0
XRECORD
  5
1C5D
102
{ACAD_REACTORS
330
1C59
102
}
330
1C59
100
AcDbXrecord
280
     1
270
     1
271
     1
  0
XRECORD
  5
1C5F
102
{ACAD_REACTORS
330
1C59
102
}
330
1C59
100
AcDbXrecord
280
     1
270
     1
271
     1
  0
XRECORD
  5
1C5C
102
{ACAD_REACTORS
330
1C59
102
}
330
1C59
100
AcDbXrecord
280
     1
270
     1
271
     1
  0
XRECORD
  5
2160
102
{ACAD_REACTORS
330
1C69
102
}
330
1C69
100
AcDbXrecord
280
     1
102
MATERIAL
148
0.0
149
0.0
149
0.0
 93
        0
 94
      127
282
     0
 72
     0
 77
     0
171
     0
175
     0
179
     0
273
     0
  0
XRECORD
  5
1C6B
102
{ACAD_REACTORS
330
1C69
102
}
330
1C69
100
AcDbXrecord
280
     1
270
     1
271
     1
  0
XRECORD
  5
1C6A
102
{ACAD_REACTORS
330
1C69
102
}
330
1C69
100
AcDbXrecord
280
     1
270
     1
271
     1
  0
XRECORD
  5
1C6E
102
{ACAD_REACTORS
330
1C69
102
}
330
1C69
100
AcDbXrecord
280
     1
270
     1
271
     1
  0
XRECORD
  5
1C6D
102
{ACAD_REACTORS
330
1C69
102
}
330
1C69
100
AcDbXrecord
280
     1
270
     1
271
     1
  0
XRECORD
  5
1C6F
102
{ACAD_REACTORS
330
1C69
102
}
330
1C69
100
AcDbXrecord
280
     1
270
     1
271
     1
  0
XRECORD
  5
1C6C
102
{ACAD_REACTORS
330
1C69
102
}
330
1C69
100
AcDbXrecord
280
     1
270
     1
271
     1
  0
XRECORD
  5
2192
102
{ACAD_REACTORS
330
1F31
102
}
330
1F31
100
AcDbXrecord
280
     1
102
DISPLAYNAME
  1
Imperial24
102
FLAGS
 90
        0
  0
XRECORD
  5
2194
102
{ACAD_REACTORS
330
1F35
102
}
330
1F35
100
AcDbXrecord
280
     1
102
DISPLAYNAME
  1
Metric50
102
FLAGS
 90
        0
  0
CELLSTYLEMAP
  5
2153
102
{ACAD_REACTORS
330
2152
102
}
330
2152
100
AcDbCellStyleMap
 90
        3
300
CELLSTYLE
  1
TABLEFORMAT_BEGIN
 90
        5
170
     1
 91
        0
 92
    32768
 62
   257
 93
        1
300
CONTENTFORMAT
  1
CONTENTFORMAT_BEGIN
 90
        0
 91
        0
 92
        4
 93
        0
300

 40
0.0
140
1.0
 94
        5
 62
     0
340
11
144
0.25
309
CONTENTFORMAT_END
171
     0
 94
        6
 95
        1
302
GRIDFORMAT
  1
GRIDFORMAT_BEGIN
 90
        0
 91
        1
 62
     0
 92
       -2
340
0
 93
        0
 40
0.045
309
GRIDFORMAT_END
 95
        2
302
GRIDFORMAT
  1
GRIDFORMAT_BEGIN
 90
        0
 91
        1
 62
     0
 92
       -2
340
0
 93
        0
 40
0.045
309
GRIDFORMAT_END
 95
        4
302
GRIDFORMAT
  1
GRIDFORMAT_BEGIN
 90
        0
 91
        1
 62
     0
 92
       -2
340
0
 93
        0
 40
0.045
309
GRIDFORMAT_END
 95
        8
302
GRIDFORMAT
  1
GRIDFORMAT_BEGIN
 90
        0
 91
        1
 62
     0
 92
       -2
340
0
 93
        0
 40
0.045
309
GRIDFORMAT_END
 95
       16
302
GRIDFORMAT
  1
GRIDFORMAT_BEGIN
 90
        0
 91
        1
 62
     0
 92
       -2
340
0
 93
        0
 40
0.045
309
GRIDFORMAT_END
 95
       32
302
GRIDFORMAT
  1
GRIDFORMAT_BEGIN
 90
        0
 91
        1
 62
     0
 92
       -2
340
0
 93
        0
 40
0.045
309
GRIDFORMAT_END
309
TABLEFORMAT_END
  1
CELLSTYLE_BEGIN
 90
        1
 91
        1
300
_TITLE
309
CELLSTYLE_END
300
CELLSTYLE
  1
TABLEFORMAT_BEGIN
 90
        5
170
     1
 91
        0
 92
        0
 62
   257
 93
        1
300
CONTENTFORMAT
  1
CONTENTFORMAT_BEGIN
 90
        0
 91
        0
 92
        4
 93
        0
300

 40
0.0
140
1.0
 94
        5
 62
     0
340
11
144
0.18
309
CONTENTFORMAT_END
171
     0
 94
        6
 95
        1
302
GRIDFORMAT
  1
GRIDFORMAT_BEGIN
 90
        0
 91
        1
 62
     0
 92
       -2
340
0
 93
        0
 40
0.045
309
GRIDFORMAT_END
 95
        2
302
GRIDFORMAT
  1
GRIDFORMAT_BEGIN
 90
        0
 91
        1
 62
     0
 92
       -2
340
0
 93
        0
 40
0.045
309
GRIDFORMAT_END
 95
        4
302
GRIDFORMAT
  1
GRIDFORMAT_BEGIN
 90
        0
 91
        1
 62
     0
 92
       -2
340
0
 93
        0
 40
0.045
309
GRIDFORMAT_END
 95
        8
302
GRIDFORMAT
  1
GRIDFORMAT_BEGIN
 90
        0
 91
        1
 62
     0
 92
       -2
340
0
 93
        0
 40
0.045
309
GRIDFORMAT_END
 95
       16
302
GRIDFORMAT
  1
GRIDFORMAT_BEGIN
 90
        0
 91
        1
 62
     0
 92
       -2
340
0
 93
        0
 40
0.045
309
GRIDFORMAT_END
 95
       32
302
GRIDFORMAT
  1
GRIDFORMAT_BEGIN
 90
        0
 91
        1
 62
     0
 92
       -2
340
0
 93
        0
 40
0.045
309
GRIDFORMAT_END
309
TABLEFORMAT_END
  1
CELLSTYLE_BEGIN
 90
        2
 91
        1
300
_HEADER
309
CELLSTYLE_END
300
CELLSTYLE
  1
TABLEFORMAT_BEGIN
 90
        5
170
     1
 91
        0
 92
        0
 62
   257
 93
        1
300
CONTENTFORMAT
  1
CONTENTFORMAT_BEGIN
 90
        0
 91
        0
 92
        4
 93
        0
300

 40
0.0
140
1.0
 94
        2
 62
     0
340
11
144
0.18
309
CONTENTFORMAT_END
171
     0
 94
        6
 95
        1
302
GRIDFORMAT
  1
GRIDFORMAT_BEGIN
 90
        0
 91
        1
 62
     0
 92
       -2
340
0
 93
        0
 40
0.045
309
GRIDFORMAT_END
 95
        2
302
GRIDFORMAT
  1
GRIDFORMAT_BEGIN
 90
        0
 91
        1
 62
     0
 92
       -2
340
0
 93
        0
 40
0.045
309
GRIDFORMAT_END
 95
        4
302
GRIDFORMAT
  1
GRIDFORMAT_BEGIN
 90
        0
 91
        1
 62
     0
 92
       -2
340
0
 93
        0
 40
0.045
309
GRIDFORMAT_END
 95
        8
302
GRIDFORMAT
  1
GRIDFORMAT_BEGIN
 90
        0
 91
        1
 62
     0
 92
       -2
340
0
 93
        0
 40
0.045
309
GRIDFORMAT_END
 95
       16
302
GRIDFORMAT
  1
GRIDFORMAT_BEGIN
 90
        0
 91
        1
 62
     0
 92
       -2
340
0
 93
        0
 40
0.045
309
GRIDFORMAT_END
 95
       32
302
GRIDFORMAT
  1
GRIDFORMAT_BEGIN
 90
        0
 91
        1
 62
     0
 92
       -2
340
0
 93
        0
 40
0.045
309
GRIDFORMAT_END
309
TABLEFORMAT_END
  1
CELLSTYLE_BEGIN
 90
        3
 91
        2
300
_DATA
309
CELLSTYLE_END
  0
XRECORD
  5
215D
102
{ACAD_REACTORS
330
2152
102
}
330
2152
100
AcDbXrecord
280
     1
102
ACAD_ROUNDTRIP_PRE2007_TABLESTYLE
 90
        4
 91
        0
  1

 92
        4
 93
        0
  2

 94
        4
 95
        0
  3

  0
XRECORD
  5
216C
102
{ACAD_REACTORS
330
216B
102
}
330
216B
100
AcDbXrecord
280
     1
102
RTVSPost2010Prop28
280
     1
102
RTVSPost2010PropOp28
 70
     1
102
RTVSPost2010Prop29
280
     1
102
RTVSPost2010PropOp29
 70
     1
102
RTVSPost2010Prop30
280
     0
102
RTVSPost2010PropOp30
 70
     1
102
RTVSPost2010Prop31
280
     0
102
RTVSPost2010PropOp31
 70
     1
102
RTVSPost2010Prop32
280
     0
102
RTVSPost2010PropOp32
 70
     1
102
RTVSPost2010Prop33
280
     0
102
RTVSPost2010PropOp33
 70
     1
102
RTVSPost2010Prop34
280
     0
102
RTVSPost2010PropOp34
 70
     1
102
RTVSPost2010Prop35
280
     0
102
RTVSPost2010PropOp35
 70
     1
102
RTVSPost2010Prop36
280
     0
102
RTVSPost2010PropOp36
 70
     1
102
RTVSPost2010Prop37
 90
       50
102
RTVSPost2010PropOp37
 70
     1
102
RTVSPost2010Prop38
140
0.0
102
RTVSPost2010PropOp38
 70
     1
102
RTVSPost2010Prop39
140
1.0
102
RTVSPost2010PropOp39
 70
     1
102
RTVSPost2010Prop40
 90
        0
102
RTVSPost2010PropOp40
 70
     1
102
RTVSPost2010Prop41ColorIndex
 90
       18
102
RTVSPost2010Prop41ColorRGB
 90
        0
102
RTVSPost2010PropOp41
 70
     1
102
RTVSPost2010Prop42
 90
       50
102
RTVSPost2010PropOp42
 70
     1
102
RTVSPost2010Prop43
 90
        3
102
RTVSPost2010PropOp43
 70
     1
102
RTVSPost2010Prop44ColorIndex
 90
        5
102
RTVSPost2010Prop44ColorRGB
 90
      255
102
RTVSPost2010PropOp44
 70
     1
102
RTVSPost2010Prop45
280
     0
102
RTVSPost2010PropOp45
 70
     1
102
RTVSPost2010Prop46
 90
       50
102
RTVSPost2010PropOp46
 70
     1
102
RTVSPost2010Prop47
 90
       50
102
RTVSPost2010PropOp47
 70
     1
102
RTVSPost2010Prop48
 90
       50
102
RTVSPost2010PropOp48
 70
     1
102
RTVSPost2010Prop49
280
     0
102
RTVSPost2010PropOp49
 70
     1
102
RTVSPost2010Prop50
 90
       50
102
RTVSPost2010PropOp50
 70
     1
102
RTVSPost2010Prop51ColorIndex
 90
      256
102
RTVSPost2010Prop51ColorRGB
 90
-16777216
102
RTVSPost2010PropOp51
 70
     0
102
RTVSPost2010Prop52
140
1.0
102
RTVSPost2010PropOp52
 70
     0
102
RTVSPost2010Prop53
 90
        2
102
RTVSPost2010PropOp53
 70
     1
102
RTVSPost2010Prop54
  1
strokes_ogs.tif
102
RTVSPost2010PropOp54
 70
     1
102
RTVSPost2010Prop55
280
     0
102
RTVSPost2010PropOp55
 70
     1
102
RTVSPost2010Prop56
140
1.0
102
RTVSPost2010PropOp56
 70
     1
102
RTVSPost2010Prop57
140
1.0
102
RTVSPost2010PropOp57
 70
     1
102
RTVSPropertyOp0
 70
     1
102
RTVSPropertyOp1
 70
     1
102
RTVSPropertyOp2
 70
     1
102
RTVSPropertyOp3
 70
     1
102
RTVSPropertyOp4
 70
     1
102
RTVSPropertyOp5
 70
     1
102
RTVSPropertyOp6
 70
     1
102
RTVSPropertyOp7
 70
     1
102
RTVSPropertyOp8
 70
     1
102
RTVSPropertyOp9
 70
     1
102
RTVSPropertyOp10
 70
     1
102
RTVSPropertyOp11
 70
     1
102
RTVSPropertyOp12
 70
     1
102
RTVSPropertyOp13
 70
     1
102
RTVSPropertyOp14
 70
     1
102
RTVSPropertyOp15
 70
     1
102
RTVSPropertyOp16
 70
     1
102
RTVSPropertyOp17
 70
     1
102
RTVSPropertyOp18
 70
     1
102
RTVSPropertyOp19
 70
     1
102
RTVSPropertyOp20
 70
     1
102
RTVSPropertyOp21
 70
     1
102
RTVSPropertyOp22
 70
     1
102
RTVSPropertyOp23
 70
     1
102
RTVSPropertyOp24
 70
     1
102
RTVSPropertyOp25
 70
     1
102
RTVSPropertyOp26
 70
     1
102
RTVSPropertyOp27
 70
     1
102
RTVSPropertyOp28
 70
     1
102
RTVSPropertyOp29
 70
     1
102
RTVSPropertyOp30
 70
     1
102
RTVSPropertyOp31
 70
     1
102
RTVSPropertyOp32
 70
     1
102
RTVSPropertyOp33
 70
     1
102
RTVSPropertyOp34
 70
     1
102
RTVSPropertyOp35
 70
     1
102
RTVSPropertyOp36
 70
     1
102
RTVSPropertyOp37
 70
     1
102
RTVSPropertyOp38
 70
     1
102
RTVSPropertyOp39
 70
     1
102
RTVSPropertyOp40
 70
     1
102
RTVSPropertyOp41
 70
     1
102
RTVSPropertyOp42
 70
     1
102
RTVSPropertyOp43
 70
     1
102
RTVSPropertyOp44
 70
     1
102
RTVSPropertyOp45
 70
     1
102
RTVSPropertyOp46
 70
     1
102
RTVSPropertyOp47
 70
     1
102
RTVSPropertyOp48
 70
     1
102
RTVSPropertyOp49
 70
     1
102
RTVSPropertyOp50
 70
     1
102
RTVSPropertyOp51
 70
     0
102
RTVSPropertyOp52
 70
     0
102
RTVSPropertyOp53
 70
     1
102
RTVSPropertyOp54
 70
     1
102
RTVSPropertyOp55
 70
     1
102
RTVSPropertyOp56
 70
     1
102
RTVSPropertyOp57
 70
     1
102
RTVSPropertyOp58
 70
     1
102
RTVSPropertyOp59
 70
     1
102
RTVSPropertyOp60
 70
     1
102
RTVSPropertyOp61
 70
     1
102
RTVSPropertyOp62
 70
     1
  0
XRECORD
  5
216A
102
{ACAD_REACTORS
330
2169
102
}
330
2169
100
AcDbXrecord
280
     1
102
RTVSPost2010Prop28
280
     0
102
RTVSPost2010PropOp28
 70
     1
102
RTVSPost2010Prop29
280
     1
102
RTVSPost2010PropOp29
 70
     1
102
RTVSPost2010Prop30
280
     1
102
RTVSPost2010PropOp30
 70
     1
102
RTVSPost2010Prop31
280
     0
102
RTVSPost2010PropOp31
 70
     1
102
RTVSPost2010Prop32
280
     0
102
RTVSPost2010PropOp32
 70
     1
102
RTVSPost2010Prop33
280
     0
102
RTVSPost2010PropOp33
 70
     1
102
RTVSPost2010Prop34
280
     0
102
RTVSPost2010PropOp34
 70
     1
102
RTVSPost2010Prop35
280
     0
102
RTVSPost2010PropOp35
 70
     1
102
RTVSPost2010Prop36
280
     0
102
RTVSPost2010PropOp36
 70
     1
102
RTVSPost2010Prop37
 90
       50
102
RTVSPost2010PropOp37
 70
     1
102
RTVSPost2010Prop38
140
0.0
102
RTVSPost2010PropOp38
 70
     1
102
RTVSPost2010Prop39
140
1.0
102
RTVSPost2010PropOp39
 70
     1
102
RTVSPost2010Prop40
 90
        0
102
RTVSPost2010PropOp40
 70
     1
102
RTVSPost2010Prop41ColorIndex
 90
       18
102
RTVSPost2010Prop41ColorRGB
 90
        0
102
RTVSPost2010PropOp41
 70
     1
102
RTVSPost2010Prop42
 90
       50
102
RTVSPost2010PropOp42
 70
     1
102
RTVSPost2010Prop43
 90
        3
102
RTVSPost2010PropOp43
 70
     1
102
RTVSPost2010Prop44ColorIndex
 90
        5
102
RTVSPost2010Prop44ColorRGB
 90
      255
102
RTVSPost2010PropOp44
 70
     1
102
RTVSPost2010Prop45
280
     0
102
RTVSPost2010PropOp45
 70
     1
102
RTVSPost2010Prop46
 90
       50
102
RTVSPost2010PropOp46
 70
     1
102
RTVSPost2010Prop47
 90
       50
102
RTVSPost2010PropOp47
 70
     1
102
RTVSPost2010Prop48
 90
       50
102
RTVSPost2010PropOp48
 70
     1
102
RTVSPost2010Prop49
280
     0
102
RTVSPost2010PropOp49
 70
     1
102
RTVSPost2010Prop50
 90
       50
102
RTVSPost2010PropOp50
 70
     1
102
RTVSPost2010Prop51ColorIndex
 90
      256
102
RTVSPost2010Prop51ColorRGB
 90
-16777216
102
RTVSPost2010PropOp51
 70
     0
102
RTVSPost2010Prop52
140
1.0
102
RTVSPost2010PropOp52
 70
     0
102
RTVSPost2010Prop53
 90
        2
102
RTVSPost2010PropOp53
 70
     1
102
RTVSPost2010Prop54
  1
strokes_ogs.tif
102
RTVSPost2010PropOp54
 70
     1
102
RTVSPost2010Prop55
280
     0
102
RTVSPost2010PropOp55
 70
     1
102
RTVSPost2010Prop56
140
1.0
102
RTVSPost2010PropOp56
 70
     1
102
RTVSPost2010Prop57
140
1.0
102
RTVSPost2010PropOp57
 70
     1
102
RTVSPropertyOp0
 70
     1
102
RTVSPropertyOp1
 70
     1
102
RTVSPropertyOp2
 70
     1
102
RTVSPropertyOp3
 70
     1
102
RTVSPropertyOp4
 70
     1
102
RTVSPropertyOp5
 70
     1
102
RTVSPropertyOp6
 70
     1
102
RTVSPropertyOp7
 70
     1
102
RTVSPropertyOp8
 70
     1
102
RTVSPropertyOp9
 70
     1
102
RTVSPropertyOp10
 70
     1
102
RTVSPropertyOp11
 70
     1
102
RTVSPropertyOp12
 70
     1
102
RTVSPropertyOp13
 70
     1
102
RTVSPropertyOp14
 70
     1
102
RTVSPropertyOp15
 70
     1
102
RTVSPropertyOp16
 70
     1
102
RTVSPropertyOp17
 70
     1
102
RTVSPropertyOp18
 70
     1
102
RTVSPropertyOp19
 70
     1
102
RTVSPropertyOp20
 70
     1
102
RTVSPropertyOp21
 70
     1
102
RTVSPropertyOp22
 70
     1
102
RTVSPropertyOp23
 70
     1
102
RTVSPropertyOp24
 70
     1
102
RTVSPropertyOp25
 70
     1
102
RTVSPropertyOp26
 70
     1
102
RTVSPropertyOp27
 70
     1
102
RTVSPropertyOp28
 70
     1
102
RTVSPropertyOp29
 70
     1
102
RTVSPropertyOp30
 70
     1
102
RTVSPropertyOp31
 70
     1
102
RTVSPropertyOp32
 70
     1
102
RTVSPropertyOp33
 70
     1
102
RTVSPropertyOp34
 70
     1
102
RTVSPropertyOp35
 70
     1
102
RTVSPropertyOp36
 70
     1
102
RTVSPropertyOp37
 70
     1
102
RTVSPropertyOp38
 70
     1
102
RTVSPropertyOp39
 70
     1
102
RTVSPropertyOp40
 70
     1
102
RTVSPropertyOp41
 70
     1
102
RTVSPropertyOp42
 70
     1
102
RTVSPropertyOp43
 70
     1
102
RTVSPropertyOp44
 70
     1
102
RTVSPropertyOp45
 70
     1
102
RTVSPropertyOp46
 70
     1
102
RTVSPropertyOp47
 70
     1
102
RTVSPropertyOp48
 70
     1
102
RTVSPropertyOp49
 70
     1
102
RTVSPropertyOp50
 70
     1
102
RTVSPropertyOp51
 70
     0
102
RTVSPropertyOp52
 70
     0
102
RTVSPropertyOp53
 70
     1
102
RTVSPropertyOp54
 70
     1
102
RTVSPropertyOp55
 70
     1
102
RTVSPropertyOp56
 70
     1
102
RTVSPropertyOp57
 70
     1
102
RTVSPropertyOp58
 70
     1
102
RTVSPropertyOp59
 70
     1
102
RTVSPropertyOp60
 70
     1
102
RTVSPropertyOp61
 70
     1
102
RTVSPropertyOp62
 70
     1
  0
XRECORD
  5
2178
102
{ACAD_REACTORS
330
2177
102
}
330
2177
100
AcDbXrecord
280
     1
102
RTVSPost2010Prop28
280
     0
102
RTVSPost2010PropOp28
 70
     1
102
RTVSPost2010Prop29
280
     1
102
RTVSPost2010PropOp29
 70
     1
102
RTVSPost2010Prop30
280
     1
102
RTVSPost2010PropOp30
 70
     1
102
RTVSPost2010Prop31
280
     0
102
RTVSPost2010PropOp31
 70
     1
102
RTVSPost2010Prop32
280
     0
102
RTVSPost2010PropOp32
 70
     1
102
RTVSPost2010Prop33
280
     0
102
RTVSPost2010PropOp33
 70
     1
102
RTVSPost2010Prop34
280
     0
102
RTVSPost2010PropOp34
 70
     1
102
RTVSPost2010Prop35
280
     0
102
RTVSPost2010PropOp35
 70
     1
102
RTVSPost2010Prop36
280
     0
102
RTVSPost2010PropOp36
 70
     1
102
RTVSPost2010Prop37
 90
       50
102
RTVSPost2010PropOp37
 70
     1
102
RTVSPost2010Prop38
140
0.0
102
RTVSPost2010PropOp38
 70
     1
102
RTVSPost2010Prop39
140
1.0
102
RTVSPost2010PropOp39
 70
     1
102
RTVSPost2010Prop40
 90
        0
102
RTVSPost2010PropOp40
 70
     1
102
RTVSPost2010Prop41ColorIndex
 90
       18
102
RTVSPost2010Prop41ColorRGB
 90
        0
102
RTVSPost2010PropOp41
 70
     1
102
RTVSPost2010Prop42
 90
       50
102
RTVSPost2010PropOp42
 70
     1
102
RTVSPost2010Prop43
 90
        3
102
RTVSPost2010PropOp43
 70
     1
102
RTVSPost2010Prop44ColorIndex
 90
        5
102
RTVSPost2010Prop44ColorRGB
 90
      255
102
RTVSPost2010PropOp44
 70
     1
102
RTVSPost2010Prop45
280
     0
102
RTVSPost2010PropOp45
 70
     1
102
RTVSPost2010Prop46
 90
       50
102
RTVSPost2010PropOp46
 70
     1
102
RTVSPost2010Prop47
 90
       50
102
RTVSPost2010PropOp47
 70
     1
102
RTVSPost2010Prop48
 90
       50
102
RTVSPost2010PropOp48
 70
     1
102
RTVSPost2010Prop49
280
     0
102
RTVSPost2010PropOp49
 70
     1
102
RTVSPost2010Prop50
 90
       50
102
RTVSPost2010PropOp50
 70
     1
102
RTVSPost2010Prop51ColorIndex
 90
      256
102
RTVSPost2010Prop51ColorRGB
 90
-16777216
102
RTVSPost2010PropOp51
 70
     0
102
RTVSPost2010Prop52
140
1.0
102
RTVSPost2010PropOp52
 70
     0
102
RTVSPost2010Prop53
 90
        2
102
RTVSPost2010PropOp53
 70
     1
102
RTVSPost2010Prop54
  1
strokes_ogs.tif
102
RTVSPost2010PropOp54
 70
     1
102
RTVSPost2010Prop55
280
     0
102
RTVSPost2010PropOp55
 70
     1
102
RTVSPost2010Prop56
140
1.0
102
RTVSPost2010PropOp56
 70
     1
102
RTVSPost2010Prop57
140
1.0
102
RTVSPost2010PropOp57
 70
     1
102
RTVSPropertyOp0
 70
     1
102
RTVSPropertyOp1
 70
     1
102
RTVSPropertyOp2
 70
     1
102
RTVSPropertyOp3
 70
     1
102
RTVSPropertyOp4
 70
     1
102
RTVSPropertyOp5
 70
     1
102
RTVSPropertyOp6
 70
     1
102
RTVSPropertyOp7
 70
     1
102
RTVSPropertyOp8
 70
     1
102
RTVSPropertyOp9
 70
     1
102
RTVSPropertyOp10
 70
     1
102
RTVSPropertyOp11
 70
     1
102
RTVSPropertyOp12
 70
     1
102
RTVSPropertyOp13
 70
     1
102
RTVSPropertyOp14
 70
     1
102
RTVSPropertyOp15
 70
     1
102
RTVSPropertyOp16
 70
     1
102
RTVSPropertyOp17
 70
     1
102
RTVSPropertyOp18
 70
     1
102
RTVSPropertyOp19
 70
     1
102
RTVSPropertyOp20
 70
     1
102
RTVSPropertyOp21
 70
     1
102
RTVSPropertyOp22
 70
     1
102
RTVSPropertyOp23
 70
     1
102
RTVSPropertyOp24
 70
     1
102
RTVSPropertyOp25
 70
     1
102
RTVSPropertyOp26
 70
     1
102
RTVSPropertyOp27
 70
     1
102
RTVSPropertyOp28
 70
     1
102
RTVSPropertyOp29
 70
     1
102
RTVSPropertyOp30
 70
     1
102
RTVSPropertyOp31
 70
     1
102
RTVSPropertyOp32
 70
     1
102
RTVSPropertyOp33
 70
     1
102
RTVSPropertyOp34
 70
     1
102
RTVSPropertyOp35
 70
     1
102
RTVSPropertyOp36
 70
     1
102
RTVSPropertyOp37
 70
     1
102
RTVSPropertyOp38
 70
     1
102
RTVSPropertyOp39
 70
     1
102
RTVSPropertyOp40
 70
     1
102
RTVSPropertyOp41
 70
     1
102
RTVSPropertyOp42
 70
     1
102
RTVSPropertyOp43
 70
     1
102
RTVSPropertyOp44
 70
     1
102
RTVSPropertyOp45
 70
     1
102
RTVSPropertyOp46
 70
     1
102
RTVSPropertyOp47
 70
     1
102
RTVSPropertyOp48
 70
     1
102
RTVSPropertyOp49
 70
     1
102
RTVSPropertyOp50
 70
     1
102
RTVSPropertyOp51
 70
     0
102
RTVSPropertyOp52
 70
     0
102
RTVSPropertyOp53
 70
     1
102
RTVSPropertyOp54
 70
     1
102
RTVSPropertyOp55
 70
     1
102
RTVSPropertyOp56
 70
     1
102
RTVSPropertyOp57
 70
     1
102
RTVSPropertyOp58
 70
     1
102
RTVSPropertyOp59
 70
     1
102
RTVSPropertyOp60
 70
     1
102
RTVSPropertyOp61
 70
     1
102
RTVSPropertyOp62
 70
     1
  0
XRECORD
  5
2180
102
{ACAD_REACTORS
330
217F
102
}
330
217F
100
AcDbXrecord
280
     1
102
RTVSPost2010Prop28
280
     0
102
RTVSPost2010PropOp28
 70
     1
102
RTVSPost2010Prop29
280
     1
102
RTVSPost2010PropOp29
 70
     1
102
RTVSPost2010Prop30
280
     1
102
RTVSPost2010PropOp30
 70
     1
102
RTVSPost2010Prop31
280
     0
102
RTVSPost2010PropOp31
 70
     1
102
RTVSPost2010Prop32
280
     0
102
RTVSPost2010PropOp32
 70
     1
102
RTVSPost2010Prop33
280
     0
102
RTVSPost2010PropOp33
 70
     1
102
RTVSPost2010Prop34
280
     0
102
RTVSPost2010PropOp34
 70
     1
102
RTVSPost2010Prop35
280
     0
102
RTVSPost2010PropOp35
 70
     1
102
RTVSPost2010Prop36
280
     0
102
RTVSPost2010PropOp36
 70
     1
102
RTVSPost2010Prop37
 90
       50
102
RTVSPost2010PropOp37
 70
     1
102
RTVSPost2010Prop38
140
0.0
102
RTVSPost2010PropOp38
 70
     1
102
RTVSPost2010Prop39
140
1.0
102
RTVSPost2010PropOp39
 70
     1
102
RTVSPost2010Prop40
 90
        0
102
RTVSPost2010PropOp40
 70
     1
102
RTVSPost2010Prop41ColorIndex
 90
       18
102
RTVSPost2010Prop41ColorRGB
 90
        0
102
RTVSPost2010PropOp41
 70
     1
102
RTVSPost2010Prop42
 90
       50
102
RTVSPost2010PropOp42
 70
     1
102
RTVSPost2010Prop43
 90
        3
102
RTVSPost2010PropOp43
 70
     1
102
RTVSPost2010Prop44ColorIndex
 90
        5
102
RTVSPost2010Prop44ColorRGB
 90
      255
102
RTVSPost2010PropOp44
 70
     1
102
RTVSPost2010Prop45
280
     0
102
RTVSPost2010PropOp45
 70
     1
102
RTVSPost2010Prop46
 90
       50
102
RTVSPost2010PropOp46
 70
     1
102
RTVSPost2010Prop47
 90
       50
102
RTVSPost2010PropOp47
 70
     1
102
RTVSPost2010Prop48
 90
       50
102
RTVSPost2010PropOp48
 70
     1
102
RTVSPost2010Prop49
280
     0
102
RTVSPost2010PropOp49
 70
     1
102
RTVSPost2010Prop50
 90
       50
102
RTVSPost2010PropOp50
 70
     1
102
RTVSPost2010Prop51ColorIndex
 90
      256
102
RTVSPost2010Prop51ColorRGB
 90
-16777216
102
RTVSPost2010PropOp51
 70
     0
102
RTVSPost2010Prop52
140
1.0
102
RTVSPost2010PropOp52
 70
     0
102
RTVSPost2010Prop53
 90
        2
102
RTVSPost2010PropOp53
 70
     1
102
RTVSPost2010Prop54
  1
strokes_ogs.tif
102
RTVSPost2010PropOp54
 70
     1
102
RTVSPost2010Prop55
280
     0
102
RTVSPost2010PropOp55
 70
     1
102
RTVSPost2010Prop56
140
1.0
102
RTVSPost2010PropOp56
 70
     1
102
RTVSPost2010Prop57
140
1.0
102
RTVSPost2010PropOp57
 70
     1
102
RTVSPropertyOp0
 70
     1
102
RTVSPropertyOp1
 70
     1
102
RTVSPropertyOp2
 70
     1
102
RTVSPropertyOp3
 70
     1
102
RTVSPropertyOp4
 70
     1
102
RTVSPropertyOp5
 70
     1
102
RTVSPropertyOp6
 70
     1
102
RTVSPropertyOp7
 70
     1
102
RTVSPropertyOp8
 70
     1
102
RTVSPropertyOp9
 70
     1
102
RTVSPropertyOp10
 70
     1
102
RTVSPropertyOp11
 70
     1
102
RTVSPropertyOp12
 70
     1
102
RTVSPropertyOp13
 70
     1
102
RTVSPropertyOp14
 70
     1
102
RTVSPropertyOp15
 70
     1
102
RTVSPropertyOp16
 70
     1
102
RTVSPropertyOp17
 70
     1
102
RTVSPropertyOp18
 70
     1
102
RTVSPropertyOp19
 70
     1
102
RTVSPropertyOp20
 70
     1
102
RTVSPropertyOp21
 70
     1
102
RTVSPropertyOp22
 70
     1
102
RTVSPropertyOp23
 70
     1
102
RTVSPropertyOp24
 70
     1
102
RTVSPropertyOp25
 70
     1
102
RTVSPropertyOp26
 70
     1
102
RTVSPropertyOp27
 70
     1
102
RTVSPropertyOp28
 70
     1
102
RTVSPropertyOp29
 70
     1
102
RTVSPropertyOp30
 70
     1
102
RTVSPropertyOp31
 70
     1
102
RTVSPropertyOp32
 70
     1
102
RTVSPropertyOp33
 70
     1
102
RTVSPropertyOp34
 70
     1
102
RTVSPropertyOp35
 70
     1
102
RTVSPropertyOp36
 70
     1
102
RTVSPropertyOp37
 70
     1
102
RTVSPropertyOp38
 70
     1
102
RTVSPropertyOp39
 70
     1
102
RTVSPropertyOp40
 70
     1
102
RTVSPropertyOp41
 70
     1
102
RTVSPropertyOp42
 70
     1
102
RTVSPropertyOp43
 70
     1
102
RTVSPropertyOp44
 70
     1
102
RTVSPropertyOp45
 70
     1
102
RTVSPropertyOp46
 70
     1
102
RTVSPropertyOp47
 70
     1
102
RTVSPropertyOp48
 70
     1
102
RTVSPropertyOp49
 70
     1
102
RTVSPropertyOp50
 70
     1
102
RTVSPropertyOp51
 70
     0
102
RTVSPropertyOp52
 70
     0
102
RTVSPropertyOp53
 70
     1
102
RTVSPropertyOp54
 70
     1
102
RTVSPropertyOp55
 70
     1
102
RTVSPropertyOp56
 70
     1
102
RTVSPropertyOp57
 70
     1
102
RTVSPropertyOp58
 70
     1
102
RTVSPropertyOp59
 70
     1
102
RTVSPropertyOp60
 70
     1
102
RTVSPropertyOp61
 70
     1
102
RTVSPropertyOp62
 70
     1
  0
XRECORD
  5
2172
102
{ACAD_REACTORS
330
2171
102
}
330
2171
100
AcDbXrecord
280
     1
102
RTVSPost2010Prop28
280
     0
102
RTVSPost2010PropOp28
 70
     1
102
RTVSPost2010Prop29
280
     1
102
RTVSPost2010PropOp29
 70
     1
102
RTVSPost2010Prop30
280
     1
102
RTVSPost2010PropOp30
 70
     1
102
RTVSPost2010Prop31
280
     0
102
RTVSPost2010PropOp31
 70
     1
102
RTVSPost2010Prop32
280
     0
102
RTVSPost2010PropOp32
 70
     1
102
RTVSPost2010Prop33
280
     0
102
RTVSPost2010PropOp33
 70
     1
102
RTVSPost2010Prop34
280
     0
102
RTVSPost2010PropOp34
 70
     1
102
RTVSPost2010Prop35
280
     0
102
RTVSPost2010PropOp35
 70
     1
102
RTVSPost2010Prop36
280
     0
102
RTVSPost2010PropOp36
 70
     1
102
RTVSPost2010Prop37
 90
       50
102
RTVSPost2010PropOp37
 70
     1
102
RTVSPost2010Prop38
140
0.0
102
RTVSPost2010PropOp38
 70
     1
102
RTVSPost2010Prop39
140
1.0
102
RTVSPost2010PropOp39
 70
     1
102
RTVSPost2010Prop40
 90
        0
102
RTVSPost2010PropOp40
 70
     1
102
RTVSPost2010Prop41ColorIndex
 90
       18
102
RTVSPost2010Prop41ColorRGB
 90
        0
102
RTVSPost2010PropOp41
 70
     1
102
RTVSPost2010Prop42
 90
       50
102
RTVSPost2010PropOp42
 70
     1
102
RTVSPost2010Prop43
 90
        3
102
RTVSPost2010PropOp43
 70
     1
102
RTVSPost2010Prop44ColorIndex
 90
        5
102
RTVSPost2010Prop44ColorRGB
 90
      255
102
RTVSPost2010PropOp44
 70
     1
102
RTVSPost2010Prop45
280
     0
102
RTVSPost2010PropOp45
 70
     1
102
RTVSPost2010Prop46
 90
       50
102
RTVSPost2010PropOp46
 70
     1
102
RTVSPost2010Prop47
 90
       50
102
RTVSPost2010PropOp47
 70
     1
102
RTVSPost2010Prop48
 90
       50
102
RTVSPost2010PropOp48
 70
     1
102
RTVSPost2010Prop49
280
     0
102
RTVSPost2010PropOp49
 70
     1
102
RTVSPost2010Prop50
 90
       50
102
RTVSPost2010PropOp50
 70
     1
102
RTVSPost2010Prop51ColorIndex
 90
      256
102
RTVSPost2010Prop51ColorRGB
 90
-16777216
102
RTVSPost2010PropOp51
 70
     0
102
RTVSPost2010Prop52
140
1.0
102
RTVSPost2010PropOp52
 70
     0
102
RTVSPost2010Prop53
 90
        2
102
RTVSPost2010PropOp53
 70
     1
102
RTVSPost2010Prop54
  1
strokes_ogs.tif
102
RTVSPost2010PropOp54
 70
     1
102
RTVSPost2010Prop55
280
     0
102
RTVSPost2010PropOp55
 70
     1
102
RTVSPost2010Prop56
140
1.0
102
RTVSPost2010PropOp56
 70
     1
102
RTVSPost2010Prop57
140
1.0
102
RTVSPost2010PropOp57
 70
     1
102
RTVSPropertyOp0
 70
     1
102
RTVSPropertyOp1
 70
     1
102
RTVSPropertyOp2
 70
     1
102
RTVSPropertyOp3
 70
     1
102
RTVSPropertyOp4
 70
     1
102
RTVSPropertyOp5
 70
     1
102
RTVSPropertyOp6
 70
     1
102
RTVSPropertyOp7
 70
     1
102
RTVSPropertyOp8
 70
     1
102
RTVSPropertyOp9
 70
     1
102
RTVSPropertyOp10
 70
     1
102
RTVSPropertyOp11
 70
     1
102
RTVSPropertyOp12
 70
     1
102
RTVSPropertyOp13
 70
     1
102
RTVSPropertyOp14
 70
     1
102
RTVSPropertyOp15
 70
     1
102
RTVSPropertyOp16
 70
     1
102
RTVSPropertyOp17
 70
     1
102
RTVSPropertyOp18
 70
     1
102
RTVSPropertyOp19
 70
     1
102
RTVSPropertyOp20
 70
     1
102
RTVSPropertyOp21
 70
     1
102
RTVSPropertyOp22
 70
     1
102
RTVSPropertyOp23
 70
     1
102
RTVSPropertyOp24
 70
     1
102
RTVSPropertyOp25
 70
     1
102
RTVSPropertyOp26
 70
     1
102
RTVSPropertyOp27
 70
     1
102
RTVSPropertyOp28
 70
     1
102
RTVSPropertyOp29
 70
     1
102
RTVSPropertyOp30
 70
     1
102
RTVSPropertyOp31
 70
     1
102
RTVSPropertyOp32
 70
     1
102
RTVSPropertyOp33
 70
     1
102
RTVSPropertyOp34
 70
     1
102
RTVSPropertyOp35
 70
     1
102
RTVSPropertyOp36
 70
     1
102
RTVSPropertyOp37
 70
     1
102
RTVSPropertyOp38
 70
     1
102
RTVSPropertyOp39
 70
     1
102
RTVSPropertyOp40
 70
     1
102
RTVSPropertyOp41
 70
     1
102
RTVSPropertyOp42
 70
     1
102
RTVSPropertyOp43
 70
     1
102
RTVSPropertyOp44
 70
     1
102
RTVSPropertyOp45
 70
     1
102
RTVSPropertyOp46
 70
     1
102
RTVSPropertyOp47
 70
     1
102
RTVSPropertyOp48
 70
     1
102
RTVSPropertyOp49
 70
     1
102
RTVSPropertyOp50
 70
     1
102
RTVSPropertyOp51
 70
     0
102
RTVSPropertyOp52
 70
     0
102
RTVSPropertyOp53
 70
     1
102
RTVSPropertyOp54
 70
     1
102
RTVSPropertyOp55
 70
     1
102
RTVSPropertyOp56
 70
     1
102
RTVSPropertyOp57
 70
     1
102
RTVSPropertyOp58
 70
     1
102
RTVSPropertyOp59
 70
     1
102
RTVSPropertyOp60
 70
     1
102
RTVSPropertyOp61
 70
     1
102
RTVSPropertyOp62
 70
     1
  0
XRECORD
  5
2176
102
{ACAD_REACTORS
330
2175
102
}
330
2175
100
AcDbXrecord
280
     1
102
RTVSPost2010Prop28
280
     0
102
RTVSPost2010PropOp28
 70
     1
102
RTVSPost2010Prop29
280
     1
102
RTVSPost2010PropOp29
 70
     1
102
RTVSPost2010Prop30
280
     1
102
RTVSPost2010PropOp30
 70
     1
102
RTVSPost2010Prop31
280
     0
102
RTVSPost2010PropOp31
 70
     1
102
RTVSPost2010Prop32
280
     0
102
RTVSPost2010PropOp32
 70
     1
102
RTVSPost2010Prop33
280
     0
102
RTVSPost2010PropOp33
 70
     1
102
RTVSPost2010Prop34
280
     0
102
RTVSPost2010PropOp34
 70
     1
102
RTVSPost2010Prop35
280
     0
102
RTVSPost2010PropOp35
 70
     1
102
RTVSPost2010Prop36
280
     0
102
RTVSPost2010PropOp36
 70
     1
102
RTVSPost2010Prop37
 90
       50
102
RTVSPost2010PropOp37
 70
     1
102
RTVSPost2010Prop38
140
0.0
102
RTVSPost2010PropOp38
 70
     1
102
RTVSPost2010Prop39
140
1.0
102
RTVSPost2010PropOp39
 70
     1
102
RTVSPost2010Prop40
 90
        0
102
RTVSPost2010PropOp40
 70
     1
102
RTVSPost2010Prop41ColorIndex
 90
       18
102
RTVSPost2010Prop41ColorRGB
 90
        0
102
RTVSPost2010PropOp41
 70
     1
102
RTVSPost2010Prop42
 90
       50
102
RTVSPost2010PropOp42
 70
     1
102
RTVSPost2010Prop43
 90
        3
102
RTVSPost2010PropOp43
 70
     1
102
RTVSPost2010Prop44ColorIndex
 90
        5
102
RTVSPost2010Prop44ColorRGB
 90
      255
102
RTVSPost2010PropOp44
 70
     1
102
RTVSPost2010Prop45
280
     0
102
RTVSPost2010PropOp45
 70
     1
102
RTVSPost2010Prop46
 90
       50
102
RTVSPost2010PropOp46
 70
     1
102
RTVSPost2010Prop47
 90
       50
102
RTVSPost2010PropOp47
 70
     1
102
RTVSPost2010Prop48
 90
       50
102
RTVSPost2010PropOp48
 70
     1
102
RTVSPost2010Prop49
280
     0
102
RTVSPost2010PropOp49
 70
     1
102
RTVSPost2010Prop50
 90
       50
102
RTVSPost2010PropOp50
 70
     1
102
RTVSPost2010Prop51ColorIndex
 90
      256
102
RTVSPost2010Prop51ColorRGB
 90
-16777216
102
RTVSPost2010PropOp51
 70
     0
102
RTVSPost2010Prop52
140
1.0
102
RTVSPost2010PropOp52
 70
     0
102
RTVSPost2010Prop53
 90
        2
102
RTVSPost2010PropOp53
 70
     1
102
RTVSPost2010Prop54
  1
strokes_ogs.tif
102
RTVSPost2010PropOp54
 70
     1
102
RTVSPost2010Prop55
280
     0
102
RTVSPost2010PropOp55
 70
     1
102
RTVSPost2010Prop56
140
1.0
102
RTVSPost2010PropOp56
 70
     1
102
RTVSPost2010Prop57
140
1.0
102
RTVSPost2010PropOp57
 70
     1
102
RTVSPropertyOp0
 70
     1
102
RTVSPropertyOp1
 70
     1
102
RTVSPropertyOp2
 70
     1
102
RTVSPropertyOp3
 70
     1
102
RTVSPropertyOp4
 70
     1
102
RTVSPropertyOp5
 70
     1
102
RTVSPropertyOp6
 70
     1
102
RTVSPropertyOp7
 70
     1
102
RTVSPropertyOp8
 70
     1
102
RTVSPropertyOp9
 70
     1
102
RTVSPropertyOp10
 70
     1
102
RTVSPropertyOp11
 70
     1
102
RTVSPropertyOp12
 70
     1
102
RTVSPropertyOp13
 70
     1
102
RTVSPropertyOp14
 70
     1
102
RTVSPropertyOp15
 70
     1
102
RTVSPropertyOp16
 70
     1
102
RTVSPropertyOp17
 70
     1
102
RTVSPropertyOp18
 70
     1
102
RTVSPropertyOp19
 70
     1
102
RTVSPropertyOp20
 70
     1
102
RTVSPropertyOp21
 70
     1
102
RTVSPropertyOp22
 70
     1
102
RTVSPropertyOp23
 70
     1
102
RTVSPropertyOp24
 70
     1
102
RTVSPropertyOp25
 70
     1
102
RTVSPropertyOp26
 70
     1
102
RTVSPropertyOp27
 70
     1
102
RTVSPropertyOp28
 70
     1
102
RTVSPropertyOp29
 70
     1
102
RTVSPropertyOp30
 70
     1
102
RTVSPropertyOp31
 70
     1
102
RTVSPropertyOp32
 70
     1
102
RTVSPropertyOp33
 70
     1
102
RTVSPropertyOp34
 70
     1
102
RTVSPropertyOp35
 70
     1
102
RTVSPropertyOp36
 70
     1
102
RTVSPropertyOp37
 70
     1
102
RTVSPropertyOp38
 70
     1
102
RTVSPropertyOp39
 70
     1
102
RTVSPropertyOp40
 70
     1
102
RTVSPropertyOp41
 70
     1
102
RTVSPropertyOp42
 70
     1
102
RTVSPropertyOp43
 70
     1
102
RTVSPropertyOp44
 70
     1
102
RTVSPropertyOp45
 70
     1
102
RTVSPropertyOp46
 70
     1
102
RTVSPropertyOp47
 70
     1
102
RTVSPropertyOp48
 70
     1
102
RTVSPropertyOp49
 70
     1
102
RTVSPropertyOp50
 70
     1
102
RTVSPropertyOp51
 70
     0
102
RTVSPropertyOp52
 70
     0
102
RTVSPropertyOp53
 70
     1
102
RTVSPropertyOp54
 70
     1
102
RTVSPropertyOp55
 70
     1
102
RTVSPropertyOp56
 70
     1
102
RTVSPropertyOp57
 70
     1
102
RTVSPropertyOp58
 70
     1
102
RTVSPropertyOp59
 70
     1
102
RTVSPropertyOp60
 70
     1
102
RTVSPropertyOp61
 70
     1
102
RTVSPropertyOp62
 70
     1
  0
XRECORD
  5
2190
102
{ACAD_REACTORS
330
218F
102
}
330
218F
100
AcDbXrecord
280
     1
102
RTVSPost2010Prop28
280
     0
102
RTVSPost2010PropOp28
 70
     1
102
RTVSPost2010Prop29
280
     1
102
RTVSPost2010PropOp29
 70
     1
102
RTVSPost2010Prop30
280
     1
102
RTVSPost2010PropOp30
 70
     1
102
RTVSPost2010Prop31
280
     0
102
RTVSPost2010PropOp31
 70
     1
102
RTVSPost2010Prop32
280
     0
102
RTVSPost2010PropOp32
 70
     1
102
RTVSPost2010Prop33
280
     0
102
RTVSPost2010PropOp33
 70
     1
102
RTVSPost2010Prop34
280
     0
102
RTVSPost2010PropOp34
 70
     1
102
RTVSPost2010Prop35
280
     0
102
RTVSPost2010PropOp35
 70
     1
102
RTVSPost2010Prop36
280
     0
102
RTVSPost2010PropOp36
 70
     1
102
RTVSPost2010Prop37
 90
       50
102
RTVSPost2010PropOp37
 70
     0
102
RTVSPost2010Prop38
140
0.0
102
RTVSPost2010PropOp38
 70
     0
102
RTVSPost2010Prop39
140
1.0
102
RTVSPost2010PropOp39
 70
     0
102
RTVSPost2010Prop40
 90
        0
102
RTVSPost2010PropOp40
 70
     0
102
RTVSPost2010Prop41ColorIndex
 90
       18
102
RTVSPost2010Prop41ColorRGB
 90
        0
102
RTVSPost2010PropOp41
 70
     0
102
RTVSPost2010Prop42
 90
       50
102
RTVSPost2010PropOp42
 70
     0
102
RTVSPost2010Prop43
 90
        3
102
RTVSPost2010PropOp43
 70
     0
102
RTVSPost2010Prop44ColorIndex
 90
        5
102
RTVSPost2010Prop44ColorRGB
 90
      255
102
RTVSPost2010PropOp44
 70
     0
102
RTVSPost2010Prop45
280
     0
102
RTVSPost2010PropOp45
 70
     1
102
RTVSPost2010Prop46
 90
       50
102
RTVSPost2010PropOp46
 70
     0
102
RTVSPost2010Prop47
 90
       50
102
RTVSPost2010PropOp47
 70
     0
102
RTVSPost2010Prop48
 90
       50
102
RTVSPost2010PropOp48
 70
     0
102
RTVSPost2010Prop49
280
     0
102
RTVSPost2010PropOp49
 70
     1
102
RTVSPost2010Prop50
 90
       50
102
RTVSPost2010PropOp50
 70
     0
102
RTVSPost2010Prop51ColorIndex
 90
      256
102
RTVSPost2010Prop51ColorRGB
 90
-16777216
102
RTVSPost2010PropOp51
 70
     0
102
RTVSPost2010Prop52
140
1.0
102
RTVSPost2010PropOp52
 70
     0
102
RTVSPost2010Prop53
 90
        2
102
RTVSPost2010PropOp53
 70
     0
102
RTVSPost2010Prop54
  1
strokes_ogs.tif
102
RTVSPost2010PropOp54
 70
     0
102
RTVSPost2010Prop55
280
     0
102
RTVSPost2010PropOp55
 70
     1
102
RTVSPost2010Prop56
140
1.0
102
RTVSPost2010PropOp56
 70
     0
102
RTVSPost2010Prop57
140
1.0
102
RTVSPost2010PropOp57
 70
     0
102
RTVSPropertyOp0
 70
     0
102
RTVSPropertyOp1
 70
     0
102
RTVSPropertyOp2
 70
     0
102
RTVSPropertyOp3
 70
     0
102
RTVSPropertyOp4
 70
     0
102
RTVSPropertyOp5
 70
     0
102
RTVSPropertyOp6
 70
     0
102
RTVSPropertyOp7
 70
     0
102
RTVSPropertyOp8
 70
     0
102
RTVSPropertyOp9
 70
     0
102
RTVSPropertyOp10
 70
     0
102
RTVSPropertyOp11
 70
     0
102
RTVSPropertyOp12
 70
     0
102
RTVSPropertyOp13
 70
     0
102
RTVSPropertyOp14
 70
     2
102
RTVSPropertyOp15
 70
     0
102
RTVSPropertyOp16
 70
     0
102
RTVSPropertyOp17
 70
     0
102
RTVSPropertyOp18
 70
     0
102
RTVSPropertyOp19
 70
     0
102
RTVSPropertyOp20
 70
     0
102
RTVSPropertyOp21
 70
     0
102
RTVSPropertyOp22
 70
     0
102
RTVSPropertyOp23
 70
     0
102
RTVSPropertyOp24
 70
     0
102
RTVSPropertyOp25
 70
     0
102
RTVSPropertyOp26
 70
     0
102
RTVSPropertyOp27
 70
     0
102
RTVSPropertyOp28
 70
     1
102
RTVSPropertyOp29
 70
     1
102
RTVSPropertyOp30
 70
     1
102
RTVSPropertyOp31
 70
     1
102
RTVSPropertyOp32
 70
     1
102
RTVSPropertyOp33
 70
     1
102
RTVSPropertyOp34
 70
     1
102
RTVSPropertyOp35
 70
     1
102
RTVSPropertyOp36
 70
     1
102
RTVSPropertyOp37
 70
     0
102
RTVSPropertyOp38
 70
     0
102
RTVSPropertyOp39
 70
     0
102
RTVSPropertyOp40
 70
     0
102
RTVSPropertyOp41
 70
     0
102
RTVSPropertyOp42
 70
     0
102
RTVSPropertyOp43
 70
     0
102
RTVSPropertyOp44
 70
     0
102
RTVSPropertyOp45
 70
     1
102
RTVSPropertyOp46
 70
     0
102
RTVSPropertyOp47
 70
     0
102
RTVSPropertyOp48
 70
     0
102
RTVSPropertyOp49
 70
     1
102
RTVSPropertyOp50
 70
     0
102
RTVSPropertyOp51
 70
     0
102
RTVSPropertyOp52
 70
     0
102
RTVSPropertyOp53
 70
     0
102
RTVSPropertyOp54
 70
     0
102
RTVSPropertyOp55
 70
     1
102
RTVSPropertyOp56
 70
     0
102
RTVSPropertyOp57
 70
     0
102
RTVSPropertyOp58
 70
     1
102
RTVSPropertyOp59
 70
     1
102
RTVSPropertyOp60
 70
     1
102
RTVSPropertyOp61
 70
     1
102
RTVSPropertyOp62
 70
     1
  0
XRECORD
  5
217E
102
{ACAD_REACTORS
330
217D
102
}
330
217D
100
AcDbXrecord
280
     1
102
RTVSPost2010Prop28
280
     0
102
RTVSPost2010PropOp28
 70
     1
102
RTVSPost2010Prop29
280
     1
102
RTVSPost2010PropOp29
 70
     1
102
RTVSPost2010Prop30
280
     1
102
RTVSPost2010PropOp30
 70
     1
102
RTVSPost2010Prop31
280
     0
102
RTVSPost2010PropOp31
 70
     1
102
RTVSPost2010Prop32
280
     0
102
RTVSPost2010PropOp32
 70
     1
102
RTVSPost2010Prop33
280
     0
102
RTVSPost2010PropOp33
 70
     1
102
RTVSPost2010Prop34
280
     0
102
RTVSPost2010PropOp34
 70
     1
102
RTVSPost2010Prop35
280
     0
102
RTVSPost2010PropOp35
 70
     1
102
RTVSPost2010Prop36
280
     0
102
RTVSPost2010PropOp36
 70
     1
102
RTVSPost2010Prop37
 90
       50
102
RTVSPost2010PropOp37
 70
     1
102
RTVSPost2010Prop38
140
0.0
102
RTVSPost2010PropOp38
 70
     1
102
RTVSPost2010Prop39
140
1.0
102
RTVSPost2010PropOp39
 70
     1
102
RTVSPost2010Prop40
 90
        0
102
RTVSPost2010PropOp40
 70
     1
102
RTVSPost2010Prop41ColorIndex
 90
       18
102
RTVSPost2010Prop41ColorRGB
 90
        0
102
RTVSPost2010PropOp41
 70
     1
102
RTVSPost2010Prop42
 90
       50
102
RTVSPost2010PropOp42
 70
     1
102
RTVSPost2010Prop43
 90
        3
102
RTVSPost2010PropOp43
 70
     1
102
RTVSPost2010Prop44ColorIndex
 90
        5
102
RTVSPost2010Prop44ColorRGB
 90
      255
102
RTVSPost2010PropOp44
 70
     1
102
RTVSPost2010Prop45
280
     0
102
RTVSPost2010PropOp45
 70
     1
102
RTVSPost2010Prop46
 90
       50
102
RTVSPost2010PropOp46
 70
     1
102
RTVSPost2010Prop47
 90
       50
102
RTVSPost2010PropOp47
 70
     1
102
RTVSPost2010Prop48
 90
       50
102
RTVSPost2010PropOp48
 70
     1
102
RTVSPost2010Prop49
280
     0
102
RTVSPost2010PropOp49
 70
     1
102
RTVSPost2010Prop50
 90
       50
102
RTVSPost2010PropOp50
 70
     1
102
RTVSPost2010Prop51ColorIndex
 90
      256
102
RTVSPost2010Prop51ColorRGB
 90
-16777216
102
RTVSPost2010PropOp51
 70
     0
102
RTVSPost2010Prop52
140
1.0
102
RTVSPost2010PropOp52
 70
     0
102
RTVSPost2010Prop53
 90
        2
102
RTVSPost2010PropOp53
 70
     1
102
RTVSPost2010Prop54
  1
strokes_ogs.tif
102
RTVSPost2010PropOp54
 70
     1
102
RTVSPost2010Prop55
280
     0
102
RTVSPost2010PropOp55
 70
     1
102
RTVSPost2010Prop56
140
1.0
102
RTVSPost2010PropOp56
 70
     1
102
RTVSPost2010Prop57
140
1.0
102
RTVSPost2010PropOp57
 70
     1
102
RTVSPropertyOp0
 70
     1
102
RTVSPropertyOp1
 70
     1
102
RTVSPropertyOp2
 70
     1
102
RTVSPropertyOp3
 70
     1
102
RTVSPropertyOp4
 70
     1
102
RTVSPropertyOp5
 70
     1
102
RTVSPropertyOp6
 70
     1
102
RTVSPropertyOp7
 70
     1
102
RTVSPropertyOp8
 70
     1
102
RTVSPropertyOp9
 70
     1
102
RTVSPropertyOp10
 70
     1
102
RTVSPropertyOp11
 70
     1
102
RTVSPropertyOp12
 70
     1
102
RTVSPropertyOp13
 70
     1
102
RTVSPropertyOp14
 70
     1
102
RTVSPropertyOp15
 70
     1
102
RTVSPropertyOp16
 70
     1
102
RTVSPropertyOp17
 70
     1
102
RTVSPropertyOp18
 70
     1
102
RTVSPropertyOp19
 70
     1
102
RTVSPropertyOp20
 70
     1
102
RTVSPropertyOp21
 70
     1
102
RTVSPropertyOp22
 70
     1
102
RTVSPropertyOp23
 70
     1
102
RTVSPropertyOp24
 70
     1
102
RTVSPropertyOp25
 70
     1
102
RTVSPropertyOp26
 70
     1
102
RTVSPropertyOp27
 70
     1
102
RTVSPropertyOp28
 70
     1
102
RTVSPropertyOp29
 70
     1
102
RTVSPropertyOp30
 70
     1
102
RTVSPropertyOp31
 70
     1
102
RTVSPropertyOp32
 70
     1
102
RTVSPropertyOp33
 70
     1
102
RTVSPropertyOp34
 70
     1
102
RTVSPropertyOp35
 70
     1
102
RTVSPropertyOp36
 70
     1
102
RTVSPropertyOp37
 70
     1
102
RTVSPropertyOp38
 70
     1
102
RTVSPropertyOp39
 70
     1
102
RTVSPropertyOp40
 70
     1
102
RTVSPropertyOp41
 70
     1
102
RTVSPropertyOp42
 70
     1
102
RTVSPropertyOp43
 70
     1
102
RTVSPropertyOp44
 70
     1
102
RTVSPropertyOp45
 70
     1
102
RTVSPropertyOp46
 70
     1
102
RTVSPropertyOp47
 70
     1
102
RTVSPropertyOp48
 70
     1
102
RTVSPropertyOp49
 70
     1
102
RTVSPropertyOp50
 70
     1
102
RTVSPropertyOp51
 70
     0
102
RTVSPropertyOp52
 70
     0
102
RTVSPropertyOp53
 70
     1
102
RTVSPropertyOp54
 70
     1
102
RTVSPropertyOp55
 70
     1
102
RTVSPropertyOp56
 70
     1
102
RTVSPropertyOp57
 70
     1
102
RTVSPropertyOp58
 70
     1
102
RTVSPropertyOp59
 70
     1
102
RTVSPropertyOp60
 70
     1
102
RTVSPropertyOp61
 70
     1
102
RTVSPropertyOp62
 70
     1
  0
XRECORD
  5
2162
102
{ACAD_REACTORS
330
2161
102
}
330
2161
100
AcDbXrecord
280
     1
102
RTVSPost2010Prop28
280
     0
102
RTVSPost2010PropOp28
 70
     1
102
RTVSPost2010Prop29
280
     1
102
RTVSPost2010PropOp29
 70
     1
102
RTVSPost2010Prop30
280
     1
102
RTVSPost2010PropOp30
 70
     1
102
RTVSPost2010Prop31
280
     0
102
RTVSPost2010PropOp31
 70
     1
102
RTVSPost2010Prop32
280
     0
102
RTVSPost2010PropOp32
 70
     1
102
RTVSPost2010Prop33
280
     0
102
RTVSPost2010PropOp33
 70
     1
102
RTVSPost2010Prop34
280
     0
102
RTVSPost2010PropOp34
 70
     1
102
RTVSPost2010Prop35
280
     0
102
RTVSPost2010PropOp35
 70
     1
102
RTVSPost2010Prop36
280
     0
102
RTVSPost2010PropOp36
 70
     1
102
RTVSPost2010Prop37
 90
       50
102
RTVSPost2010PropOp37
 70
     1
102
RTVSPost2010Prop38
140
0.0
102
RTVSPost2010PropOp38
 70
     1
102
RTVSPost2010Prop39
140
1.0
102
RTVSPost2010PropOp39
 70
     1
102
RTVSPost2010Prop40
 90
        0
102
RTVSPost2010PropOp40
 70
     1
102
RTVSPost2010Prop41ColorIndex
 90
       18
102
RTVSPost2010Prop41ColorRGB
 90
        0
102
RTVSPost2010PropOp41
 70
     1
102
RTVSPost2010Prop42
 90
       50
102
RTVSPost2010PropOp42
 70
     1
102
RTVSPost2010Prop43
 90
        3
102
RTVSPost2010PropOp43
 70
     1
102
RTVSPost2010Prop44ColorIndex
 90
        5
102
RTVSPost2010Prop44ColorRGB
 90
      255
102
RTVSPost2010PropOp44
 70
     1
102
RTVSPost2010Prop45
280
     0
102
RTVSPost2010PropOp45
 70
     1
102
RTVSPost2010Prop46
 90
       50
102
RTVSPost2010PropOp46
 70
     1
102
RTVSPost2010Prop47
 90
       50
102
RTVSPost2010PropOp47
 70
     1
102
RTVSPost2010Prop48
 90
       50
102
RTVSPost2010PropOp48
 70
     1
102
RTVSPost2010Prop49
280
     0
102
RTVSPost2010PropOp49
 70
     1
102
RTVSPost2010Prop50
 90
       50
102
RTVSPost2010PropOp50
 70
     1
102
RTVSPost2010Prop51ColorIndex
 90
      256
102
RTVSPost2010Prop51ColorRGB
 90
-16777216
102
RTVSPost2010PropOp51
 70
     0
102
RTVSPost2010Prop52
140
1.0
102
RTVSPost2010PropOp52
 70
     0
102
RTVSPost2010Prop53
 90
        2
102
RTVSPost2010PropOp53
 70
     1
102
RTVSPost2010Prop54
  1
strokes_ogs.tif
102
RTVSPost2010PropOp54
 70
     1
102
RTVSPost2010Prop55
280
     0
102
RTVSPost2010PropOp55
 70
     1
102
RTVSPost2010Prop56
140
1.0
102
RTVSPost2010PropOp56
 70
     1
102
RTVSPost2010Prop57
140
1.0
102
RTVSPost2010PropOp57
 70
     1
102
RTVSPropertyOp0
 70
     1
102
RTVSPropertyOp1
 70
     1
102
RTVSPropertyOp2
 70
     1
102
RTVSPropertyOp3
 70
     1
102
RTVSPropertyOp4
 70
     1
102
RTVSPropertyOp5
 70
     1
102
RTVSPropertyOp6
 70
     1
102
RTVSPropertyOp7
 70
     1
102
RTVSPropertyOp8
 70
     1
102
RTVSPropertyOp9
 70
     1
102
RTVSPropertyOp10
 70
     1
102
RTVSPropertyOp11
 70
     1
102
RTVSPropertyOp12
 70
     1
102
RTVSPropertyOp13
 70
     1
102
RTVSPropertyOp14
 70
     1
102
RTVSPropertyOp15
 70
     1
102
RTVSPropertyOp16
 70
     1
102
RTVSPropertyOp17
 70
     1
102
RTVSPropertyOp18
 70
     1
102
RTVSPropertyOp19
 70
     1
102
RTVSPropertyOp20
 70
     1
102
RTVSPropertyOp21
 70
     1
102
RTVSPropertyOp22
 70
     1
102
RTVSPropertyOp23
 70
     1
102
RTVSPropertyOp24
 70
     1
102
RTVSPropertyOp25
 70
     1
102
RTVSPropertyOp26
 70
     1
102
RTVSPropertyOp27
 70
     1
102
RTVSPropertyOp28
 70
     1
102
RTVSPropertyOp29
 70
     1
102
RTVSPropertyOp30
 70
     1
102
RTVSPropertyOp31
 70
     1
102
RTVSPropertyOp32
 70
     1
102
RTVSPropertyOp33
 70
     1
102
RTVSPropertyOp34
 70
     1
102
RTVSPropertyOp35
 70
     1
102
RTVSPropertyOp36
 70
     1
102
RTVSPropertyOp37
 70
     1
102
RTVSPropertyOp38
 70
     1
102
RTVSPropertyOp39
 70
     1
102
RTVSPropertyOp40
 70
     1
102
RTVSPropertyOp41
 70
     1
102
RTVSPropertyOp42
 70
     1
102
RTVSPropertyOp43
 70
     1
102
RTVSPropertyOp44
 70
     1
102
RTVSPropertyOp45
 70
     1
102
RTVSPropertyOp46
 70
     1
102
RTVSPropertyOp47
 70
     1
102
RTVSPropertyOp48
 70
     1
102
RTVSPropertyOp49
 70
     1
102
RTVSPropertyOp50
 70
     1
102
RTVSPropertyOp51
 70
     0
102
RTVSPropertyOp52
 70
     0
102
RTVSPropertyOp53
 70
     1
102
RTVSPropertyOp54
 70
     1
102
RTVSPropertyOp55
 70
     1
102
RTVSPropertyOp56
 70
     1
102
RTVSPropertyOp57
 70
     1
102
RTVSPropertyOp58
 70
     1
102
RTVSPropertyOp59
 70
     1
102
RTVSPropertyOp60
 70
     1
102
RTVSPropertyOp61
 70
     1
102
RTVSPropertyOp62
 70
     1
  0
XRECORD
  5
2164
102
{ACAD_REACTORS
330
2163
102
}
330
2163
100
AcDbXrecord
280
     1
102
RTVSPost2010Prop28
280
     0
102
RTVSPost2010PropOp28
 70
     1
102
RTVSPost2010Prop29
280
     1
102
RTVSPost2010PropOp29
 70
     1
102
RTVSPost2010Prop30
280
     1
102
RTVSPost2010PropOp30
 70
     1
102
RTVSPost2010Prop31
280
     0
102
RTVSPost2010PropOp31
 70
     1
102
RTVSPost2010Prop32
280
     0
102
RTVSPost2010PropOp32
 70
     1
102
RTVSPost2010Prop33
280
     0
102
RTVSPost2010PropOp33
 70
     1
102
RTVSPost2010Prop34
280
     0
102
RTVSPost2010PropOp34
 70
     1
102
RTVSPost2010Prop35
280
     0
102
RTVSPost2010PropOp35
 70
     1
102
RTVSPost2010Prop36
280
     0
102
RTVSPost2010PropOp36
 70
     1
102
RTVSPost2010Prop37
 90
       50
102
RTVSPost2010PropOp37
 70
     1
102
RTVSPost2010Prop38
140
0.0
102
RTVSPost2010PropOp38
 70
     1
102
RTVSPost2010Prop39
140
1.0
102
RTVSPost2010PropOp39
 70
     1
102
RTVSPost2010Prop40
 90
        0
102
RTVSPost2010PropOp40
 70
     1
102
RTVSPost2010Prop41ColorIndex
 90
       18
102
RTVSPost2010Prop41ColorRGB
 90
        0
102
RTVSPost2010PropOp41
 70
     1
102
RTVSPost2010Prop42
 90
       50
102
RTVSPost2010PropOp42
 70
     1
102
RTVSPost2010Prop43
 90
        3
102
RTVSPost2010PropOp43
 70
     1
102
RTVSPost2010Prop44ColorIndex
 90
        5
102
RTVSPost2010Prop44ColorRGB
 90
      255
102
RTVSPost2010PropOp44
 70
     1
102
RTVSPost2010Prop45
280
     0
102
RTVSPost2010PropOp45
 70
     1
102
RTVSPost2010Prop46
 90
       50
102
RTVSPost2010PropOp46
 70
     1
102
RTVSPost2010Prop47
 90
       50
102
RTVSPost2010PropOp47
 70
     1
102
RTVSPost2010Prop48
 90
       50
102
RTVSPost2010PropOp48
 70
     1
102
RTVSPost2010Prop49
280
     0
102
RTVSPost2010PropOp49
 70
     1
102
RTVSPost2010Prop50
 90
       50
102
RTVSPost2010PropOp50
 70
     1
102
RTVSPost2010Prop51ColorIndex
 90
      256
102
RTVSPost2010Prop51ColorRGB
 90
-16777216
102
RTVSPost2010PropOp51
 70
     0
102
RTVSPost2010Prop52
140
1.0
102
RTVSPost2010PropOp52
 70
     0
102
RTVSPost2010Prop53
 90
        2
102
RTVSPost2010PropOp53
 70
     1
102
RTVSPost2010Prop54
  1
strokes_ogs.tif
102
RTVSPost2010PropOp54
 70
     1
102
RTVSPost2010Prop55
280
     0
102
RTVSPost2010PropOp55
 70
     1
102
RTVSPost2010Prop56
140
1.0
102
RTVSPost2010PropOp56
 70
     1
102
RTVSPost2010Prop57
140
1.0
102
RTVSPost2010PropOp57
 70
     1
102
RTVSPropertyOp0
 70
     1
102
RTVSPropertyOp1
 70
     1
102
RTVSPropertyOp2
 70
     1
102
RTVSPropertyOp3
 70
     1
102
RTVSPropertyOp4
 70
     1
102
RTVSPropertyOp5
 70
     1
102
RTVSPropertyOp6
 70
     1
102
RTVSPropertyOp7
 70
     1
102
RTVSPropertyOp8
 70
     1
102
RTVSPropertyOp9
 70
     1
102
RTVSPropertyOp10
 70
     1
102
RTVSPropertyOp11
 70
     1
102
RTVSPropertyOp12
 70
     1
102
RTVSPropertyOp13
 70
     1
102
RTVSPropertyOp14
 70
     1
102
RTVSPropertyOp15
 70
     1
102
RTVSPropertyOp16
 70
     1
102
RTVSPropertyOp17
 70
     1
102
RTVSPropertyOp18
 70
     1
102
RTVSPropertyOp19
 70
     1
102
RTVSPropertyOp20
 70
     1
102
RTVSPropertyOp21
 70
     1
102
RTVSPropertyOp22
 70
     1
102
RTVSPropertyOp23
 70
     1
102
RTVSPropertyOp24
 70
     1
102
RTVSPropertyOp25
 70
     1
102
RTVSPropertyOp26
 70
     1
102
RTVSPropertyOp27
 70
     1
102
RTVSPropertyOp28
 70
     1
102
RTVSPropertyOp29
 70
     1
102
RTVSPropertyOp30
 70
     1
102
RTVSPropertyOp31
 70
     1
102
RTVSPropertyOp32
 70
     1
102
RTVSPropertyOp33
 70
     1
102
RTVSPropertyOp34
 70
     1
102
RTVSPropertyOp35
 70
     1
102
RTVSPropertyOp36
 70
     1
102
RTVSPropertyOp37
 70
     1
102
RTVSPropertyOp38
 70
     1
102
RTVSPropertyOp39
 70
     1
102
RTVSPropertyOp40
 70
     1
102
RTVSPropertyOp41
 70
     1
102
RTVSPropertyOp42
 70
     1
102
RTVSPropertyOp43
 70
     1
102
RTVSPropertyOp44
 70
     1
102
RTVSPropertyOp45
 70
     1
102
RTVSPropertyOp46
 70
     1
102
RTVSPropertyOp47
 70
     1
102
RTVSPropertyOp48
 70
     1
102
RTVSPropertyOp49
 70
     1
102
RTVSPropertyOp50
 70
     1
102
RTVSPropertyOp51
 70
     0
102
RTVSPropertyOp52
 70
     0
102
RTVSPropertyOp53
 70
     1
102
RTVSPropertyOp54
 70
     1
102
RTVSPropertyOp55
 70
     1
102
RTVSPropertyOp56
 70
     1
102
RTVSPropertyOp57
 70
     1
102
RTVSPropertyOp58
 70
     1
102
RTVSPropertyOp59
 70
     1
102
RTVSPropertyOp60
 70
     1
102
RTVSPropertyOp61
 70
     1
102
RTVSPropertyOp62
 70
     1
  0
XRECORD
  5
2166
102
{ACAD_REACTORS
330
2165
102
}
330
2165
100
AcDbXrecord
280
     1
102
RTVSPost2010Prop28
280
     0
102
RTVSPost2010PropOp28
 70
     1
102
RTVSPost2010Prop29
280
     1
102
RTVSPost2010PropOp29
 70
     1
102
RTVSPost2010Prop30
280
     1
102
RTVSPost2010PropOp30
 70
     1
102
RTVSPost2010Prop31
280
     0
102
RTVSPost2010PropOp31
 70
     1
102
RTVSPost2010Prop32
280
     0
102
RTVSPost2010PropOp32
 70
     1
102
RTVSPost2010Prop33
280
     0
102
RTVSPost2010PropOp33
 70
     1
102
RTVSPost2010Prop34
280
     0
102
RTVSPost2010PropOp34
 70
     1
102
RTVSPost2010Prop35
280
     0
102
RTVSPost2010PropOp35
 70
     1
102
RTVSPost2010Prop36
280
     0
102
RTVSPost2010PropOp36
 70
     1
102
RTVSPost2010Prop37
 90
       50
102
RTVSPost2010PropOp37
 70
     1
102
RTVSPost2010Prop38
140
0.0
102
RTVSPost2010PropOp38
 70
     1
102
RTVSPost2010Prop39
140
1.0
102
RTVSPost2010PropOp39
 70
     1
102
RTVSPost2010Prop40
 90
        0
102
RTVSPost2010PropOp40
 70
     1
102
RTVSPost2010Prop41ColorIndex
 90
       18
102
RTVSPost2010Prop41ColorRGB
 90
        0
102
RTVSPost2010PropOp41
 70
     1
102
RTVSPost2010Prop42
 90
       50
102
RTVSPost2010PropOp42
 70
     1
102
RTVSPost2010Prop43
 90
        3
102
RTVSPost2010PropOp43
 70
     1
102
RTVSPost2010Prop44ColorIndex
 90
        5
102
RTVSPost2010Prop44ColorRGB
 90
      255
102
RTVSPost2010PropOp44
 70
     1
102
RTVSPost2010Prop45
280
     0
102
RTVSPost2010PropOp45
 70
     1
102
RTVSPost2010Prop46
 90
       50
102
RTVSPost2010PropOp46
 70
     1
102
RTVSPost2010Prop47
 90
       50
102
RTVSPost2010PropOp47
 70
     1
102
RTVSPost2010Prop48
 90
       50
102
RTVSPost2010PropOp48
 70
     1
102
RTVSPost2010Prop49
280
     0
102
RTVSPost2010PropOp49
 70
     1
102
RTVSPost2010Prop50
 90
       50
102
RTVSPost2010PropOp50
 70
     1
102
RTVSPost2010Prop51ColorIndex
 90
      256
102
RTVSPost2010Prop51ColorRGB
 90
-16777216
102
RTVSPost2010PropOp51
 70
     0
102
RTVSPost2010Prop52
140
1.0
102
RTVSPost2010PropOp52
 70
     0
102
RTVSPost2010Prop53
 90
        2
102
RTVSPost2010PropOp53
 70
     1
102
RTVSPost2010Prop54
  1
strokes_ogs.tif
102
RTVSPost2010PropOp54
 70
     1
102
RTVSPost2010Prop55
280
     0
102
RTVSPost2010PropOp55
 70
     1
102
RTVSPost2010Prop56
140
1.0
102
RTVSPost2010PropOp56
 70
     1
102
RTVSPost2010Prop57
140
1.0
102
RTVSPost2010PropOp57
 70
     1
102
RTVSPropertyOp0
 70
     1
102
RTVSPropertyOp1
 70
     1
102
RTVSPropertyOp2
 70
     1
102
RTVSPropertyOp3
 70
     1
102
RTVSPropertyOp4
 70
     1
102
RTVSPropertyOp5
 70
     1
102
RTVSPropertyOp6
 70
     1
102
RTVSPropertyOp7
 70
     1
102
RTVSPropertyOp8
 70
     1
102
RTVSPropertyOp9
 70
     1
102
RTVSPropertyOp10
 70
     1
102
RTVSPropertyOp11
 70
     1
102
RTVSPropertyOp12
 70
     1
102
RTVSPropertyOp13
 70
     1
102
RTVSPropertyOp14
 70
     1
102
RTVSPropertyOp15
 70
     1
102
RTVSPropertyOp16
 70
     1
102
RTVSPropertyOp17
 70
     1
102
RTVSPropertyOp18
 70
     1
102
RTVSPropertyOp19
 70
     1
102
RTVSPropertyOp20
 70
     1
102
RTVSPropertyOp21
 70
     1
102
RTVSPropertyOp22
 70
     1
102
RTVSPropertyOp23
 70
     1
102
RTVSPropertyOp24
 70
     1
102
RTVSPropertyOp25
 70
     1
102
RTVSPropertyOp26
 70
     1
102
RTVSPropertyOp27
 70
     1
102
RTVSPropertyOp28
 70
     1
102
RTVSPropertyOp29
 70
     1
102
RTVSPropertyOp30
 70
     1
102
RTVSPropertyOp31
 70
     1
102
RTVSPropertyOp32
 70
     1
102
RTVSPropertyOp33
 70
     1
102
RTVSPropertyOp34
 70
     1
102
RTVSPropertyOp35
 70
     1
102
RTVSPropertyOp36
 70
     1
102
RTVSPropertyOp37
 70
     1
102
RTVSPropertyOp38
 70
     1
102
RTVSPropertyOp39
 70
     1
102
RTVSPropertyOp40
 70
     1
102
RTVSPropertyOp41
 70
     1
102
RTVSPropertyOp42
 70
     1
102
RTVSPropertyOp43
 70
     1
102
RTVSPropertyOp44
 70
     1
102
RTVSPropertyOp45
 70
     1
102
RTVSPropertyOp46
 70
     1
102
RTVSPropertyOp47
 70
     1
102
RTVSPropertyOp48
 70
     1
102
RTVSPropertyOp49
 70
     1
102
RTVSPropertyOp50
 70
     1
102
RTVSPropertyOp51
 70
     0
102
RTVSPropertyOp52
 70
     0
102
RTVSPropertyOp53
 70
     1
102
RTVSPropertyOp54
 70
     1
102
RTVSPropertyOp55
 70
     1
102
RTVSPropertyOp56
 70
     1
102
RTVSPropertyOp57
 70
     1
102
RTVSPropertyOp58
 70
     1
102
RTVSPropertyOp59
 70
     1
102
RTVSPropertyOp60
 70
     1
102
RTVSPropertyOp61
 70
     1
102
RTVSPropertyOp62
 70
     1
  0
XRECORD
  5
2168
102
{ACAD_REACTORS
330
2167
102
}
330
2167
100
AcDbXrecord
280
     1
102
RTVSPost2010Prop28
280
     0
102
RTVSPost2010PropOp28
 70
     1
102
RTVSPost2010Prop29
280
     1
102
RTVSPost2010PropOp29
 70
     1
102
RTVSPost2010Prop30
280
     1
102
RTVSPost2010PropOp30
 70
     1
102
RTVSPost2010Prop31
280
     0
102
RTVSPost2010PropOp31
 70
     1
102
RTVSPost2010Prop32
280
     0
102
RTVSPost2010PropOp32
 70
     1
102
RTVSPost2010Prop33
280
     0
102
RTVSPost2010PropOp33
 70
     1
102
RTVSPost2010Prop34
280
     0
102
RTVSPost2010PropOp34
 70
     1
102
RTVSPost2010Prop35
280
     0
102
RTVSPost2010PropOp35
 70
     1
102
RTVSPost2010Prop36
280
     0
102
RTVSPost2010PropOp36
 70
     1
102
RTVSPost2010Prop37
 90
       50
102
RTVSPost2010PropOp37
 70
     1
102
RTVSPost2010Prop38
140
0.0
102
RTVSPost2010PropOp38
 70
     1
102
RTVSPost2010Prop39
140
1.0
102
RTVSPost2010PropOp39
 70
     1
102
RTVSPost2010Prop40
 90
        0
102
RTVSPost2010PropOp40
 70
     1
102
RTVSPost2010Prop41ColorIndex
 90
       18
102
RTVSPost2010Prop41ColorRGB
 90
        0
102
RTVSPost2010PropOp41
 70
     1
102
RTVSPost2010Prop42
 90
       50
102
RTVSPost2010PropOp42
 70
     1
102
RTVSPost2010Prop43
 90
        3
102
RTVSPost2010PropOp43
 70
     1
102
RTVSPost2010Prop44ColorIndex
 90
        5
102
RTVSPost2010Prop44ColorRGB
 90
      255
102
RTVSPost2010PropOp44
 70
     1
102
RTVSPost2010Prop45
280
     0
102
RTVSPost2010PropOp45
 70
     1
102
RTVSPost2010Prop46
 90
       50
102
RTVSPost2010PropOp46
 70
     1
102
RTVSPost2010Prop47
 90
       50
102
RTVSPost2010PropOp47
 70
     1
102
RTVSPost2010Prop48
 90
       50
102
RTVSPost2010PropOp48
 70
     1
102
RTVSPost2010Prop49
280
     0
102
RTVSPost2010PropOp49
 70
     1
102
RTVSPost2010Prop50
 90
       50
102
RTVSPost2010PropOp50
 70
     1
102
RTVSPost2010Prop51ColorIndex
 90
      256
102
RTVSPost2010Prop51ColorRGB
 90
-16777216
102
RTVSPost2010PropOp51
 70
     0
102
RTVSPost2010Prop52
140
1.0
102
RTVSPost2010PropOp52
 70
     0
102
RTVSPost2010Prop53
 90
        2
102
RTVSPost2010PropOp53
 70
     1
102
RTVSPost2010Prop54
  1
strokes_ogs.tif
102
RTVSPost2010PropOp54
 70
     1
102
RTVSPost2010Prop55
280
     0
102
RTVSPost2010PropOp55
 70
     1
102
RTVSPost2010Prop56
140
1.0
102
RTVSPost2010PropOp56
 70
     1
102
RTVSPost2010Prop57
140
1.0
102
RTVSPost2010PropOp57
 70
     1
102
RTVSPropertyOp0
 70
     1
102
RTVSPropertyOp1
 70
     1
102
RTVSPropertyOp2
 70
     1
102
RTVSPropertyOp3
 70
     1
102
RTVSPropertyOp4
 70
     1
102
RTVSPropertyOp5
 70
     1
102
RTVSPropertyOp6
 70
     1
102
RTVSPropertyOp7
 70
     1
102
RTVSPropertyOp8
 70
     1
102
RTVSPropertyOp9
 70
     1
102
RTVSPropertyOp10
 70
     1
102
RTVSPropertyOp11
 70
     1
102
RTVSPropertyOp12
 70
     1
102
RTVSPropertyOp13
 70
     1
102
RTVSPropertyOp14
 70
     1
102
RTVSPropertyOp15
 70
     1
102
RTVSPropertyOp16
 70
     1
102
RTVSPropertyOp17
 70
     1
102
RTVSPropertyOp18
 70
     1
102
RTVSPropertyOp19
 70
     1
102
RTVSPropertyOp20
 70
     1
102
RTVSPropertyOp21
 70
     1
102
RTVSPropertyOp22
 70
     1
102
RTVSPropertyOp23
 70
     1
102
RTVSPropertyOp24
 70
     1
102
RTVSPropertyOp25
 70
     1
102
RTVSPropertyOp26
 70
     1
102
RTVSPropertyOp27
 70
     1
102
RTVSPropertyOp28
 70
     1
102
RTVSPropertyOp29
 70
     1
102
RTVSPropertyOp30
 70
     1
102
RTVSPropertyOp31
 70
     1
102
RTVSPropertyOp32
 70
     1
102
RTVSPropertyOp33
 70
     1
102
RTVSPropertyOp34
 70
     1
102
RTVSPropertyOp35
 70
     1
102
RTVSPropertyOp36
 70
     1
102
RTVSPropertyOp37
 70
     1
102
RTVSPropertyOp38
 70
     1
102
RTVSPropertyOp39
 70
     1
102
RTVSPropertyOp40
 70
     1
102
RTVSPropertyOp41
 70
     1
102
RTVSPropertyOp42
 70
     1
102
RTVSPropertyOp43
 70
     1
102
RTVSPropertyOp44
 70
     1
102
RTVSPropertyOp45
 70
     1
102
RTVSPropertyOp46
 70
     1
102
RTVSPropertyOp47
 70
     1
102
RTVSPropertyOp48
 70
     1
102
RTVSPropertyOp49
 70
     1
102
RTVSPropertyOp50
 70
     1
102
RTVSPropertyOp51
 70
     0
102
RTVSPropertyOp52
 70
     0
102
RTVSPropertyOp53
 70
     1
102
RTVSPropertyOp54
 70
     1
102
RTVSPropertyOp55
 70
     1
102
RTVSPropertyOp56
 70
     1
102
RTVSPropertyOp57
 70
     1
102
RTVSPropertyOp58
 70
     1
102
RTVSPropertyOp59
 70
     1
102
RTVSPropertyOp60
 70
     1
102
RTVSPropertyOp61
 70
     1
102
RTVSPropertyOp62
 70
     1
  0
XRECORD
  5
2170
102
{ACAD_REACTORS
330
216F
102
}
330
216F
100
AcDbXrecord
280
     1
102
RTVSPost2010Prop28
280
     0
102
RTVSPost2010PropOp28
 70
     1
102
RTVSPost2010Prop29
280
     1
102
RTVSPost2010PropOp29
 70
     1
102
RTVSPost2010Prop30
280
     1
102
RTVSPost2010PropOp30
 70
     1
102
RTVSPost2010Prop31
280
     0
102
RTVSPost2010PropOp31
 70
     1
102
RTVSPost2010Prop32
280
     0
102
RTVSPost2010PropOp32
 70
     1
102
RTVSPost2010Prop33
280
     0
102
RTVSPost2010PropOp33
 70
     1
102
RTVSPost2010Prop34
280
     0
102
RTVSPost2010PropOp34
 70
     1
102
RTVSPost2010Prop35
280
     0
102
RTVSPost2010PropOp35
 70
     1
102
RTVSPost2010Prop36
280
     0
102
RTVSPost2010PropOp36
 70
     1
102
RTVSPost2010Prop37
 90
       50
102
RTVSPost2010PropOp37
 70
     1
102
RTVSPost2010Prop38
140
0.0
102
RTVSPost2010PropOp38
 70
     1
102
RTVSPost2010Prop39
140
1.0
102
RTVSPost2010PropOp39
 70
     1
102
RTVSPost2010Prop40
 90
        0
102
RTVSPost2010PropOp40
 70
     1
102
RTVSPost2010Prop41ColorIndex
 90
       18
102
RTVSPost2010Prop41ColorRGB
 90
        0
102
RTVSPost2010PropOp41
 70
     1
102
RTVSPost2010Prop42
 90
       50
102
RTVSPost2010PropOp42
 70
     1
102
RTVSPost2010Prop43
 90
        3
102
RTVSPost2010PropOp43
 70
     1
102
RTVSPost2010Prop44ColorIndex
 90
        5
102
RTVSPost2010Prop44ColorRGB
 90
      255
102
RTVSPost2010PropOp44
 70
     1
102
RTVSPost2010Prop45
280
     0
102
RTVSPost2010PropOp45
 70
     1
102
RTVSPost2010Prop46
 90
       50
102
RTVSPost2010PropOp46
 70
     1
102
RTVSPost2010Prop47
 90
       50
102
RTVSPost2010PropOp47
 70
     1
102
RTVSPost2010Prop48
 90
       50
102
RTVSPost2010PropOp48
 70
     1
102
RTVSPost2010Prop49
280
     0
102
RTVSPost2010PropOp49
 70
     1
102
RTVSPost2010Prop50
 90
       50
102
RTVSPost2010PropOp50
 70
     1
102
RTVSPost2010Prop51ColorIndex
 90
      256
102
RTVSPost2010Prop51ColorRGB
 90
-16777216
102
RTVSPost2010PropOp51
 70
     0
102
RTVSPost2010Prop52
140
1.0
102
RTVSPost2010PropOp52
 70
     0
102
RTVSPost2010Prop53
 90
        2
102
RTVSPost2010PropOp53
 70
     1
102
RTVSPost2010Prop54
  1
strokes_ogs.tif
102
RTVSPost2010PropOp54
 70
     1
102
RTVSPost2010Prop55
280
     0
102
RTVSPost2010PropOp55
 70
     1
102
RTVSPost2010Prop56
140
1.0
102
RTVSPost2010PropOp56
 70
     1
102
RTVSPost2010Prop57
140
1.0
102
RTVSPost2010PropOp57
 70
     1
102
RTVSPropertyOp0
 70
     1
102
RTVSPropertyOp1
 70
     1
102
RTVSPropertyOp2
 70
     1
102
RTVSPropertyOp3
 70
     1
102
RTVSPropertyOp4
 70
     1
102
RTVSPropertyOp5
 70
     1
102
RTVSPropertyOp6
 70
     1
102
RTVSPropertyOp7
 70
     1
102
RTVSPropertyOp8
 70
     1
102
RTVSPropertyOp9
 70
     1
102
RTVSPropertyOp10
 70
     1
102
RTVSPropertyOp11
 70
     1
102
RTVSPropertyOp12
 70
     1
102
RTVSPropertyOp13
 70
     1
102
RTVSPropertyOp14
 70
     1
102
RTVSPropertyOp15
 70
     1
102
RTVSPropertyOp16
 70
     1
102
RTVSPropertyOp17
 70
     1
102
RTVSPropertyOp18
 70
     1
102
RTVSPropertyOp19
 70
     1
102
RTVSPropertyOp20
 70
     1
102
RTVSPropertyOp21
 70
     1
102
RTVSPropertyOp22
 70
     1
102
RTVSPropertyOp23
 70
     1
102
RTVSPropertyOp24
 70
     1
102
RTVSPropertyOp25
 70
     1
102
RTVSPropertyOp26
 70
     1
102
RTVSPropertyOp27
 70
     1
102
RTVSPropertyOp28
 70
     1
102
RTVSPropertyOp29
 70
     1
102
RTVSPropertyOp30
 70
     1
102
RTVSPropertyOp31
 70
     1
102
RTVSPropertyOp32
 70
     1
102
RTVSPropertyOp33
 70
     1
102
RTVSPropertyOp34
 70
     1
102
RTVSPropertyOp35
 70
     1
102
RTVSPropertyOp36
 70
     1
102
RTVSPropertyOp37
 70
     1
102
RTVSPropertyOp38
 70
     1
102
RTVSPropertyOp39
 70
     1
102
RTVSPropertyOp40
 70
     1
102
RTVSPropertyOp41
 70
     1
102
RTVSPropertyOp42
 70
     1
102
RTVSPropertyOp43
 70
     1
102
RTVSPropertyOp44
 70
     1
102
RTVSPropertyOp45
 70
     1
102
RTVSPropertyOp46
 70
     1
102
RTVSPropertyOp47
 70
     1
102
RTVSPropertyOp48
 70
     1
102
RTVSPropertyOp49
 70
     1
102
RTVSPropertyOp50
 70
     1
102
RTVSPropertyOp51
 70
     0
102
RTVSPropertyOp52
 70
     0
102
RTVSPropertyOp53
 70
     1
102
RTVSPropertyOp54
 70
     1
102
RTVSPropertyOp55
 70
     1
102
RTVSPropertyOp56
 70
     1
102
RTVSPropertyOp57
 70
     1
102
RTVSPropertyOp58
 70
     1
102
RTVSPropertyOp59
 70
     1
102
RTVSPropertyOp60
 70
     1
102
RTVSPropertyOp61
 70
     1
102
RTVSPropertyOp62
 70
     1
  0
XRECORD
  5
218C
102
{ACAD_REACTORS
330
218B
102
}
330
218B
100
AcDbXrecord
280
     1
102
RTVSPost2010Prop28
280
     0
102
RTVSPost2010PropOp28
 70
     1
102
RTVSPost2010Prop29
280
     1
102
RTVSPost2010PropOp29
 70
     1
102
RTVSPost2010Prop30
280
     1
102
RTVSPost2010PropOp30
 70
     1
102
RTVSPost2010Prop31
280
     0
102
RTVSPost2010PropOp31
 70
     1
102
RTVSPost2010Prop32
280
     0
102
RTVSPost2010PropOp32
 70
     1
102
RTVSPost2010Prop33
280
     0
102
RTVSPost2010PropOp33
 70
     1
102
RTVSPost2010Prop34
280
     0
102
RTVSPost2010PropOp34
 70
     1
102
RTVSPost2010Prop35
280
     0
102
RTVSPost2010PropOp35
 70
     1
102
RTVSPost2010Prop36
280
     0
102
RTVSPost2010PropOp36
 70
     1
102
RTVSPost2010Prop37
 90
       50
102
RTVSPost2010PropOp37
 70
     0
102
RTVSPost2010Prop38
140
0.0
102
RTVSPost2010PropOp38
 70
     0
102
RTVSPost2010Prop39
140
1.0
102
RTVSPost2010PropOp39
 70
     0
102
RTVSPost2010Prop40
 90
        0
102
RTVSPost2010PropOp40
 70
     0
102
RTVSPost2010Prop41ColorIndex
 90
       18
102
RTVSPost2010Prop41ColorRGB
 90
        0
102
RTVSPost2010PropOp41
 70
     0
102
RTVSPost2010Prop42
 90
       50
102
RTVSPost2010PropOp42
 70
     0
102
RTVSPost2010Prop43
 90
        3
102
RTVSPost2010PropOp43
 70
     0
102
RTVSPost2010Prop44ColorIndex
 90
        5
102
RTVSPost2010Prop44ColorRGB
 90
      255
102
RTVSPost2010PropOp44
 70
     0
102
RTVSPost2010Prop45
280
     0
102
RTVSPost2010PropOp45
 70
     1
102
RTVSPost2010Prop46
 90
       50
102
RTVSPost2010PropOp46
 70
     0
102
RTVSPost2010Prop47
 90
       50
102
RTVSPost2010PropOp47
 70
     0
102
RTVSPost2010Prop48
 90
       50
102
RTVSPost2010PropOp48
 70
     0
102
RTVSPost2010Prop49
280
     0
102
RTVSPost2010PropOp49
 70
     1
102
RTVSPost2010Prop50
 90
       50
102
RTVSPost2010PropOp50
 70
     0
102
RTVSPost2010Prop51ColorIndex
 90
      256
102
RTVSPost2010Prop51ColorRGB
 90
-16777216
102
RTVSPost2010PropOp51
 70
     0
102
RTVSPost2010Prop52
140
1.0
102
RTVSPost2010PropOp52
 70
     0
102
RTVSPost2010Prop53
 90
        2
102
RTVSPost2010PropOp53
 70
     0
102
RTVSPost2010Prop54
  1
strokes_ogs.tif
102
RTVSPost2010PropOp54
 70
     0
102
RTVSPost2010Prop55
280
     0
102
RTVSPost2010PropOp55
 70
     1
102
RTVSPost2010Prop56
140
1.0
102
RTVSPost2010PropOp56
 70
     0
102
RTVSPost2010Prop57
140
1.0
102
RTVSPost2010PropOp57
 70
     0
102
RTVSPropertyOp0
 70
     0
102
RTVSPropertyOp1
 70
     0
102
RTVSPropertyOp2
 70
     0
102
RTVSPropertyOp3
 70
     0
102
RTVSPropertyOp4
 70
     0
102
RTVSPropertyOp5
 70
     0
102
RTVSPropertyOp6
 70
     0
102
RTVSPropertyOp7
 70
     0
102
RTVSPropertyOp8
 70
     0
102
RTVSPropertyOp9
 70
     0
102
RTVSPropertyOp10
 70
     0
102
RTVSPropertyOp11
 70
     0
102
RTVSPropertyOp12
 70
     0
102
RTVSPropertyOp13
 70
     0
102
RTVSPropertyOp14
 70
     2
102
RTVSPropertyOp15
 70
     0
102
RTVSPropertyOp16
 70
     0
102
RTVSPropertyOp17
 70
     0
102
RTVSPropertyOp18
 70
     0
102
RTVSPropertyOp19
 70
     0
102
RTVSPropertyOp20
 70
     0
102
RTVSPropertyOp21
 70
     0
102
RTVSPropertyOp22
 70
     0
102
RTVSPropertyOp23
 70
     0
102
RTVSPropertyOp24
 70
     0
102
RTVSPropertyOp25
 70
     0
102
RTVSPropertyOp26
 70
     0
102
RTVSPropertyOp27
 70
     0
102
RTVSPropertyOp28
 70
     1
102
RTVSPropertyOp29
 70
     1
102
RTVSPropertyOp30
 70
     1
102
RTVSPropertyOp31
 70
     1
102
RTVSPropertyOp32
 70
     1
102
RTVSPropertyOp33
 70
     1
102
RTVSPropertyOp34
 70
     1
102
RTVSPropertyOp35
 70
     1
102
RTVSPropertyOp36
 70
     1
102
RTVSPropertyOp37
 70
     0
102
RTVSPropertyOp38
 70
     0
102
RTVSPropertyOp39
 70
     0
102
RTVSPropertyOp40
 70
     0
102
RTVSPropertyOp41
 70
     0
102
RTVSPropertyOp42
 70
     0
102
RTVSPropertyOp43
 70
     0
102
RTVSPropertyOp44
 70
     0
102
RTVSPropertyOp45
 70
     1
102
RTVSPropertyOp46
 70
     0
102
RTVSPropertyOp47
 70
     0
102
RTVSPropertyOp48
 70
     0
102
RTVSPropertyOp49
 70
     1
102
RTVSPropertyOp50
 70
     0
102
RTVSPropertyOp51
 70
     0
102
RTVSPropertyOp52
 70
     0
102
RTVSPropertyOp53
 70
     0
102
RTVSPropertyOp54
 70
     0
102
RTVSPropertyOp55
 70
     1
102
RTVSPropertyOp56
 70
     0
102
RTVSPropertyOp57
 70
     0
102
RTVSPropertyOp58
 70
     1
102
RTVSPropertyOp59
 70
     1
102
RTVSPropertyOp60
 70
     1
102
RTVSPropertyOp61
 70
     1
102
RTVSPropertyOp62
 70
     1
  0
XRECORD
  5
217C
102
{ACAD_REACTORS
330
217B
102
}
330
217B
100
AcDbXrecord
280
     1
102
RTVSPost2010Prop28
280
     0
102
RTVSPost2010PropOp28
 70
     1
102
RTVSPost2010Prop29
280
     1
102
RTVSPost2010PropOp29
 70
     1
102
RTVSPost2010Prop30
280
     1
102
RTVSPost2010PropOp30
 70
     1
102
RTVSPost2010Prop31
280
     0
102
RTVSPost2010PropOp31
 70
     1
102
RTVSPost2010Prop32
280
     0
102
RTVSPost2010PropOp32
 70
     1
102
RTVSPost2010Prop33
280
     0
102
RTVSPost2010PropOp33
 70
     1
102
RTVSPost2010Prop34
280
     0
102
RTVSPost2010PropOp34
 70
     1
102
RTVSPost2010Prop35
280
     0
102
RTVSPost2010PropOp35
 70
     1
102
RTVSPost2010Prop36
280
     0
102
RTVSPost2010PropOp36
 70
     1
102
RTVSPost2010Prop37
 90
       50
102
RTVSPost2010PropOp37
 70
     1
102
RTVSPost2010Prop38
140
0.0
102
RTVSPost2010PropOp38
 70
     1
102
RTVSPost2010Prop39
140
1.0
102
RTVSPost2010PropOp39
 70
     1
102
RTVSPost2010Prop40
 90
        0
102
RTVSPost2010PropOp40
 70
     1
102
RTVSPost2010Prop41ColorIndex
 90
       18
102
RTVSPost2010Prop41ColorRGB
 90
        0
102
RTVSPost2010PropOp41
 70
     1
102
RTVSPost2010Prop42
 90
       50
102
RTVSPost2010PropOp42
 70
     1
102
RTVSPost2010Prop43
 90
        3
102
RTVSPost2010PropOp43
 70
     1
102
RTVSPost2010Prop44ColorIndex
 90
        5
102
RTVSPost2010Prop44ColorRGB
 90
      255
102
RTVSPost2010PropOp44
 70
     1
102
RTVSPost2010Prop45
280
     0
102
RTVSPost2010PropOp45
 70
     1
102
RTVSPost2010Prop46
 90
       50
102
RTVSPost2010PropOp46
 70
     1
102
RTVSPost2010Prop47
 90
       50
102
RTVSPost2010PropOp47
 70
     1
102
RTVSPost2010Prop48
 90
       50
102
RTVSPost2010PropOp48
 70
     1
102
RTVSPost2010Prop49
280
     0
102
RTVSPost2010PropOp49
 70
     1
102
RTVSPost2010Prop50
 90
       50
102
RTVSPost2010PropOp50
 70
     1
102
RTVSPost2010Prop51ColorIndex
 90
      256
102
RTVSPost2010Prop51ColorRGB
 90
-16777216
102
RTVSPost2010PropOp51
 70
     0
102
RTVSPost2010Prop52
140
1.0
102
RTVSPost2010PropOp52
 70
     0
102
RTVSPost2010Prop53
 90
        2
102
RTVSPost2010PropOp53
 70
     1
102
RTVSPost2010Prop54
  1
strokes_ogs.tif
102
RTVSPost2010PropOp54
 70
     1
102
RTVSPost2010Prop55
280
     0
102
RTVSPost2010PropOp55
 70
     1
102
RTVSPost2010Prop56
140
1.0
102
RTVSPost2010PropOp56
 70
     1
102
RTVSPost2010Prop57
140
1.0
102
RTVSPost2010PropOp57
 70
     1
102
RTVSPropertyOp0
 70
     1
102
RTVSPropertyOp1
 70
     1
102
RTVSPropertyOp2
 70
     1
102
RTVSPropertyOp3
 70
     1
102
RTVSPropertyOp4
 70
     1
102
RTVSPropertyOp5
 70
     1
102
RTVSPropertyOp6
 70
     1
102
RTVSPropertyOp7
 70
     1
102
RTVSPropertyOp8
 70
     1
102
RTVSPropertyOp9
 70
     1
102
RTVSPropertyOp10
 70
     1
102
RTVSPropertyOp11
 70
     1
102
RTVSPropertyOp12
 70
     1
102
RTVSPropertyOp13
 70
     1
102
RTVSPropertyOp14
 70
     1
102
RTVSPropertyOp15
 70
     1
102
RTVSPropertyOp16
 70
     1
102
RTVSPropertyOp17
 70
     1
102
RTVSPropertyOp18
 70
     1
102
RTVSPropertyOp19
 70
     1
102
RTVSPropertyOp20
 70
     1
102
RTVSPropertyOp21
 70
     1
102
RTVSPropertyOp22
 70
     1
102
RTVSPropertyOp23
 70
     1
102
RTVSPropertyOp24
 70
     1
102
RTVSPropertyOp25
 70
     1
102
RTVSPropertyOp26
 70
     1
102
RTVSPropertyOp27
 70
     1
102
RTVSPropertyOp28
 70
     1
102
RTVSPropertyOp29
 70
     1
102
RTVSPropertyOp30
 70
     1
102
RTVSPropertyOp31
 70
     1
102
RTVSPropertyOp32
 70
     1
102
RTVSPropertyOp33
 70
     1
102
RTVSPropertyOp34
 70
     1
102
RTVSPropertyOp35
 70
     1
102
RTVSPropertyOp36
 70
     1
102
RTVSPropertyOp37
 70
     1
102
RTVSPropertyOp38
 70
     1
102
RTVSPropertyOp39
 70
     1
102
RTVSPropertyOp40
 70
     1
102
RTVSPropertyOp41
 70
     1
102
RTVSPropertyOp42
 70
     1
102
RTVSPropertyOp43
 70
     1
102
RTVSPropertyOp44
 70
     1
102
RTVSPropertyOp45
 70
     1
102
RTVSPropertyOp46
 70
     1
102
RTVSPropertyOp47
 70
     1
102
RTVSPropertyOp48
 70
     1
102
RTVSPropertyOp49
 70
     1
102
RTVSPropertyOp50
 70
     1
102
RTVSPropertyOp51
 70
     0
102
RTVSPropertyOp52
 70
     0
102
RTVSPropertyOp53
 70
     1
102
RTVSPropertyOp54
 70
     1
102
RTVSPropertyOp55
 70
     1
102
RTVSPropertyOp56
 70
     1
102
RTVSPropertyOp57
 70
     1
102
RTVSPropertyOp58
 70
     1
102
RTVSPropertyOp59
 70
     1
102
RTVSPropertyOp60
 70
     1
102
RTVSPropertyOp61
 70
     1
102
RTVSPropertyOp62
 70
     1
  0
XRECORD
  5
218E
102
{ACAD_REACTORS
330
218D
102
}
330
218D
100
AcDbXrecord
280
     1
102
RTVSPost2010Prop28
280
     0
102
RTVSPost2010PropOp28
 70
     1
102
RTVSPost2010Prop29
280
     1
102
RTVSPost2010PropOp29
 70
     1
102
RTVSPost2010Prop30
280
     1
102
RTVSPost2010PropOp30
 70
     1
102
RTVSPost2010Prop31
280
     0
102
RTVSPost2010PropOp31
 70
     1
102
RTVSPost2010Prop32
280
     0
102
RTVSPost2010PropOp32
 70
     1
102
RTVSPost2010Prop33
280
     0
102
RTVSPost2010PropOp33
 70
     1
102
RTVSPost2010Prop34
280
     0
102
RTVSPost2010PropOp34
 70
     1
102
RTVSPost2010Prop35
280
     0
102
RTVSPost2010PropOp35
 70
     1
102
RTVSPost2010Prop36
280
     0
102
RTVSPost2010PropOp36
 70
     1
102
RTVSPost2010Prop37
 90
       50
102
RTVSPost2010PropOp37
 70
     0
102
RTVSPost2010Prop38
140
0.0
102
RTVSPost2010PropOp38
 70
     0
102
RTVSPost2010Prop39
140
1.0
102
RTVSPost2010PropOp39
 70
     0
102
RTVSPost2010Prop40
 90
        0
102
RTVSPost2010PropOp40
 70
     0
102
RTVSPost2010Prop41ColorIndex
 90
       18
102
RTVSPost2010Prop41ColorRGB
 90
        0
102
RTVSPost2010PropOp41
 70
     0
102
RTVSPost2010Prop42
 90
       50
102
RTVSPost2010PropOp42
 70
     0
102
RTVSPost2010Prop43
 90
        3
102
RTVSPost2010PropOp43
 70
     0
102
RTVSPost2010Prop44ColorIndex
 90
        5
102
RTVSPost2010Prop44ColorRGB
 90
      255
102
RTVSPost2010PropOp44
 70
     0
102
RTVSPost2010Prop45
280
     0
102
RTVSPost2010PropOp45
 70
     1
102
RTVSPost2010Prop46
 90
       50
102
RTVSPost2010PropOp46
 70
     0
102
RTVSPost2010Prop47
 90
       50
102
RTVSPost2010PropOp47
 70
     0
102
RTVSPost2010Prop48
 90
       50
102
RTVSPost2010PropOp48
 70
     0
102
RTVSPost2010Prop49
280
     0
102
RTVSPost2010PropOp49
 70
     1
102
RTVSPost2010Prop50
 90
       50
102
RTVSPost2010PropOp50
 70
     0
102
RTVSPost2010Prop51ColorIndex
 90
      256
102
RTVSPost2010Prop51ColorRGB
 90
-16777216
102
RTVSPost2010PropOp51
 70
     0
102
RTVSPost2010Prop52
140
1.0
102
RTVSPost2010PropOp52
 70
     0
102
RTVSPost2010Prop53
 90
        2
102
RTVSPost2010PropOp53
 70
     0
102
RTVSPost2010Prop54
  1
strokes_ogs.tif
102
RTVSPost2010PropOp54
 70
     0
102
RTVSPost2010Prop55
280
     0
102
RTVSPost2010PropOp55
 70
     1
102
RTVSPost2010Prop56
140
1.0
102
RTVSPost2010PropOp56
 70
     0
102
RTVSPost2010Prop57
140
1.0
102
RTVSPost2010PropOp57
 70
     0
102
RTVSPropertyOp0
 70
     0
102
RTVSPropertyOp1
 70
     0
102
RTVSPropertyOp2
 70
     0
102
RTVSPropertyOp3
 70
     0
102
RTVSPropertyOp4
 70
     0
102
RTVSPropertyOp5
 70
     0
102
RTVSPropertyOp6
 70
     0
102
RTVSPropertyOp7
 70
     0
102
RTVSPropertyOp8
 70
     0
102
RTVSPropertyOp9
 70
     0
102
RTVSPropertyOp10
 70
     0
102
RTVSPropertyOp11
 70
     0
102
RTVSPropertyOp12
 70
     0
102
RTVSPropertyOp13
 70
     0
102
RTVSPropertyOp14
 70
     2
102
RTVSPropertyOp15
 70
     0
102
RTVSPropertyOp16
 70
     0
102
RTVSPropertyOp17
 70
     0
102
RTVSPropertyOp18
 70
     0
102
RTVSPropertyOp19
 70
     0
102
RTVSPropertyOp20
 70
     0
102
RTVSPropertyOp21
 70
     0
102
RTVSPropertyOp22
 70
     0
102
RTVSPropertyOp23
 70
     0
102
RTVSPropertyOp24
 70
     0
102
RTVSPropertyOp25
 70
     0
102
RTVSPropertyOp26
 70
     0
102
RTVSPropertyOp27
 70
     0
102
RTVSPropertyOp28
 70
     1
102
RTVSPropertyOp29
 70
     1
102
RTVSPropertyOp30
 70
     1
102
RTVSPropertyOp31
 70
     1
102
RTVSPropertyOp32
 70
     1
102
RTVSPropertyOp33
 70
     1
102
RTVSPropertyOp34
 70
     1
102
RTVSPropertyOp35
 70
     1
102
RTVSPropertyOp36
 70
     1
102
RTVSPropertyOp37
 70
     0
102
RTVSPropertyOp38
 70
     0
102
RTVSPropertyOp39
 70
     0
102
RTVSPropertyOp40
 70
     0
102
RTVSPropertyOp41
 70
     0
102
RTVSPropertyOp42
 70
     0
102
RTVSPropertyOp43
 70
     0
102
RTVSPropertyOp44
 70
     0
102
RTVSPropertyOp45
 70
     1
102
RTVSPropertyOp46
 70
     0
102
RTVSPropertyOp47
 70
     0
102
RTVSPropertyOp48
 70
     0
102
RTVSPropertyOp49
 70
     1
102
RTVSPropertyOp50
 70
     0
102
RTVSPropertyOp51
 70
     0
102
RTVSPropertyOp52
 70
     0
102
RTVSPropertyOp53
 70
     0
102
RTVSPropertyOp54
 70
     0
102
RTVSPropertyOp55
 70
     1
102
RTVSPropertyOp56
 70
     0
102
RTVSPropertyOp57
 70
     0
102
RTVSPropertyOp58
 70
     1
102
RTVSPropertyOp59
 70
     1
102
RTVSPropertyOp60
 70
     1
102
RTVSPropertyOp61
 70
     1
102
RTVSPropertyOp62
 70
     1
  0
XRECORD
  5
2174
102
{ACAD_REACTORS
330
2173
102
}
330
2173
100
AcDbXrecord
280
     1
102
RTVSPost2010Prop28
280
     0
102
RTVSPost2010PropOp28
 70
     1
102
RTVSPost2010Prop29
280
     1
102
RTVSPost2010PropOp29
 70
     1
102
RTVSPost2010Prop30
280
     1
102
RTVSPost2010PropOp30
 70
     1
102
RTVSPost2010Prop31
280
     0
102
RTVSPost2010PropOp31
 70
     1
102
RTVSPost2010Prop32
280
     0
102
RTVSPost2010PropOp32
 70
     1
102
RTVSPost2010Prop33
280
     0
102
RTVSPost2010PropOp33
 70
     1
102
RTVSPost2010Prop34
280
     0
102
RTVSPost2010PropOp34
 70
     1
102
RTVSPost2010Prop35
280
     0
102
RTVSPost2010PropOp35
 70
     1
102
RTVSPost2010Prop36
280
     0
102
RTVSPost2010PropOp36
 70
     1
102
RTVSPost2010Prop37
 90
       50
102
RTVSPost2010PropOp37
 70
     1
102
RTVSPost2010Prop38
140
0.0
102
RTVSPost2010PropOp38
 70
     1
102
RTVSPost2010Prop39
140
1.0
102
RTVSPost2010PropOp39
 70
     1
102
RTVSPost2010Prop40
 90
        0
102
RTVSPost2010PropOp40
 70
     1
102
RTVSPost2010Prop41ColorIndex
 90
       18
102
RTVSPost2010Prop41ColorRGB
 90
        0
102
RTVSPost2010PropOp41
 70
     1
102
RTVSPost2010Prop42
 90
       50
102
RTVSPost2010PropOp42
 70
     1
102
RTVSPost2010Prop43
 90
        3
102
RTVSPost2010PropOp43
 70
     1
102
RTVSPost2010Prop44ColorIndex
 90
        5
102
RTVSPost2010Prop44ColorRGB
 90
      255
102
RTVSPost2010PropOp44
 70
     1
102
RTVSPost2010Prop45
280
     0
102
RTVSPost2010PropOp45
 70
     1
102
RTVSPost2010Prop46
 90
       50
102
RTVSPost2010PropOp46
 70
     1
102
RTVSPost2010Prop47
 90
       50
102
RTVSPost2010PropOp47
 70
     1
102
RTVSPost2010Prop48
 90
       50
102
RTVSPost2010PropOp48
 70
     1
102
RTVSPost2010Prop49
280
     0
102
RTVSPost2010PropOp49
 70
     1
102
RTVSPost2010Prop50
 90
       50
102
RTVSPost2010PropOp50
 70
     1
102
RTVSPost2010Prop51ColorIndex
 90
      256
102
RTVSPost2010Prop51ColorRGB
 90
-16777216
102
RTVSPost2010PropOp51
 70
     0
102
RTVSPost2010Prop52
140
1.0
102
RTVSPost2010PropOp52
 70
     0
102
RTVSPost2010Prop53
 90
        2
102
RTVSPost2010PropOp53
 70
     1
102
RTVSPost2010Prop54
  1
strokes_ogs.tif
102
RTVSPost2010PropOp54
 70
     1
102
RTVSPost2010Prop55
280
     0
102
RTVSPost2010PropOp55
 70
     1
102
RTVSPost2010Prop56
140
1.0
102
RTVSPost2010PropOp56
 70
     1
102
RTVSPost2010Prop57
140
1.0
102
RTVSPost2010PropOp57
 70
     1
102
RTVSPropertyOp0
 70
     1
102
RTVSPropertyOp1
 70
     1
102
RTVSPropertyOp2
 70
     1
102
RTVSPropertyOp3
 70
     1
102
RTVSPropertyOp4
 70
     1
102
RTVSPropertyOp5
 70
     1
102
RTVSPropertyOp6
 70
     1
102
RTVSPropertyOp7
 70
     1
102
RTVSPropertyOp8
 70
     1
102
RTVSPropertyOp9
 70
     1
102
RTVSPropertyOp10
 70
     1
102
RTVSPropertyOp11
 70
     1
102
RTVSPropertyOp12
 70
     1
102
RTVSPropertyOp13
 70
     1
102
RTVSPropertyOp14
 70
     1
102
RTVSPropertyOp15
 70
     1
102
RTVSPropertyOp16
 70
     1
102
RTVSPropertyOp17
 70
     1
102
RTVSPropertyOp18
 70
     1
102
RTVSPropertyOp19
 70
     1
102
RTVSPropertyOp20
 70
     1
102
RTVSPropertyOp21
 70
     1
102
RTVSPropertyOp22
 70
     1
102
RTVSPropertyOp23
 70
     1
102
RTVSPropertyOp24
 70
     1
102
RTVSPropertyOp25
 70
     1
102
RTVSPropertyOp26
 70
     1
102
RTVSPropertyOp27
 70
     1
102
RTVSPropertyOp28
 70
     1
102
RTVSPropertyOp29
 70
     1
102
RTVSPropertyOp30
 70
     1
102
RTVSPropertyOp31
 70
     1
102
RTVSPropertyOp32
 70
     1
102
RTVSPropertyOp33
 70
     1
102
RTVSPropertyOp34
 70
     1
102
RTVSPropertyOp35
 70
     1
102
RTVSPropertyOp36
 70
     1
102
RTVSPropertyOp37
 70
     1
102
RTVSPropertyOp38
 70
     1
102
RTVSPropertyOp39
 70
     1
102
RTVSPropertyOp40
 70
     1
102
RTVSPropertyOp41
 70
     1
102
RTVSPropertyOp42
 70
     1
102
RTVSPropertyOp43
 70
     1
102
RTVSPropertyOp44
 70
     1
102
RTVSPropertyOp45
 70
     1
102
RTVSPropertyOp46
 70
     1
102
RTVSPropertyOp47
 70
     1
102
RTVSPropertyOp48
 70
     1
102
RTVSPropertyOp49
 70
     1
102
RTVSPropertyOp50
 70
     1
102
RTVSPropertyOp51
 70
     0
102
RTVSPropertyOp52
 70
     0
102
RTVSPropertyOp53
 70
     1
102
RTVSPropertyOp54
 70
     1
102
RTVSPropertyOp55
 70
     1
102
RTVSPropertyOp56
 70
     1
102
RTVSPropertyOp57
 70
     1
102
RTVSPropertyOp58
 70
     1
102
RTVSPropertyOp59
 70
     1
102
RTVSPropertyOp60
 70
     1
102
RTVSPropertyOp61
 70
     1
102
RTVSPropertyOp62
 70
     1
  0
XRECORD
  5
218A
102
{ACAD_REACTORS
330
2189
102
}
330
2189
100
AcDbXrecord
280
     1
102
RTVSPost2010Prop28
280
     0
102
RTVSPost2010PropOp28
 70
     1
102
RTVSPost2010Prop29
280
     1
102
RTVSPost2010PropOp29
 70
     1
102
RTVSPost2010Prop30
280
     1
102
RTVSPost2010PropOp30
 70
     1
102
RTVSPost2010Prop31
280
     0
102
RTVSPost2010PropOp31
 70
     1
102
RTVSPost2010Prop32
280
     0
102
RTVSPost2010PropOp32
 70
     1
102
RTVSPost2010Prop33
280
     0
102
RTVSPost2010PropOp33
 70
     1
102
RTVSPost2010Prop34
280
     0
102
RTVSPost2010PropOp34
 70
     1
102
RTVSPost2010Prop35
280
     0
102
RTVSPost2010PropOp35
 70
     1
102
RTVSPost2010Prop36
280
     0
102
RTVSPost2010PropOp36
 70
     1
102
RTVSPost2010Prop37
 90
       50
102
RTVSPost2010PropOp37
 70
     1
102
RTVSPost2010Prop38
140
0.0
102
RTVSPost2010PropOp38
 70
     1
102
RTVSPost2010Prop39
140
1.0
102
RTVSPost2010PropOp39
 70
     1
102
RTVSPost2010Prop40
 90
        0
102
RTVSPost2010PropOp40
 70
     1
102
RTVSPost2010Prop41ColorIndex
 90
       18
102
RTVSPost2010Prop41ColorRGB
 90
        0
102
RTVSPost2010PropOp41
 70
     1
102
RTVSPost2010Prop42
 90
       50
102
RTVSPost2010PropOp42
 70
     1
102
RTVSPost2010Prop43
 90
        3
102
RTVSPost2010PropOp43
 70
     1
102
RTVSPost2010Prop44ColorIndex
 90
        5
102
RTVSPost2010Prop44ColorRGB
 90
      255
102
RTVSPost2010PropOp44
 70
     1
102
RTVSPost2010Prop45
280
     0
102
RTVSPost2010PropOp45
 70
     1
102
RTVSPost2010Prop46
 90
       50
102
RTVSPost2010PropOp46
 70
     1
102
RTVSPost2010Prop47
 90
       50
102
RTVSPost2010PropOp47
 70
     1
102
RTVSPost2010Prop48
 90
       50
102
RTVSPost2010PropOp48
 70
     1
102
RTVSPost2010Prop49
280
     0
102
RTVSPost2010PropOp49
 70
     1
102
RTVSPost2010Prop50
 90
       50
102
RTVSPost2010PropOp50
 70
     1
102
RTVSPost2010Prop51ColorIndex
 90
      256
102
RTVSPost2010Prop51ColorRGB
 90
-16777216
102
RTVSPost2010PropOp51
 70
     0
102
RTVSPost2010Prop52
140
1.0
102
RTVSPost2010PropOp52
 70
     0
102
RTVSPost2010Prop53
 90
        2
102
RTVSPost2010PropOp53
 70
     1
102
RTVSPost2010Prop54
  1
strokes_ogs.tif
102
RTVSPost2010PropOp54
 70
     1
102
RTVSPost2010Prop55
280
     0
102
RTVSPost2010PropOp55
 70
     1
102
RTVSPost2010Prop56
140
1.0
102
RTVSPost2010PropOp56
 70
     1
102
RTVSPost2010Prop57
140
1.0
102
RTVSPost2010PropOp57
 70
     1
102
RTVSPropertyOp0
 70
     1
102
RTVSPropertyOp1
 70
     1
102
RTVSPropertyOp2
 70
     1
102
RTVSPropertyOp3
 70
     1
102
RTVSPropertyOp4
 70
     1
102
RTVSPropertyOp5
 70
     1
102
RTVSPropertyOp6
 70
     1
102
RTVSPropertyOp7
 70
     1
102
RTVSPropertyOp8
 70
     1
102
RTVSPropertyOp9
 70
     1
102
RTVSPropertyOp10
 70
     1
102
RTVSPropertyOp11
 70
     1
102
RTVSPropertyOp12
 70
     1
102
RTVSPropertyOp13
 70
     1
102
RTVSPropertyOp14
 70
     1
102
RTVSPropertyOp15
 70
     1
102
RTVSPropertyOp16
 70
     1
102
RTVSPropertyOp17
 70
     1
102
RTVSPropertyOp18
 70
     1
102
RTVSPropertyOp19
 70
     1
102
RTVSPropertyOp20
 70
     1
102
RTVSPropertyOp21
 70
     1
102
RTVSPropertyOp22
 70
     1
102
RTVSPropertyOp23
 70
     1
102
RTVSPropertyOp24
 70
     1
102
RTVSPropertyOp25
 70
     1
102
RTVSPropertyOp26
 70
     1
102
RTVSPropertyOp27
 70
     1
102
RTVSPropertyOp28
 70
     1
102
RTVSPropertyOp29
 70
     1
102
RTVSPropertyOp30
 70
     1
102
RTVSPropertyOp31
 70
     1
102
RTVSPropertyOp32
 70
     1
102
RTVSPropertyOp33
 70
     1
102
RTVSPropertyOp34
 70
     1
102
RTVSPropertyOp35
 70
     1
102
RTVSPropertyOp36
 70
     1
102
RTVSPropertyOp37
 70
     1
102
RTVSPropertyOp38
 70
     1
102
RTVSPropertyOp39
 70
     1
102
RTVSPropertyOp40
 70
     1
102
RTVSPropertyOp41
 70
     1
102
RTVSPropertyOp42
 70
     1
102
RTVSPropertyOp43
 70
     1
102
RTVSPropertyOp44
 70
     1
102
RTVSPropertyOp45
 70
     1
102
RTVSPropertyOp46
 70
     1
102
RTVSPropertyOp47
 70
     1
102
RTVSPropertyOp48
 70
     1
102
RTVSPropertyOp49
 70
     1
102
RTVSPropertyOp50
 70
     1
102
RTVSPropertyOp51
 70
     0
102
RTVSPropertyOp52
 70
     0
102
RTVSPropertyOp53
 70
     1
102
RTVSPropertyOp54
 70
     1
102
RTVSPropertyOp55
 70
     1
102
RTVSPropertyOp56
 70
     1
102
RTVSPropertyOp57
 70
     1
102
RTVSPropertyOp58
 70
     1
102
RTVSPropertyOp59
 70
     1
102
RTVSPropertyOp60
 70
     1
102
RTVSPropertyOp61
 70
     1
102
RTVSPropertyOp62
 70
     1
  0
XRECORD
  5
2188
102
{ACAD_REACTORS
330
2187
102
}
330
2187
100
AcDbXrecord
280
     1
102
RTVSPost2010Prop28
280
     0
102
RTVSPost2010PropOp28
 70
     1
102
RTVSPost2010Prop29
280
     1
102
RTVSPost2010PropOp29
 70
     1
102
RTVSPost2010Prop30
280
     1
102
RTVSPost2010PropOp30
 70
     1
102
RTVSPost2010Prop31
280
     0
102
RTVSPost2010PropOp31
 70
     1
102
RTVSPost2010Prop32
280
     0
102
RTVSPost2010PropOp32
 70
     1
102
RTVSPost2010Prop33
280
     0
102
RTVSPost2010PropOp33
 70
     1
102
RTVSPost2010Prop34
280
     0
102
RTVSPost2010PropOp34
 70
     1
102
RTVSPost2010Prop35
280
     0
102
RTVSPost2010PropOp35
 70
     1
102
RTVSPost2010Prop36
280
     0
102
RTVSPost2010PropOp36
 70
     1
102
RTVSPost2010Prop37
 90
       50
102
RTVSPost2010PropOp37
 70
     1
102
RTVSPost2010Prop38
140
0.0
102
RTVSPost2010PropOp38
 70
     1
102
RTVSPost2010Prop39
140
1.0
102
RTVSPost2010PropOp39
 70
     1
102
RTVSPost2010Prop40
 90
        0
102
RTVSPost2010PropOp40
 70
     1
102
RTVSPost2010Prop41ColorIndex
 90
       18
102
RTVSPost2010Prop41ColorRGB
 90
        0
102
RTVSPost2010PropOp41
 70
     1
102
RTVSPost2010Prop42
 90
       50
102
RTVSPost2010PropOp42
 70
     1
102
RTVSPost2010Prop43
 90
        3
102
RTVSPost2010PropOp43
 70
     1
102
RTVSPost2010Prop44ColorIndex
 90
        5
102
RTVSPost2010Prop44ColorRGB
 90
      255
102
RTVSPost2010PropOp44
 70
     1
102
RTVSPost2010Prop45
280
     0
102
RTVSPost2010PropOp45
 70
     1
102
RTVSPost2010Prop46
 90
       50
102
RTVSPost2010PropOp46
 70
     1
102
RTVSPost2010Prop47
 90
       50
102
RTVSPost2010PropOp47
 70
     1
102
RTVSPost2010Prop48
 90
       50
102
RTVSPost2010PropOp48
 70
     1
102
RTVSPost2010Prop49
280
     0
102
RTVSPost2010PropOp49
 70
     1
102
RTVSPost2010Prop50
 90
       50
102
RTVSPost2010PropOp50
 70
     1
102
RTVSPost2010Prop51ColorIndex
 90
      256
102
RTVSPost2010Prop51ColorRGB
 90
-16777216
102
RTVSPost2010PropOp51
 70
     0
102
RTVSPost2010Prop52
140
1.0
102
RTVSPost2010PropOp52
 70
     0
102
RTVSPost2010Prop53
 90
        2
102
RTVSPost2010PropOp53
 70
     1
102
RTVSPost2010Prop54
  1
strokes_ogs.tif
102
RTVSPost2010PropOp54
 70
     1
102
RTVSPost2010Prop55
280
     0
102
RTVSPost2010PropOp55
 70
     1
102
RTVSPost2010Prop56
140
1.0
102
RTVSPost2010PropOp56
 70
     1
102
RTVSPost2010Prop57
140
1.0
102
RTVSPost2010PropOp57
 70
     1
102
RTVSPropertyOp0
 70
     1
102
RTVSPropertyOp1
 70
     1
102
RTVSPropertyOp2
 70
     1
102
RTVSPropertyOp3
 70
     1
102
RTVSPropertyOp4
 70
     1
102
RTVSPropertyOp5
 70
     1
102
RTVSPropertyOp6
 70
     1
102
RTVSPropertyOp7
 70
     1
102
RTVSPropertyOp8
 70
     1
102
RTVSPropertyOp9
 70
     1
102
RTVSPropertyOp10
 70
     1
102
RTVSPropertyOp11
 70
     1
102
RTVSPropertyOp12
 70
     1
102
RTVSPropertyOp13
 70
     1
102
RTVSPropertyOp14
 70
     1
102
RTVSPropertyOp15
 70
     1
102
RTVSPropertyOp16
 70
     1
102
RTVSPropertyOp17
 70
     1
102
RTVSPropertyOp18
 70
     1
102
RTVSPropertyOp19
 70
     1
102
RTVSPropertyOp20
 70
     1
102
RTVSPropertyOp21
 70
     1
102
RTVSPropertyOp22
 70
     1
102
RTVSPropertyOp23
 70
     1
102
RTVSPropertyOp24
 70
     1
102
RTVSPropertyOp25
 70
     1
102
RTVSPropertyOp26
 70
     1
102
RTVSPropertyOp27
 70
     1
102
RTVSPropertyOp28
 70
     1
102
RTVSPropertyOp29
 70
     1
102
RTVSPropertyOp30
 70
     1
102
RTVSPropertyOp31
 70
     1
102
RTVSPropertyOp32
 70
     1
102
RTVSPropertyOp33
 70
     1
102
RTVSPropertyOp34
 70
     1
102
RTVSPropertyOp35
 70
     1
102
RTVSPropertyOp36
 70
     1
102
RTVSPropertyOp37
 70
     1
102
RTVSPropertyOp38
 70
     1
102
RTVSPropertyOp39
 70
     1
102
RTVSPropertyOp40
 70
     1
102
RTVSPropertyOp41
 70
     1
102
RTVSPropertyOp42
 70
     1
102
RTVSPropertyOp43
 70
     1
102
RTVSPropertyOp44
 70
     1
102
RTVSPropertyOp45
 70
     1
102
RTVSPropertyOp46
 70
     1
102
RTVSPropertyOp47
 70
     1
102
RTVSPropertyOp48
 70
     1
102
RTVSPropertyOp49
 70
     1
102
RTVSPropertyOp50
 70
     1
102
RTVSPropertyOp51
 70
     0
102
RTVSPropertyOp52
 70
     0
102
RTVSPropertyOp53
 70
     1
102
RTVSPropertyOp54
 70
     1
102
RTVSPropertyOp55
 70
     1
102
RTVSPropertyOp56
 70
     1
102
RTVSPropertyOp57
 70
     1
102
RTVSPropertyOp58
 70
     1
102
RTVSPropertyOp59
 70
     1
102
RTVSPropertyOp60
 70
     1
102
RTVSPropertyOp61
 70
     1
102
RTVSPropertyOp62
 70
     1
  0
XRECORD
  5
2182
102
{ACAD_REACTORS
330
2181
102
}
330
2181
100
AcDbXrecord
280
     1
102
RTVSPost2010Prop28
280
     0
102
RTVSPost2010PropOp28
 70
     1
102
RTVSPost2010Prop29
280
     1
102
RTVSPost2010PropOp29
 70
     1
102
RTVSPost2010Prop30
280
     1
102
RTVSPost2010PropOp30
 70
     1
102
RTVSPost2010Prop31
280
     0
102
RTVSPost2010PropOp31
 70
     1
102
RTVSPost2010Prop32
280
     0
102
RTVSPost2010PropOp32
 70
     1
102
RTVSPost2010Prop33
280
     0
102
RTVSPost2010PropOp33
 70
     1
102
RTVSPost2010Prop34
280
     0
102
RTVSPost2010PropOp34
 70
     1
102
RTVSPost2010Prop35
280
     0
102
RTVSPost2010PropOp35
 70
     1
102
RTVSPost2010Prop36
280
     0
102
RTVSPost2010PropOp36
 70
     1
102
RTVSPost2010Prop37
 90
       50
102
RTVSPost2010PropOp37
 70
     1
102
RTVSPost2010Prop38
140
0.0
102
RTVSPost2010PropOp38
 70
     1
102
RTVSPost2010Prop39
140
1.0
102
RTVSPost2010PropOp39
 70
     1
102
RTVSPost2010Prop40
 90
        0
102
RTVSPost2010PropOp40
 70
     1
102
RTVSPost2010Prop41ColorIndex
 90
       18
102
RTVSPost2010Prop41ColorRGB
 90
        0
102
RTVSPost2010PropOp41
 70
     1
102
RTVSPost2010Prop42
 90
       50
102
RTVSPost2010PropOp42
 70
     1
102
RTVSPost2010Prop43
 90
        3
102
RTVSPost2010PropOp43
 70
     1
102
RTVSPost2010Prop44ColorIndex
 90
        5
102
RTVSPost2010Prop44ColorRGB
 90
      255
102
RTVSPost2010PropOp44
 70
     1
102
RTVSPost2010Prop45
280
     0
102
RTVSPost2010PropOp45
 70
     1
102
RTVSPost2010Prop46
 90
       50
102
RTVSPost2010PropOp46
 70
     1
102
RTVSPost2010Prop47
 90
       50
102
RTVSPost2010PropOp47
 70
     1
102
RTVSPost2010Prop48
 90
       50
102
RTVSPost2010PropOp48
 70
     1
102
RTVSPost2010Prop49
280
     0
102
RTVSPost2010PropOp49
 70
     1
102
RTVSPost2010Prop50
 90
       50
102
RTVSPost2010PropOp50
 70
     1
102
RTVSPost2010Prop51ColorIndex
 90
      256
102
RTVSPost2010Prop51ColorRGB
 90
-16777216
102
RTVSPost2010PropOp51
 70
     0
102
RTVSPost2010Prop52
140
1.0
102
RTVSPost2010PropOp52
 70
     0
102
RTVSPost2010Prop53
 90
        2
102
RTVSPost2010PropOp53
 70
     1
102
RTVSPost2010Prop54
  1
strokes_ogs.tif
102
RTVSPost2010PropOp54
 70
     1
102
RTVSPost2010Prop55
280
     0
102
RTVSPost2010PropOp55
 70
     1
102
RTVSPost2010Prop56
140
1.0
102
RTVSPost2010PropOp56
 70
     1
102
RTVSPost2010Prop57
140
1.0
102
RTVSPost2010PropOp57
 70
     1
102
RTVSPropertyOp0
 70
     1
102
RTVSPropertyOp1
 70
     1
102
RTVSPropertyOp2
 70
     1
102
RTVSPropertyOp3
 70
     1
102
RTVSPropertyOp4
 70
     1
102
RTVSPropertyOp5
 70
     1
102
RTVSPropertyOp6
 70
     1
102
RTVSPropertyOp7
 70
     1
102
RTVSPropertyOp8
 70
     1
102
RTVSPropertyOp9
 70
     1
102
RTVSPropertyOp10
 70
     1
102
RTVSPropertyOp11
 70
     1
102
RTVSPropertyOp12
 70
     1
102
RTVSPropertyOp13
 70
     1
102
RTVSPropertyOp14
 70
     1
102
RTVSPropertyOp15
 70
     1
102
RTVSPropertyOp16
 70
     1
102
RTVSPropertyOp17
 70
     1
102
RTVSPropertyOp18
 70
     1
102
RTVSPropertyOp19
 70
     1
102
RTVSPropertyOp20
 70
     1
102
RTVSPropertyOp21
 70
     1
102
RTVSPropertyOp22
 70
     1
102
RTVSPropertyOp23
 70
     1
102
RTVSPropertyOp24
 70
     1
102
RTVSPropertyOp25
 70
     1
102
RTVSPropertyOp26
 70
     1
102
RTVSPropertyOp27
 70
     1
102
RTVSPropertyOp28
 70
     1
102
RTVSPropertyOp29
 70
     1
102
RTVSPropertyOp30
 70
     1
102
RTVSPropertyOp31
 70
     1
102
RTVSPropertyOp32
 70
     1
102
RTVSPropertyOp33
 70
     1
102
RTVSPropertyOp34
 70
     1
102
RTVSPropertyOp35
 70
     1
102
RTVSPropertyOp36
 70
     1
102
RTVSPropertyOp37
 70
     1
102
RTVSPropertyOp38
 70
     1
102
RTVSPropertyOp39
 70
     1
102
RTVSPropertyOp40
 70
     1
102
RTVSPropertyOp41
 70
     1
102
RTVSPropertyOp42
 70
     1
102
RTVSPropertyOp43
 70
     1
102
RTVSPropertyOp44
 70
     1
102
RTVSPropertyOp45
 70
     1
102
RTVSPropertyOp46
 70
     1
102
RTVSPropertyOp47
 70
     1
102
RTVSPropertyOp48
 70
     1
102
RTVSPropertyOp49
 70
     1
102
RTVSPropertyOp50
 70
     1
102
RTVSPropertyOp51
 70
     0
102
RTVSPropertyOp52
 70
     0
102
RTVSPropertyOp53
 70
     1
102
RTVSPropertyOp54
 70
     1
102
RTVSPropertyOp55
 70
     1
102
RTVSPropertyOp56
 70
     1
102
RTVSPropertyOp57
 70
     1
102
RTVSPropertyOp58
 70
     1
102
RTVSPropertyOp59
 70
     1
102
RTVSPropertyOp60
 70
     1
102
RTVSPropertyOp61
 70
     1
102
RTVSPropertyOp62
 70
     1
  0
XRECORD
  5
2184
102
{ACAD_REACTORS
330
2183
102
}
330
2183
100
AcDbXrecord
280
     1
102
RTVSPost2010Prop28
280
     0
102
RTVSPost2010PropOp28
 70
     1
102
RTVSPost2010Prop29
280
     1
102
RTVSPost2010PropOp29
 70
     1
102
RTVSPost2010Prop30
280
     1
102
RTVSPost2010PropOp30
 70
     1
102
RTVSPost2010Prop31
280
     0
102
RTVSPost2010PropOp31
 70
     1
102
RTVSPost2010Prop32
280
     0
102
RTVSPost2010PropOp32
 70
     1
102
RTVSPost2010Prop33
280
     0
102
RTVSPost2010PropOp33
 70
     1
102
RTVSPost2010Prop34
280
     0
102
RTVSPost2010PropOp34
 70
     1
102
RTVSPost2010Prop35
280
     0
102
RTVSPost2010PropOp35
 70
     1
102
RTVSPost2010Prop36
280
     0
102
RTVSPost2010PropOp36
 70
     1
102
RTVSPost2010Prop37
 90
       50
102
RTVSPost2010PropOp37
 70
     1
102
RTVSPost2010Prop38
140
0.0
102
RTVSPost2010PropOp38
 70
     1
102
RTVSPost2010Prop39
140
1.0
102
RTVSPost2010PropOp39
 70
     1
102
RTVSPost2010Prop40
 90
        0
102
RTVSPost2010PropOp40
 70
     1
102
RTVSPost2010Prop41ColorIndex
 90
       18
102
RTVSPost2010Prop41ColorRGB
 90
        0
102
RTVSPost2010PropOp41
 70
     1
102
RTVSPost2010Prop42
 90
       50
102
RTVSPost2010PropOp42
 70
     1
102
RTVSPost2010Prop43
 90
        3
102
RTVSPost2010PropOp43
 70
     1
102
RTVSPost2010Prop44ColorIndex
 90
        5
102
RTVSPost2010Prop44ColorRGB
 90
      255
102
RTVSPost2010PropOp44
 70
     1
102
RTVSPost2010Prop45
280
     0
102
RTVSPost2010PropOp45
 70
     1
102
RTVSPost2010Prop46
 90
       50
102
RTVSPost2010PropOp46
 70
     1
102
RTVSPost2010Prop47
 90
       50
102
RTVSPost2010PropOp47
 70
     1
102
RTVSPost2010Prop48
 90
       50
102
RTVSPost2010PropOp48
 70
     1
102
RTVSPost2010Prop49
280
     0
102
RTVSPost2010PropOp49
 70
     1
102
RTVSPost2010Prop50
 90
       50
102
RTVSPost2010PropOp50
 70
     1
102
RTVSPost2010Prop51ColorIndex
 90
      256
102
RTVSPost2010Prop51ColorRGB
 90
-16777216
102
RTVSPost2010PropOp51
 70
     0
102
RTVSPost2010Prop52
140
1.0
102
RTVSPost2010PropOp52
 70
     0
102
RTVSPost2010Prop53
 90
        2
102
RTVSPost2010PropOp53
 70
     1
102
RTVSPost2010Prop54
  1
strokes_ogs.tif
102
RTVSPost2010PropOp54
 70
     1
102
RTVSPost2010Prop55
280
     0
102
RTVSPost2010PropOp55
 70
     1
102
RTVSPost2010Prop56
140
1.0
102
RTVSPost2010PropOp56
 70
     1
102
RTVSPost2010Prop57
140
1.0
102
RTVSPost2010PropOp57
 70
     1
102
RTVSPropertyOp0
 70
     1
102
RTVSPropertyOp1
 70
     1
102
RTVSPropertyOp2
 70
     1
102
RTVSPropertyOp3
 70
     1
102
RTVSPropertyOp4
 70
     1
102
RTVSPropertyOp5
 70
     1
102
RTVSPropertyOp6
 70
     1
102
RTVSPropertyOp7
 70
     1
102
RTVSPropertyOp8
 70
     1
102
RTVSPropertyOp9
 70
     1
102
RTVSPropertyOp10
 70
     1
102
RTVSPropertyOp11
 70
     1
102
RTVSPropertyOp12
 70
     1
102
RTVSPropertyOp13
 70
     1
102
RTVSPropertyOp14
 70
     1
102
RTVSPropertyOp15
 70
     1
102
RTVSPropertyOp16
 70
     1
102
RTVSPropertyOp17
 70
     1
102
RTVSPropertyOp18
 70
     1
102
RTVSPropertyOp19
 70
     1
102
RTVSPropertyOp20
 70
     1
102
RTVSPropertyOp21
 70
     1
102
RTVSPropertyOp22
 70
     1
102
RTVSPropertyOp23
 70
     1
102
RTVSPropertyOp24
 70
     1
102
RTVSPropertyOp25
 70
     1
102
RTVSPropertyOp26
 70
     1
102
RTVSPropertyOp27
 70
     1
102
RTVSPropertyOp28
 70
     1
102
RTVSPropertyOp29
 70
     1
102
RTVSPropertyOp30
 70
     1
102
RTVSPropertyOp31
 70
     1
102
RTVSPropertyOp32
 70
     1
102
RTVSPropertyOp33
 70
     1
102
RTVSPropertyOp34
 70
     1
102
RTVSPropertyOp35
 70
     1
102
RTVSPropertyOp36
 70
     1
102
RTVSPropertyOp37
 70
     1
102
RTVSPropertyOp38
 70
     1
102
RTVSPropertyOp39
 70
     1
102
RTVSPropertyOp40
 70
     1
102
RTVSPropertyOp41
 70
     1
102
RTVSPropertyOp42
 70
     1
102
RTVSPropertyOp43
 70
     1
102
RTVSPropertyOp44
 70
     1
102
RTVSPropertyOp45
 70
     1
102
RTVSPropertyOp46
 70
     1
102
RTVSPropertyOp47
 70
     1
102
RTVSPropertyOp48
 70
     1
102
RTVSPropertyOp49
 70
     1
102
RTVSPropertyOp50
 70
     1
102
RTVSPropertyOp51
 70
     0
102
RTVSPropertyOp52
 70
     0
102
RTVSPropertyOp53
 70
     1
102
RTVSPropertyOp54
 70
     1
102
RTVSPropertyOp55
 70
     1
102
RTVSPropertyOp56
 70
     1
102
RTVSPropertyOp57
 70
     1
102
RTVSPropertyOp58
 70
     1
102
RTVSPropertyOp59
 70
     1
102
RTVSPropertyOp60
 70
     1
102
RTVSPropertyOp61
 70
     1
102
RTVSPropertyOp62
 70
     1
  0
XRECORD
  5
217A
102
{ACAD_REACTORS
330
2179
102
}
330
2179
100
AcDbXrecord
280
     1
102
RTVSPost2010Prop28
280
     0
102
RTVSPost2010PropOp28
 70
     1
102
RTVSPost2010Prop29
280
     1
102
RTVSPost2010PropOp29
 70
     1
102
RTVSPost2010Prop30
280
     1
102
RTVSPost2010PropOp30
 70
     1
102
RTVSPost2010Prop31
280
     0
102
RTVSPost2010PropOp31
 70
     1
102
RTVSPost2010Prop32
280
     0
102
RTVSPost2010PropOp32
 70
     1
102
RTVSPost2010Prop33
280
     0
102
RTVSPost2010PropOp33
 70
     1
102
RTVSPost2010Prop34
280
     0
102
RTVSPost2010PropOp34
 70
     1
102
RTVSPost2010Prop35
280
     0
102
RTVSPost2010PropOp35
 70
     1
102
RTVSPost2010Prop36
280
     0
102
RTVSPost2010PropOp36
 70
     1
102
RTVSPost2010Prop37
 90
       50
102
RTVSPost2010PropOp37
 70
     1
102
RTVSPost2010Prop38
140
0.0
102
RTVSPost2010PropOp38
 70
     1
102
RTVSPost2010Prop39
140
1.0
102
RTVSPost2010PropOp39
 70
     1
102
RTVSPost2010Prop40
 90
        0
102
RTVSPost2010PropOp40
 70
     1
102
RTVSPost2010Prop41ColorIndex
 90
       18
102
RTVSPost2010Prop41ColorRGB
 90
        0
102
RTVSPost2010PropOp41
 70
     1
102
RTVSPost2010Prop42
 90
       50
102
RTVSPost2010PropOp42
 70
     1
102
RTVSPost2010Prop43
 90
        3
102
RTVSPost2010PropOp43
 70
     1
102
RTVSPost2010Prop44ColorIndex
 90
        5
102
RTVSPost2010Prop44ColorRGB
 90
      255
102
RTVSPost2010PropOp44
 70
     1
102
RTVSPost2010Prop45
280
     0
102
RTVSPost2010PropOp45
 70
     1
102
RTVSPost2010Prop46
 90
       50
102
RTVSPost2010PropOp46
 70
     1
102
RTVSPost2010Prop47
 90
       50
102
RTVSPost2010PropOp47
 70
     1
102
RTVSPost2010Prop48
 90
       50
102
RTVSPost2010PropOp48
 70
     1
102
RTVSPost2010Prop49
280
     0
102
RTVSPost2010PropOp49
 70
     1
102
RTVSPost2010Prop50
 90
       50
102
RTVSPost2010PropOp50
 70
     1
102
RTVSPost2010Prop51ColorIndex
 90
      256
102
RTVSPost2010Prop51ColorRGB
 90
-16777216
102
RTVSPost2010PropOp51
 70
     0
102
RTVSPost2010Prop52
140
1.0
102
RTVSPost2010PropOp52
 70
     0
102
RTVSPost2010Prop53
 90
        2
102
RTVSPost2010PropOp53
 70
     1
102
RTVSPost2010Prop54
  1
strokes_ogs.tif
102
RTVSPost2010PropOp54
 70
     1
102
RTVSPost2010Prop55
280
     0
102
RTVSPost2010PropOp55
 70
     1
102
RTVSPost2010Prop56
140
1.0
102
RTVSPost2010PropOp56
 70
     1
102
RTVSPost2010Prop57
140
1.0
102
RTVSPost2010PropOp57
 70
     1
102
RTVSPropertyOp0
 70
     1
102
RTVSPropertyOp1
 70
     1
102
RTVSPropertyOp2
 70
     1
102
RTVSPropertyOp3
 70
     1
102
RTVSPropertyOp4
 70
     1
102
RTVSPropertyOp5
 70
     1
102
RTVSPropertyOp6
 70
     1
102
RTVSPropertyOp7
 70
     1
102
RTVSPropertyOp8
 70
     1
102
RTVSPropertyOp9
 70
     1
102
RTVSPropertyOp10
 70
     1
102
RTVSPropertyOp11
 70
     1
102
RTVSPropertyOp12
 70
     1
102
RTVSPropertyOp13
 70
     1
102
RTVSPropertyOp14
 70
     1
102
RTVSPropertyOp15
 70
     1
102
RTVSPropertyOp16
 70
     1
102
RTVSPropertyOp17
 70
     1
102
RTVSPropertyOp18
 70
     1
102
RTVSPropertyOp19
 70
     1
102
RTVSPropertyOp20
 70
     1
102
RTVSPropertyOp21
 70
     1
102
RTVSPropertyOp22
 70
     1
102
RTVSPropertyOp23
 70
     1
102
RTVSPropertyOp24
 70
     1
102
RTVSPropertyOp25
 70
     1
102
RTVSPropertyOp26
 70
     1
102
RTVSPropertyOp27
 70
     1
102
RTVSPropertyOp28
 70
     1
102
RTVSPropertyOp29
 70
     1
102
RTVSPropertyOp30
 70
     1
102
RTVSPropertyOp31
 70
     1
102
RTVSPropertyOp32
 70
     1
102
RTVSPropertyOp33
 70
     1
102
RTVSPropertyOp34
 70
     1
102
RTVSPropertyOp35
 70
     1
102
RTVSPropertyOp36
 70
     1
102
RTVSPropertyOp37
 70
     1
102
RTVSPropertyOp38
 70
     1
102
RTVSPropertyOp39
 70
     1
102
RTVSPropertyOp40
 70
     1
102
RTVSPropertyOp41
 70
     1
102
RTVSPropertyOp42
 70
     1
102
RTVSPropertyOp43
 70
     1
102
RTVSPropertyOp44
 70
     1
102
RTVSPropertyOp45
 70
     1
102
RTVSPropertyOp46
 70
     1
102
RTVSPropertyOp47
 70
     1
102
RTVSPropertyOp48
 70
     1
102
RTVSPropertyOp49
 70
     1
102
RTVSPropertyOp50
 70
     1
102
RTVSPropertyOp51
 70
     0
102
RTVSPropertyOp52
 70
     0
102
RTVSPropertyOp53
 70
     1
102
RTVSPropertyOp54
 70
     1
102
RTVSPropertyOp55
 70
     1
102
RTVSPropertyOp56
 70
     1
102
RTVSPropertyOp57
 70
     1
102
RTVSPropertyOp58
 70
     1
102
RTVSPropertyOp59
 70
     1
102
RTVSPropertyOp60
 70
     1
102
RTVSPropertyOp61
 70
     1
102
RTVSPropertyOp62
 70
     1
  0
XRECORD
  5
216E
102
{ACAD_REACTORS
330
216D
102
}
330
216D
100
AcDbXrecord
280
     1
102
RTVSPost2010Prop28
280
     0
102
RTVSPost2010PropOp28
 70
     1
102
RTVSPost2010Prop29
280
     1
102
RTVSPost2010PropOp29
 70
     1
102
RTVSPost2010Prop30
280
     1
102
RTVSPost2010PropOp30
 70
     1
102
RTVSPost2010Prop31
280
     0
102
RTVSPost2010PropOp31
 70
     1
102
RTVSPost2010Prop32
280
     0
102
RTVSPost2010PropOp32
 70
     1
102
RTVSPost2010Prop33
280
     0
102
RTVSPost2010PropOp33
 70
     1
102
RTVSPost2010Prop34
280
     0
102
RTVSPost2010PropOp34
 70
     1
102
RTVSPost2010Prop35
280
     0
102
RTVSPost2010PropOp35
 70
     1
102
RTVSPost2010Prop36
280
     0
102
RTVSPost2010PropOp36
 70
     1
102
RTVSPost2010Prop37
 90
       50
102
RTVSPost2010PropOp37
 70
     1
102
RTVSPost2010Prop38
140
0.0
102
RTVSPost2010PropOp38
 70
     1
102
RTVSPost2010Prop39
140
1.0
102
RTVSPost2010PropOp39
 70
     1
102
RTVSPost2010Prop40
 90
        0
102
RTVSPost2010PropOp40
 70
     1
102
RTVSPost2010Prop41ColorIndex
 90
       18
102
RTVSPost2010Prop41ColorRGB
 90
        0
102
RTVSPost2010PropOp41
 70
     1
102
RTVSPost2010Prop42
 90
       50
102
RTVSPost2010PropOp42
 70
     1
102
RTVSPost2010Prop43
 90
        3
102
RTVSPost2010PropOp43
 70
     1
102
RTVSPost2010Prop44ColorIndex
 90
        5
102
RTVSPost2010Prop44ColorRGB
 90
      255
102
RTVSPost2010PropOp44
 70
     1
102
RTVSPost2010Prop45
280
     0
102
RTVSPost2010PropOp45
 70
     1
102
RTVSPost2010Prop46
 90
       50
102
RTVSPost2010PropOp46
 70
     1
102
RTVSPost2010Prop47
 90
       50
102
RTVSPost2010PropOp47
 70
     1
102
RTVSPost2010Prop48
 90
       50
102
RTVSPost2010PropOp48
 70
     1
102
RTVSPost2010Prop49
280
     0
102
RTVSPost2010PropOp49
 70
     1
102
RTVSPost2010Prop50
 90
       50
102
RTVSPost2010PropOp50
 70
     1
102
RTVSPost2010Prop51ColorIndex
 90
      256
102
RTVSPost2010Prop51ColorRGB
 90
-16777216
102
RTVSPost2010PropOp51
 70
     0
102
RTVSPost2010Prop52
140
1.0
102
RTVSPost2010PropOp52
 70
     0
102
RTVSPost2010Prop53
 90
        2
102
RTVSPost2010PropOp53
 70
     1
102
RTVSPost2010Prop54
  1
strokes_ogs.tif
102
RTVSPost2010PropOp54
 70
     1
102
RTVSPost2010Prop55
280
     0
102
RTVSPost2010PropOp55
 70
     1
102
RTVSPost2010Prop56
140
1.0
102
RTVSPost2010PropOp56
 70
     1
102
RTVSPost2010Prop57
140
1.0
102
RTVSPost2010PropOp57
 70
     1
102
RTVSPropertyOp0
 70
     1
102
RTVSPropertyOp1
 70
     1
102
RTVSPropertyOp2
 70
     1
102
RTVSPropertyOp3
 70
     1
102
RTVSPropertyOp4
 70
     1
102
RTVSPropertyOp5
 70
     1
102
RTVSPropertyOp6
 70
     1
102
RTVSPropertyOp7
 70
     1
102
RTVSPropertyOp8
 70
     1
102
RTVSPropertyOp9
 70
     1
102
RTVSPropertyOp10
 70
     1
102
RTVSPropertyOp11
 70
     1
102
RTVSPropertyOp12
 70
     1
102
RTVSPropertyOp13
 70
     1
102
RTVSPropertyOp14
 70
     1
102
RTVSPropertyOp15
 70
     1
102
RTVSPropertyOp16
 70
     1
102
RTVSPropertyOp17
 70
     1
102
RTVSPropertyOp18
 70
     1
102
RTVSPropertyOp19
 70
     1
102
RTVSPropertyOp20
 70
     1
102
RTVSPropertyOp21
 70
     1
102
RTVSPropertyOp22
 70
     1
102
RTVSPropertyOp23
 70
     1
102
RTVSPropertyOp24
 70
     1
102
RTVSPropertyOp25
 70
     1
102
RTVSPropertyOp26
 70
     1
102
RTVSPropertyOp27
 70
     1
102
RTVSPropertyOp28
 70
     1
102
RTVSPropertyOp29
 70
     1
102
RTVSPropertyOp30
 70
     1
102
RTVSPropertyOp31
 70
     1
102
RTVSPropertyOp32
 70
     1
102
RTVSPropertyOp33
 70
     1
102
RTVSPropertyOp34
 70
     1
102
RTVSPropertyOp35
 70
     1
102
RTVSPropertyOp36
 70
     1
102
RTVSPropertyOp37
 70
     1
102
RTVSPropertyOp38
 70
     1
102
RTVSPropertyOp39
 70
     1
102
RTVSPropertyOp40
 70
     1
102
RTVSPropertyOp41
 70
     1
102
RTVSPropertyOp42
 70
     1
102
RTVSPropertyOp43
 70
     1
102
RTVSPropertyOp44
 70
     1
102
RTVSPropertyOp45
 70
     1
102
RTVSPropertyOp46
 70
     1
102
RTVSPropertyOp47
 70
     1
102
RTVSPropertyOp48
 70
     1
102
RTVSPropertyOp49
 70
     1
102
RTVSPropertyOp50
 70
     1
102
RTVSPropertyOp51
 70
     0
102
RTVSPropertyOp52
 70
     0
102
RTVSPropertyOp53
 70
     1
102
RTVSPropertyOp54
 70
     1
102
RTVSPropertyOp55
 70
     1
102
RTVSPropertyOp56
 70
     1
102
RTVSPropertyOp57
 70
     1
102
RTVSPropertyOp58
 70
     1
102
RTVSPropertyOp59
 70
     1
102
RTVSPropertyOp60
 70
     1
102
RTVSPropertyOp61
 70
     1
102
RTVSPropertyOp62
 70
     1
  0
XRECORD
  5
2186
102
{ACAD_REACTORS
330
2185
102
}
330
2185
100
AcDbXrecord
280
     1
102
RTVSPost2010Prop28
280
     0
102
RTVSPost2010PropOp28
 70
     1
102
RTVSPost2010Prop29
280
     1
102
RTVSPost2010PropOp29
 70
     1
102
RTVSPost2010Prop30
280
     1
102
RTVSPost2010PropOp30
 70
     1
102
RTVSPost2010Prop31
280
     0
102
RTVSPost2010PropOp31
 70
     1
102
RTVSPost2010Prop32
280
     0
102
RTVSPost2010PropOp32
 70
     1
102
RTVSPost2010Prop33
280
     0
102
RTVSPost2010PropOp33
 70
     1
102
RTVSPost2010Prop34
280
     0
102
RTVSPost2010PropOp34
 70
     1
102
RTVSPost2010Prop35
280
     0
102
RTVSPost2010PropOp35
 70
     1
102
RTVSPost2010Prop36
280
     0
102
RTVSPost2010PropOp36
 70
     1
102
RTVSPost2010Prop37
 90
       50
102
RTVSPost2010PropOp37
 70
     1
102
RTVSPost2010Prop38
140
0.0
102
RTVSPost2010PropOp38
 70
     1
102
RTVSPost2010Prop39
140
1.0
102
RTVSPost2010PropOp39
 70
     1
102
RTVSPost2010Prop40
 90
        0
102
RTVSPost2010PropOp40
 70
     1
102
RTVSPost2010Prop41ColorIndex
 90
       18
102
RTVSPost2010Prop41ColorRGB
 90
        0
102
RTVSPost2010PropOp41
 70
     1
102
RTVSPost2010Prop42
 90
       50
102
RTVSPost2010PropOp42
 70
     1
102
RTVSPost2010Prop43
 90
        3
102
RTVSPost2010PropOp43
 70
     1
102
RTVSPost2010Prop44ColorIndex
 90
        5
102
RTVSPost2010Prop44ColorRGB
 90
      255
102
RTVSPost2010PropOp44
 70
     1
102
RTVSPost2010Prop45
280
     0
102
RTVSPost2010PropOp45
 70
     1
102
RTVSPost2010Prop46
 90
       50
102
RTVSPost2010PropOp46
 70
     1
102
RTVSPost2010Prop47
 90
       50
102
RTVSPost2010PropOp47
 70
     1
102
RTVSPost2010Prop48
 90
       50
102
RTVSPost2010PropOp48
 70
     1
102
RTVSPost2010Prop49
280
     0
102
RTVSPost2010PropOp49
 70
     1
102
RTVSPost2010Prop50
 90
       50
102
RTVSPost2010PropOp50
 70
     1
102
RTVSPost2010Prop51ColorIndex
 90
      256
102
RTVSPost2010Prop51ColorRGB
 90
-16777216
102
RTVSPost2010PropOp51
 70
     0
102
RTVSPost2010Prop52
140
1.0
102
RTVSPost2010PropOp52
 70
     0
102
RTVSPost2010Prop53
 90
        2
102
RTVSPost2010PropOp53
 70
     1
102
RTVSPost2010Prop54
  1
strokes_ogs.tif
102
RTVSPost2010PropOp54
 70
     1
102
RTVSPost2010Prop55
280
     0
102
RTVSPost2010PropOp55
 70
     1
102
RTVSPost2010Prop56
140
1.0
102
RTVSPost2010PropOp56
 70
     1
102
RTVSPost2010Prop57
140
1.0
102
RTVSPost2010PropOp57
 70
     1
102
RTVSPropertyOp0
 70
     1
102
RTVSPropertyOp1
 70
     1
102
RTVSPropertyOp2
 70
     1
102
RTVSPropertyOp3
 70
     1
102
RTVSPropertyOp4
 70
     1
102
RTVSPropertyOp5
 70
     1
102
RTVSPropertyOp6
 70
     1
102
RTVSPropertyOp7
 70
     1
102
RTVSPropertyOp8
 70
     1
102
RTVSPropertyOp9
 70
     1
102
RTVSPropertyOp10
 70
     1
102
RTVSPropertyOp11
 70
     1
102
RTVSPropertyOp12
 70
     1
102
RTVSPropertyOp13
 70
     1
102
RTVSPropertyOp14
 70
     1
102
RTVSPropertyOp15
 70
     1
102
RTVSPropertyOp16
 70
     1
102
RTVSPropertyOp17
 70
     1
102
RTVSPropertyOp18
 70
     1
102
RTVSPropertyOp19
 70
     1
102
RTVSPropertyOp20
 70
     1
102
RTVSPropertyOp21
 70
     1
102
RTVSPropertyOp22
 70
     1
102
RTVSPropertyOp23
 70
     1
102
RTVSPropertyOp24
 70
     1
102
RTVSPropertyOp25
 70
     1
102
RTVSPropertyOp26
 70
     1
102
RTVSPropertyOp27
 70
     1
102
RTVSPropertyOp28
 70
     1
102
RTVSPropertyOp29
 70
     1
102
RTVSPropertyOp30
 70
     1
102
RTVSPropertyOp31
 70
     1
102
RTVSPropertyOp32
 70
     1
102
RTVSPropertyOp33
 70
     1
102
RTVSPropertyOp34
 70
     1
102
RTVSPropertyOp35
 70
     1
102
RTVSPropertyOp36
 70
     1
102
RTVSPropertyOp37
 70
     1
102
RTVSPropertyOp38
 70
     1
102
RTVSPropertyOp39
 70
     1
102
RTVSPropertyOp40
 70
     1
102
RTVSPropertyOp41
 70
     1
102
RTVSPropertyOp42
 70
     1
102
RTVSPropertyOp43
 70
     1
102
RTVSPropertyOp44
 70
     1
102
RTVSPropertyOp45
 70
     1
102
RTVSPropertyOp46
 70
     1
102
RTVSPropertyOp47
 70
     1
102
RTVSPropertyOp48
 70
     1
102
RTVSPropertyOp49
 70
     1
102
RTVSPropertyOp50
 70
     1
102
RTVSPropertyOp51
 70
     0
102
RTVSPropertyOp52
 70
     0
102
RTVSPropertyOp53
 70
     1
102
RTVSPropertyOp54
 70
     1
102
RTVSPropertyOp55
 70
     1
102
RTVSPropertyOp56
 70
     1
102
RTVSPropertyOp57
 70
     1
102
RTVSPropertyOp58
 70
     1
102
RTVSPropertyOp59
 70
     1
102
RTVSPropertyOp60
 70
     1
102
RTVSPropertyOp61
 70
     1
102
RTVSPropertyOp62
 70
     1
  0
ENDSEC
  0
EOF
